<?xml version="1.0" standalone="no"?>
<!DOCTYPE svg PUBLIC "-//W3C//DTD SVG 1.1//EN" "http://www.w3.org/Graphics/SVG/1.1/DTD/svg11.dtd" >
<svg xmlns="http://www.w3.org/2000/svg" xmlns:xlink="http://www.w3.org/1999/xlink" version="1.1">
<metadata>
Created by FontForge 20170910 at Sun Jul 11 10:58:02 2010
 By Jimmy Wärting
Copyright 2000-2007 Dalton Maag Ltd. All rights reserved. No modification without the prior permission of Dalton Maag Ltd.
</metadata>
<defs>
<font id="InterFaceCorp-XBold" horiz-adv-x="345" >
  <font-face 
    font-family="InterFace Corp XBold"
    font-weight="400"
    font-stretch="normal"
    units-per-em="1000"
    panose-1="2 11 9 3 3 2 3 2 2 4"
    ascent="800"
    descent="-200"
    x-height="488"
    cap-height="668"
    bbox="-252 -223 1330 938"
    underline-thickness="20"
    underline-position="-133"
    unicode-range="U+0008-FB04"
  />
<missing-glyph horiz-adv-x="500" 
d="M50 0v750h400v-750h-400zM400 50v650h-300v-650h300z" />
    <glyph glyph-name="f_b" unicode="fb" horiz-adv-x="914" 
d="M78 0v366h-67v122h67v15q0 46 20.5 79t56.5 55t85.5 32.5t106.5 10.5q31 0 63 -2.5t61 -6t53.5 -8t42.5 -8.5v-169q20 6 42.5 9.5t51.5 3.5q53 0 95 -19t70.5 -52t43.5 -78t15 -96q0 -68 -20.5 -118t-57.5 -82.5t-87.5 -48.5t-110.5 -16q-66 0 -118.5 11.5t-97.5 28.5
v523q-10 2 -27 2.5t-28 0.5q-41 0 -64 -14t-23 -41v-12h84v-122h-83v-366h-174zM567 124q11 -3 21.5 -4.5t24.5 -1.5q45 0 73 31.5t28 96.5q0 63 -27.5 93t-69.5 30q-14 0 -26 -2.5t-24 -6.5v-236z" />
    <glyph glyph-name="f_j" unicode="fj" horiz-adv-x="611" 
d="M78 0v366h-67v122h67v16q0 42 16 75t45 55.5t70 34t91 11.5q70 0 110.5 -11t65.5 -25l-54 -112q-18 11 -41.5 18t-54.5 7q-34 0 -54.5 -14.5t-20.5 -45.5v-9h88v-122h-87v-366h-174zM319 -100q19 12 33 23.5t23 24t13 29t4 39.5v472h174v-478q0 -43 -10.5 -76t-30 -59
t-48 -45t-63.5 -33z" />
    <glyph glyph-name="f_k" unicode="fk" horiz-adv-x="902" 
d="M78 0v366h-67v122h67v15q0 46 20.5 79t56.5 55t85.5 32.5t106.5 10.5q31 0 63 -2.5t61 -6t53.5 -8t42.5 -8.5v-298l136 131h187l-155 -158l175 -330h-191l-110 219l-42 -44v-175h-174v552q-10 2 -27 2.5t-28 0.5q-41 0 -64 -14t-23 -41v-12h84v-122h-83v-366h-174z" />
    <glyph glyph-name="f_t" unicode="ft" horiz-adv-x="762" 
d="M78 0v366h-67v122h67v16q0 86 48.5 131t134.5 45q51 0 91 -10t63 -21l-40 -107q-16 7 -33 11t-38 4q-24 0 -38.5 -14.5t-14.5 -40.5v-14h192v123h175v-123h113v-122h-113v-196q0 -25 5.5 -39t24.5 -14q18 0 34.5 8t29.5 18l45 -106q-33 -23 -71.5 -35t-89.5 -12
q-43 0 -72.5 11.5t-47.5 32.5t-25.5 51t-7.5 67v214h-191v-366h-174z" />
    <glyph glyph-name="f_h" unicode="fh" horiz-adv-x="929" 
d="M78 0v366h-67v122h67v15q0 46 20.5 79t56.5 55t85.5 32.5t106.5 10.5q31 0 63 -2.5t61 -6t53.5 -8t42.5 -8.5v-193q22 15 54 26t75 11q91 0 137.5 -50.5t46.5 -141.5v-307h-175v289q0 42 -17.5 61.5t-43.5 19.5q-24 0 -44 -10.5t-33 -21.5v-338h-174v552q-10 2 -27 2.5
t-28 0.5q-41 0 -64 -14t-23 -41v-12h84v-122h-83v-366h-174z" />
    <glyph glyph-name="f_f" unicode="ff" horiz-adv-x="722" 
d="M78 0v366h-67v122h67v16q0 86 48.5 131t134.5 45q51 0 91 -10t63 -21l-40 -107q-16 7 -33 11t-38 4q-24 0 -38.5 -14.5t-14.5 -40.5v-14h184v16q0 86 48.5 131t134.5 45q51 0 91 -10t63 -21l-40 -107q-16 7 -33 11t-38 4q-24 0 -38.5 -14.5t-14.5 -40.5v-14h104v-122
h-103v-366h-174v366h-183v-366h-174z" />
    <glyph glyph-name="f_i" unicode="fi" horiz-adv-x="618" 
d="M393 0v488h174v-488h-174zM78 0v366h-67v122h67v16q0 42 16 75t45 55.5t70 34t91 11.5q70 0 110.5 -11t65.5 -25l-54 -112q-18 11 -41.5 18t-54.5 7q-34 0 -54.5 -14.5t-20.5 -45.5v-9h88v-122h-87v-366h-174z" />
    <glyph glyph-name="f_l" unicode="fl" horiz-adv-x="618" 
d="M78 0v366h-67v122h67v15q0 46 20.5 79t56.5 55t85.5 32.5t106.5 10.5q31 0 63 -2.5t61 -6t53.5 -8t42.5 -8.5v-655h-174v552q-10 2 -27 2.5t-28 0.5q-41 0 -64 -14t-23 -41v-12h84v-122h-83v-366h-174z" />
    <glyph glyph-name="f_f_i" unicode="ffi" horiz-adv-x="975" 
d="M78 0v366h-67v122h67v16q0 86 48.5 131t134.5 45q51 0 91 -10t63 -21l-40 -107q-16 7 -33 11t-38 4q-24 0 -38.5 -14.5t-14.5 -40.5v-14h184v16q0 42 16 75t45 55.5t70 34t91 11.5q70 0 110.5 -11t65.5 -25l-54 -112q-18 11 -41.5 18t-54.5 7q-34 0 -54.5 -14.5
t-20.5 -45.5v-9h88v-122h-87v-366h-174v366h-183v-366h-174zM750 0v488h174v-488h-174z" />
    <glyph glyph-name="f_f_l" unicode="ffl" horiz-adv-x="974" 
d="M78 0v366h-67v122h67v16q0 86 48.5 131t134.5 45q51 0 91 -10t63 -21l-40 -107q-16 7 -33 11t-38 4q-24 0 -38.5 -14.5t-14.5 -40.5v-14h183v15q0 46 20.5 79t56.5 55t85.5 32.5t106.5 10.5q31 0 63 -2.5t61 -6t53.5 -8t42.5 -8.5v-655h-174v552q-10 2 -27 2.5t-28 0.5
q-41 0 -64 -14t-23 -41v-12h84v-122h-83v-366h-174v366h-182v-366h-174z" />
    <glyph glyph-name=".notdef" horiz-adv-x="500" 
d="M50 0v750h400v-750h-400zM400 50v650h-300v-650h300z" />
    <glyph glyph-name=".null" horiz-adv-x="0" 
 />
    <glyph glyph-name=".null" horiz-adv-x="0" 
 />
    <glyph glyph-name=".null" horiz-adv-x="0" 
 />
    <glyph glyph-name="nonmarkingreturn" unicode="&#x9;" horiz-adv-x="175" 
 />
    <glyph glyph-name="nonmarkingreturn" unicode="&#xd;" horiz-adv-x="175" 
 />
    <glyph glyph-name="space" unicode=" " horiz-adv-x="175" 
 />
    <glyph glyph-name="exclam" unicode="!" horiz-adv-x="264" 
d="M44 221v446h176v-446h-176zM64 13q-26 24 -26 62t26 62t68 24q41 0 67.5 -24t26.5 -62t-26.5 -61.5t-67.5 -23.5q-42 0 -68 23z" />
    <glyph glyph-name="quotedbl" unicode="&#x22;" horiz-adv-x="412" 
d="M234 371v296h141v-296h-141zM36 371v296h142v-296h-142z" />
    <glyph glyph-name="numbersign" unicode="#" horiz-adv-x="674" 
d="M144 38v121h-117v134h117v104h-117v134h117v122h147v-122h94v122h146v-122h118v-134h-118v-104h118v-134h-118v-121h-146v121h-94v-121h-147zM289 291h98v109h-98v-109z" />
    <glyph glyph-name="dollar" unicode="$" horiz-adv-x="573" 
d="M221 -155v145q-60 5 -115.5 30.5t-95.5 78.5l114 105q13 -15 30 -29t37 -25t41.5 -17.5t43.5 -6.5q37 0 60.5 14t23.5 40q0 15 -5.5 26.5t-19 21.5t-35 19t-54.5 20q-45 14 -83.5 30.5t-67 40t-45 57t-16.5 82.5q0 40 13.5 73.5t38.5 58.5t59 41t76 23v166h124v-164
q61 -8 106 -36t74 -67l-114 -90q-20 27 -54 44t-68 17q-38 0 -59.5 -15t-21.5 -38q0 -28 27 -42.5t76 -29.5q42 -14 82.5 -30.5t72 -41.5t51 -62t19.5 -91q0 -44 -15 -79t-40.5 -60t-60.5 -41t-75 -22v-146h-124z" />
    <glyph glyph-name="percent" unicode="%" horiz-adv-x="802" 
d="M481 40q-23 23 -34.5 53t-11.5 62t11.5 61.5t34.5 52.5t56 37t77 14q43 0 76.5 -13.5t56 -36.5t34 -53t11.5 -62t-11.5 -62t-34 -52.5t-56 -36t-76.5 -13.5q-44 0 -77 13.5t-56 35.5zM111 359q-33 14 -55.5 36.5t-34 52.5t-11.5 62t11.5 62t34 53t56 36.5t76.5 13.5
t76.5 -13.5t56.5 -36.5t34.5 -53t11.5 -62t-11.5 -62t-34.5 -52.5t-56.5 -36t-76.5 -13.5t-77 13zM576 109q14 -17 37 -17t37 17.5t14 46.5t-14 47t-37 18t-37 -18t-14 -47t14 -47zM151 464q14 -17 37 -17t37 17.5t14 47.5q0 29 -14 46.5t-37 17.5t-37 -17.5t-14 -46.5
q0 -30 14 -48zM108 -13l-79 83l666 611l81 -80z" />
    <glyph glyph-name="ampersand" unicode="&#x26;" horiz-adv-x="686" 
d="M478 0l-53 70q-17 -17 -34.5 -31.5t-39.5 -25.5t-50.5 -17t-65.5 -6q-48 0 -86.5 16t-66 43.5t-42.5 64.5t-15 80q0 73 39.5 125.5t110.5 87.5q-20 25 -34 52.5t-14 62.5q0 34 15 62t41 48t61.5 31t77.5 11q85 0 133 -30.5t77 -85.5l-124 -65q-13 25 -30 41t-40 16
q-18 0 -30 -9.5t-12 -26.5q0 -11 7.5 -24t18.5 -27l113 -147q30 46 66.5 84.5t81.5 63.5l81 -118q-45 -31 -77.5 -69.5t-59.5 -82.5l145 -194h-194zM258 296q-66 -37 -66 -101q0 -31 18.5 -50.5t48.5 -19.5q26 0 45.5 16t37.5 42z" />
    <glyph glyph-name="quotesingle" unicode="'" horiz-adv-x="214" 
d="M36 371v296h142v-296h-142z" />
    <glyph glyph-name="parenleft" unicode="(" horiz-adv-x="351" 
d="M280 -64q-50 24 -94 61t-77 87.5t-52.5 114.5t-19.5 142q0 77 19.5 141t52.5 114.5t77 88t94 61.5l66 -92q-59 -45 -96 -122t-37 -191q0 -115 37 -192t96 -122z" />
    <glyph glyph-name="parenright" unicode=")" horiz-adv-x="352" 
d="M5 27q59 45 96 122t37 192q0 114 -36.5 191t-95.5 122l65 92q49 -24 93.5 -61.5t77.5 -88t52.5 -114.5t19.5 -141q0 -78 -19.5 -142t-52.5 -114.5t-77.5 -87.5t-93.5 -61z" />
    <glyph glyph-name="asterisk" unicode="*" horiz-adv-x="455" 
d="M80 383l-51 86l109 66l-111 68l57 81l92 -59v100h99v-100l95 59l58 -81l-110 -67l107 -67l-51 -86l-99 61v-105h-99v105z" />
    <glyph glyph-name="plus" unicode="+" horiz-adv-x="573" 
d="M215 75v187h-181v138h181v190h142v-190h182v-138h-182v-187h-142z" />
    <glyph glyph-name="comma" unicode="," horiz-adv-x="247" 
d="M2 -52q22 5 45.5 17t34.5 24q-17 8 -31.5 27t-14.5 50q0 35 22 61t67 26q41 0 66 -25t25 -67q0 -52 -46 -101t-146 -75z" />
    <glyph glyph-name="hyphen" unicode="-" horiz-adv-x="330" 
d="M27 201v141h276v-141h-276z" />
    <glyph glyph-name="period" unicode="." horiz-adv-x="242" 
d="M55 13q-24 23 -24 58q0 36 24 59.5t66 23.5t66 -23.5t24 -59.5q0 -35 -24 -58t-66 -23t-66 23z" />
    <glyph glyph-name="slash" unicode="/" horiz-adv-x="534" 
d="M0 29l408 738l126 -65l-407 -739z" />
    <glyph glyph-name="zero" unicode="0" horiz-adv-x="573" 
d="M164 13q-50 28 -82.5 75t-47.5 109.5t-15 132.5t15 132.5t47.5 109.5t83 74.5t121.5 27.5t122 -27.5t83.5 -74.5t47.5 -109.5t15 -132.5t-15 -132.5t-47.5 -109.5t-83.5 -74.5t-122 -27.5t-122 27zM220 181q21 -51 66 -51t66 51.5t21 148.5t-20.5 148.5t-66.5 51.5
q-45 0 -65.5 -51.5t-20.5 -148.5t20 -149z" />
    <glyph glyph-name="one" unicode="1" horiz-adv-x="573" 
d="M247 0v463l-118 -69l-75 132l241 136h133v-662h-181z" />
    <glyph glyph-name="two" unicode="2" horiz-adv-x="573" 
d="M52 0v100q23 18 53 45t62 59.5t63 68t55 70t39 66t15 55.5q0 62 -66 62q-33 0 -62.5 -26t-49.5 -61l-136 75q16 31 39.5 60t55.5 51t73.5 35.5t94.5 13.5q51 0 93.5 -13t73 -38t47.5 -62t17 -84q0 -52 -19 -98t-49 -86.5t-67.5 -77.5t-74.5 -71h229v-144h-486z" />
    <glyph glyph-name="three" unicode="3" horiz-adv-x="573" 
d="M139 215q23 -41 56 -61t74 -20t65.5 19t24.5 47q0 35 -29.5 55t-103.5 21v117q36 1 59 7t36.5 16t18.5 23.5t5 28.5q0 26 -19 42t-54 16q-38 0 -66 -17.5t-54 -53.5l-126 82q19 29 44 54t57 43.5t72.5 29t90.5 10.5q49 0 92.5 -12.5t75.5 -35.5t50.5 -57t18.5 -77
q0 -34 -8.5 -58.5t-22 -42.5t-30.5 -30t-35 -20q21 -7 40.5 -19t34 -30.5t23.5 -43.5t9 -58q0 -50 -20.5 -88t-56 -63.5t-82.5 -38t-100 -12.5q-190 0 -269 135z" />
    <glyph glyph-name="four" unicode="4" horiz-adv-x="573" 
d="M20 148v133l310 381h152v-381h71v-133h-71v-148h-170v148h-292zM179 281h133v171z" />
    <glyph glyph-name="five" unicode="5" horiz-adv-x="573" 
d="M161 204q20 -33 50.5 -52t68.5 -19q35 0 57.5 19t22.5 56q0 24 -9 42.5t-29.5 31.5t-54 19.5t-83.5 6.5h-109v354h428v-142h-273v-86h40q60 0 109 -14t84 -42t54 -70.5t19 -98.5t-19.5 -97t-53 -69t-79.5 -41.5t-99 -13.5q-92 0 -154 31t-100 94z" />
    <glyph glyph-name="six" unicode="6" horiz-adv-x="573" 
d="M469 551q-78 -16 -137 -50.5t-85 -82.5q17 8 40 13.5t53 5.5q46 0 83 -16t63 -45t40.5 -68.5t14.5 -86.5q0 -49 -16.5 -91.5t-48 -74t-78 -49.5t-107.5 -18q-57 0 -103.5 19t-79.5 54.5t-51 86.5t-18 114q0 98 37 177.5t114 137.5q51 39 113 63.5t130 35.5zM248 306
q-18 -5 -29 -12q-2 -8 -4 -23.5t-2 -31.5q0 -29 6.5 -49.5t17 -33.5t24.5 -19t30 -6q33 0 53 22.5t20 64.5t-21.5 67.5t-53.5 25.5q-23 0 -41 -5z" />
    <glyph glyph-name="seven" unicode="7" horiz-adv-x="573" 
d="M98 0l241 518h-302v144h504v-114l-259 -548h-184z" />
    <glyph glyph-name="eight" unicode="8" horiz-adv-x="573" 
d="M61 281q24 38 68 62q-38 24 -59.5 58t-21.5 88q0 36 15.5 69.5t46 59t75 41t102.5 15.5t102.5 -15t75 -40.5t46 -59t15.5 -69.5q0 -54 -21.5 -88.5t-58.5 -57.5q44 -24 67 -62t23 -92q0 -40 -15.5 -77t-46.5 -65t-77.5 -44.5t-109.5 -16.5q-62 0 -109 16.5t-78 44.5
t-46.5 65t-15.5 77q0 54 23 91zM235 421q19 -22 52 -22t52 22t19 52t-19 50.5t-52 20.5q-32 0 -51.5 -21t-19.5 -51q0 -29 19 -51zM228 145q21 -23 59 -23t58.5 22.5t20.5 56.5q0 33 -21 56t-58 23t-58 -22.5t-21 -55.5q0 -34 20 -57z" />
    <glyph glyph-name="nine" unicode="9" horiz-adv-x="573" 
d="M105 111q37 8 71.5 22t64 32t52 40t35.5 45q-16 -8 -41.5 -13.5t-52.5 -5.5q-47 0 -84 16.5t-63 45t-40 67.5t-14 83q0 48 16.5 90t48 73.5t78 49.5t107.5 18q55 0 101.5 -17.5t80.5 -52t53 -85t19 -115.5q0 -83 -28.5 -152.5t-82.5 -126.5q-51 -52 -121 -87.5
t-161 -50.5zM325 361q16 4 30 11q2 8 3.5 21.5t1.5 30.5q0 52 -22 80.5t-57 28.5t-52.5 -27t-17.5 -60q0 -38 21.5 -63t56.5 -25q20 0 36 3z" />
    <glyph glyph-name="colon" unicode=":" horiz-adv-x="242" 
d="M55 347q-24 23 -24 59t24 59t66 23t66 -23t24 -59t-24 -59t-66 -23t-66 23zM55 13q-24 23 -24 58q0 36 24 59.5t66 23.5t66 -23.5t24 -59.5q0 -35 -24 -58t-66 -23t-66 23z" />
    <glyph glyph-name="semicolon" unicode=";" horiz-adv-x="247" 
d="M59 347q-24 23 -24 59t24 59t66 23t66 -23t24 -59t-24 -59t-66 -23t-66 23zM2 -52q22 5 45.5 17t34.5 24q-17 8 -31.5 27t-14.5 50q0 35 22 61t67 26q41 0 66 -25t25 -67q0 -52 -46 -101t-146 -75z" />
    <glyph glyph-name="less" unicode="&#x3c;" horiz-adv-x="573" 
d="M26 264v125l479 167l42 -140l-290 -87l300 -96l-44 -143z" />
    <glyph glyph-name="equal" unicode="=" horiz-adv-x="573" 
d="M34 368v137h505v-137h-505zM34 140v137h505v-137h-505z" />
    <glyph glyph-name="greater" unicode="&#x3e;" horiz-adv-x="573" 
d="M61 90l-44 143l300 96l-290 87l42 140l479 -167v-125z" />
    <glyph glyph-name="question" unicode="?" horiz-adv-x="458" 
d="M130 221v40q0 42 19.5 74.5t42.5 52.5q37 31 60 53.5t23 51.5q0 24 -14.5 38t-39.5 14q-35 0 -60.5 -20.5t-49.5 -55.5l-119 83q17 27 39.5 50t51 40.5t64 27.5t80.5 10q106 0 163.5 -50t57.5 -133q0 -54 -25 -91t-60 -67q-31 -27 -47 -49t-16 -53v-16h-170zM148 13
q-26 24 -26 62t26.5 62t67.5 24q42 0 68 -24t26 -62t-26 -61.5t-68 -23.5q-41 0 -68 23z" />
    <glyph glyph-name="at" unicode="@" horiz-adv-x="848" 
d="M164 -91q-24 28 -46 64.5t-38.5 79.5t-26.5 93.5t-10 107.5q0 109 35 189t92 132.5t131 78.5t152 26q69 0 126 -16t98 -48.5t63.5 -81t22.5 -112.5v-424q0 -21 10 -30.5t26 -9.5q13 0 26 4.5t23 11.5l36 -112q-27 -14 -61 -22.5t-71 -8.5q-33 0 -61.5 9.5t-50.5 29
t-34.5 49t-12.5 68.5v28q-20 -10 -45.5 -16.5t-57.5 -6.5q-43 0 -78 18t-60 49t-38.5 72.5t-13.5 89.5q0 54 15 95.5t42 70t63.5 43t79.5 14.5q29 0 52 -5.5t41 -13.5v18q0 53 -41 77t-105 24q-41 0 -84.5 -16t-79 -51t-58 -90.5t-22.5 -134.5q0 -70 23.5 -134t65.5 -121z
M593 300q-11 5 -24.5 9.5t-31.5 4.5q-31 0 -51.5 -22t-20.5 -72q0 -52 21 -77.5t50 -25.5q17 0 31 4.5t26 12.5v166z" />
    <glyph glyph-name="A" unicode="A" horiz-adv-x="677" 
d="M-5 0l259 668h167l261 -668h-192l-43 115h-224l-44 -115h-184zM262 251h144l-72 203z" />
    <glyph glyph-name="B" unicode="B" horiz-adv-x="612" 
d="M62 0v667h265q51 0 93.5 -11.5t73 -34t47.5 -55.5t17 -76q0 -28 -7.5 -49.5t-19.5 -38.5t-27.5 -29.5t-31.5 -21.5q25 -7 47 -20.5t38.5 -33.5t26 -46.5t9.5 -59.5q0 -49 -17.5 -85t-48 -59.5t-72.5 -35t-91 -11.5h-302zM237 402h74q35 0 54 18t19 47q0 32 -22 47t-58 15
h-67v-127zM237 142h103q30 0 52 14.5t22 48.5q0 36 -23.5 52.5t-55.5 16.5h-98v-132z" />
    <glyph glyph-name="C" unicode="C" horiz-adv-x="637" 
d="M617 148q-37 -80 -100 -121t-170 -41q-71 0 -128.5 24t-98 69t-62.5 109t-22 144q0 86 24.5 151.5t66.5 109t97.5 65.5t118.5 22q52 0 93 -11t73.5 -33t57.5 -54t45 -75l-145 -77q-19 48 -45 74.5t-70 26.5q-33 0 -58 -15t-41.5 -41t-25 -63t-8.5 -80q0 -88 37 -139.5
t99 -51.5q45 0 72.5 23.5t44.5 62.5z" />
    <glyph glyph-name="D" unicode="D" horiz-adv-x="672" 
d="M62 0v667h182q45 0 96 -4t94 -18q50 -17 88 -47t63.5 -70.5t38.5 -89.5t13 -103q0 -53 -13 -102t-39 -89.5t-64 -71t-87 -48.5q-43 -15 -91.5 -19.5t-96.5 -4.5h-184zM241 153h46q80 0 124 47.5t44 132.5q0 84 -43 132.5t-124 48.5h-47v-361z" />
    <glyph glyph-name="E" unicode="E" horiz-adv-x="583" 
d="M62 0v667h475v-153h-296v-110h241v-141h-241v-109h317v-154h-496z" />
    <glyph glyph-name="F" unicode="F" horiz-adv-x="541" 
d="M62 0v667h469v-154h-290v-122h231v-151h-231v-240h-179z" />
    <glyph glyph-name="G" unicode="G" horiz-adv-x="654" 
d="M350 233v132h262v-338q-47 -18 -110.5 -29.5t-148.5 -11.5q-73 0 -131.5 24t-100 68.5t-63.5 108.5t-22 145q0 84 23 149t64 109.5t97.5 67t124.5 22.5q53 0 94.5 -10.5t73 -30.5t54.5 -48.5t39 -63.5l-149 -76q-18 38 -42.5 59t-65.5 21q-55 0 -92.5 -49.5t-37.5 -150.5
q0 -45 10.5 -81.5t30.5 -63t49 -41t67 -14.5q20 0 36 1t33 4v97h-95z" />
    <glyph glyph-name="H" unicode="H" horiz-adv-x="692" 
d="M62 0v667h179v-247h210v247h179v-667h-179v264h-210v-264h-179z" />
    <glyph glyph-name="I" unicode="I" horiz-adv-x="303" 
d="M62 0v667h179v-667h-179z" />
    <glyph glyph-name="J" unicode="J" horiz-adv-x="310" 
d="M-34 -27q53 12 78 35.5t25 64.5v594h179v-608q0 -50 -18 -88t-50.5 -66.5t-78 -46.5t-99.5 -27z" />
    <glyph glyph-name="K" unicode="K" horiz-adv-x="672" 
d="M62 0v667h179v-225l208 225h210l-241 -260l260 -407h-212l-172 282l-53 -52v-230h-179z" />
    <glyph glyph-name="L" unicode="L" horiz-adv-x="549" 
d="M62 0v667h179v-513h300v-154h-479z" />
    <glyph glyph-name="M" unicode="M" horiz-adv-x="816" 
d="M62 0v667h184l166 -397l157 397h185v-667h-173v326l-133 -330h-73l-140 332v-328h-173z" />
    <glyph glyph-name="N" unicode="N" horiz-adv-x="698" 
d="M62 0v667h181l217 -353v353h176v-667h-163l-236 377v-377h-175z" />
    <glyph glyph-name="O" unicode="O" horiz-adv-x="709" 
d="M216 14q-59 28 -99 75.5t-60 110.5t-20 134t20 134t60 110t99.5 74.5t137.5 27.5t137.5 -27.5t99.5 -74.5t60.5 -110t20.5 -134t-20.5 -134t-60.5 -110.5t-99.5 -75.5t-137.5 -28t-138 28zM253 192q18 -26 43 -41t58 -15t58 15t42.5 41.5t26 63t8.5 78.5t-8.5 78.5
t-26 62.5t-42.5 41t-58 15t-58 -15t-42.5 -41t-26 -62.5t-8.5 -78.5t8.5 -78.5t25.5 -63.5z" />
    <glyph glyph-name="P" unicode="P" horiz-adv-x="602" 
d="M62 0v667h211q54 0 109 -6t100 -30q50 -27 75 -75.5t25 -108.5q0 -64 -28 -116t-81 -79q-34 -17 -72.5 -25t-82.5 -8h-80v-219h-176zM238 364h84q36 0 59.5 21t23.5 58t-23.5 57t-61.5 20h-82v-156z" />
    <glyph glyph-name="Q" unicode="Q" horiz-adv-x="709" 
d="M553 -160q-119 3 -190.5 42.5t-92.5 115.5q-58 14 -101.5 45t-73 75.5t-44 99t-14.5 116.5q0 71 20 134t60 110t99.5 74.5t137.5 27.5t137.5 -27.5t99.5 -74.5t60.5 -110t20.5 -134q0 -59 -14 -112.5t-41 -97t-67.5 -75.5t-94.5 -48q10 -20 41 -28.5t76 -8.5zM253 192
q18 -26 43 -41t58 -15t58 15t42.5 41.5t26 63t8.5 78.5t-8.5 78.5t-26 62.5t-42.5 41t-58 15t-58 -15t-42.5 -41t-26 -62.5t-8.5 -78.5t8.5 -78.5t25.5 -63.5z" />
    <glyph glyph-name="R" unicode="R" horiz-adv-x="639" 
d="M62 0v667h295q51 0 96 -13t78 -39t52 -65t19 -92q0 -70 -29.5 -120.5t-92.5 -77.5l151 -260h-201l-127 232h-65v-232h-176zM238 377h90q52 0 74.5 19t22.5 52q0 35 -21.5 54t-75.5 19h-90v-144z" />
    <glyph glyph-name="S" unicode="S" horiz-adv-x="579" 
d="M150 199q22 -28 59.5 -49.5t85.5 -21.5q35 0 60 12.5t25 41.5q0 14 -5 25t-20 21t-41 20t-68 23q-48 15 -86.5 32t-66 41t-42 56.5t-14.5 77.5q0 46 18 83t51.5 63.5t81 41t106.5 14.5q51 0 90.5 -10t70 -26t52.5 -37t36 -42l-120 -93q-8 12 -20 25t-28.5 23.5
t-37.5 17.5t-46 7q-40 0 -60.5 -14t-20.5 -37q0 -13 6 -23t21.5 -20t41.5 -19.5t65 -21.5q46 -14 84.5 -31t66.5 -42t43.5 -60.5t15.5 -84.5q0 -53 -21.5 -91.5t-57.5 -64t-84 -38t-101 -12.5q-90 0 -157.5 33.5t-105.5 84.5z" />
    <glyph glyph-name="T" unicode="T" horiz-adv-x="556" 
d="M189 0v514h-187v153h552v-153h-185v-514h-180z" />
    <glyph glyph-name="U" unicode="U" horiz-adv-x="691" 
d="M237 251q0 -54 28 -83t81 -29q52 0 80 29t28 83v416h179v-428q0 -60 -20.5 -107t-58.5 -79.5t-91 -49.5t-118 -17t-117.5 17t-90.5 49.5t-58.5 79.5t-20.5 107v428h179v-416z" />
    <glyph glyph-name="V" unicode="V" horiz-adv-x="669" 
d="M283 0l-288 667h204l152 -410l136 410h187l-251 -667h-140z" />
    <glyph glyph-name="W" unicode="W" horiz-adv-x="834" 
d="M163 0l-168 667h180l77 -344l103 344h124l102 -344l79 344h180l-169 -667h-134l-121 385l-119 -385h-134z" />
    <glyph glyph-name="X" unicode="X" horiz-adv-x="635" 
d="M-5 0l222 343l-208 324h203l106 -178l106 178h200l-207 -321l223 -346h-205l-120 198l-119 -198h-201z" />
    <glyph glyph-name="Y" unicode="Y" horiz-adv-x="639" 
d="M232 0v260l-237 407h202l126 -235l121 235h200l-233 -407v-260h-179z" />
    <glyph glyph-name="Z" unicode="Z" horiz-adv-x="599" 
d="M29 0v130l308 384h-288v153h514v-134l-305 -379h313v-154h-542z" />
    <glyph glyph-name="bracketleft" unicode="[" horiz-adv-x="357" 
d="M66 -143v879h281v-126h-112v-627h112v-126h-281z" />
    <glyph glyph-name="backslash" unicode="\" horiz-adv-x="534" 
d="M407 -37l-407 739l126 65l408 -738z" />
    <glyph glyph-name="bracketright" unicode="]" horiz-adv-x="357" 
d="M10 -143v126h112v627h-112v126h281v-879h-281z" />
    <glyph glyph-name="asciicircum" unicode="^" horiz-adv-x="552" 
d="M34 311l176 356h131l177 -349l-141 -42l-101 222l-99 -226z" />
    <glyph glyph-name="underscore" unicode="_" horiz-adv-x="560" 
d="M0 -220v137h560v-137h-560z" />
    <glyph glyph-name="grave" unicode="`" horiz-adv-x="364" 
d="M40 635l61 106l223 -129l-43 -76z" />
    <glyph glyph-name="a" unicode="a" horiz-adv-x="524" 
d="M329 0l-14 38q-20 -19 -54 -32.5t-79 -13.5q-34 0 -63 10t-50.5 29.5t-33.5 46.5t-12 62q0 36 13.5 63t37 46t54.5 31t66 17q32 5 59.5 7.5t50.5 3.5v12q0 30 -19 44t-45 14q-29 0 -54.5 -11t-49.5 -30l-78 87q40 35 89.5 55t118.5 20q96 0 153 -46.5t57 -144.5v-308
h-147zM304 221q-15 -1 -30 -2.5t-31 -4.5q-31 -5 -44 -21.5t-13 -36.5q0 -21 14.5 -34.5t40.5 -13.5q19 0 34.5 6t28.5 16v91z" />
    <glyph glyph-name="b" unicode="b" horiz-adv-x="573" 
d="M226 486q20 6 42.5 9.5t51.5 3.5q53 0 95 -19t70.5 -52t43.5 -78t15 -96q0 -68 -20.5 -118t-57.5 -82.5t-87.5 -48.5t-110.5 -16q-66 0 -119 11.5t-98 28.5v638h175v-181zM226 124q11 -3 21.5 -4.5t24.5 -1.5q45 0 73 31.5t28 96.5q0 63 -27.5 93t-69.5 30
q-14 0 -26 -2.5t-24 -6.5v-236z" />
    <glyph glyph-name="c" unicode="c" horiz-adv-x="521" 
d="M505 127q-29 -67 -83 -102t-144 -35q-52 0 -97.5 16.5t-79 48.5t-52.5 79t-19 108q0 62 18.5 110t51.5 80.5t78 49.5t98 17q48 0 85 -11t64.5 -31t45.5 -47t29 -58l-133 -59q-16 45 -35.5 61.5t-48.5 16.5q-34 0 -58 -30.5t-24 -96.5q0 -62 24 -94t61 -32q32 0 54 19
t33 54z" />
    <glyph glyph-name="d" unicode="d" horiz-adv-x="575" 
d="M372 0l-8 38q-16 -18 -44 -33t-76 -15q-49 0 -88.5 19.5t-67.5 53.5t-43 81t-15 101q0 53 15.5 99.5t45 81t71.5 54t96 19.5q25 0 48.5 -3.5t42.5 -11.5v183h175v-667h-152zM349 359q-11 5 -23.5 8t-29.5 3q-46 0 -71 -35.5t-25 -88.5q0 -60 23.5 -94.5t65.5 -34.5
q18 0 35 7.5t25 19.5v215z" />
    <glyph glyph-name="e" unicode="e" horiz-adv-x="541" 
d="M200 211q2 -44 28.5 -68.5t67.5 -24.5q33 0 56.5 12t43.5 37l107 -84q-16 -20 -36.5 -36.5t-47 -29.5t-61 -20t-77.5 -7q-52 0 -97.5 16t-79.5 47.5t-54 79t-20 110.5q0 61 19 108.5t52 80.5t78.5 50t98.5 17q109 0 173.5 -70.5t65.5 -217.5h-317zM353 304
q-3 39 -23.5 61.5t-49.5 22.5q-30 0 -52.5 -23t-26.5 -61h152z" />
    <glyph glyph-name="f" unicode="f" horiz-adv-x="365" 
d="M78 0v366h-67v122h67v16q0 86 48.5 131t134.5 45q51 0 91 -10t63 -21l-40 -107q-16 7 -33 11t-38 4q-24 0 -38.5 -14.5t-14.5 -40.5v-14h104v-122h-103v-366h-174z" />
    <glyph glyph-name="g" unicode="g" horiz-adv-x="552" 
d="M470 420q17 -16 30 -42.5t13 -59.5q0 -44 -18.5 -76.5t-50 -53.5t-73 -31.5t-87.5 -10.5q-29 0 -51.5 3.5t-31.5 6.5q-5 -3 -10 -11t-5 -15q0 -8 5 -13t20 -9t43 -6t75 -4q27 -1 47.5 -3t37 -5t29.5 -7t27 -9q38 -15 58.5 -44t20.5 -77q0 -26 -9 -48t-24 -39
q-34 -36 -95 -51.5t-139 -15.5q-57 0 -104.5 8.5t-81 25.5t-52 42.5t-18.5 60.5q0 20 6 35t15 26t20.5 18t23.5 12q-21 14 -33 33t-12 50q0 27 18 51t37 35q-26 18 -45.5 50.5t-19.5 71.5q0 48 19 82t50.5 56t73.5 32.5t88 10.5q34 0 57.5 -4.5t46.5 -12.5l68 73l90 -70z
M200 318q0 -29 20 -47t54 -18q35 0 54 18t19 46q0 29 -19 48t-54 19t-54.5 -19t-19.5 -47zM274 -19q-27 2 -47 3.5t-37 3.5q-7 -6 -12.5 -15t-5.5 -21q0 -52 118 -52q110 0 110 39q0 17 -15.5 27t-64.5 13z" />
    <glyph glyph-name="h" unicode="h" horiz-adv-x="588" 
d="M51 0v667h175v-205q22 15 54 26t75 11q91 0 137.5 -50.5t46.5 -141.5v-307h-175v289q0 42 -17.5 61.5t-43.5 19.5q-24 0 -44 -10.5t-33 -21.5v-338h-175z" />
    <glyph glyph-name="i" unicode="i" horiz-adv-x="276" 
d="M69 545q-24 21 -24 56q0 33 24 53.5t69 20.5t69.5 -20.5t24.5 -53.5q0 -35 -24.5 -55.5t-69.5 -20.5t-69 20zM51 0v488h174v-488h-174z" />
    <glyph glyph-name="j" unicode="j" horiz-adv-x="279" 
d="M72 545q-24 21 -24 56q0 33 24.5 53.5t69.5 20.5q44 0 68 -20.5t24 -53.5q0 -35 -24 -55.5t-68 -20.5q-45 0 -70 20zM-18 -100q18 13 31.5 24t22.5 23.5t13.5 29t4.5 39.5v472h174v-478q0 -43 -11 -77t-32 -61.5t-50 -49t-65 -39.5z" />
    <glyph glyph-name="k" unicode="k" horiz-adv-x="561" 
d="M51 0v667h175v-310l136 131h187l-155 -158l175 -330h-191l-110 219l-42 -44v-175h-175z" />
    <glyph glyph-name="l" unicode="l" horiz-adv-x="277" 
d="M51 0v667h175v-667h-175z" />
    <glyph glyph-name="m" unicode="m" horiz-adv-x="881" 
d="M51 0v488h153l8 -41q21 20 56.5 36t85.5 16q33 0 70.5 -13t59.5 -40q33 25 72 39t87 14q98 0 143.5 -49t45.5 -142v-308h-175v294q0 35 -13 55t-49 20q-22 0 -40.5 -9.5t-29.5 -17.5q3 -30 3 -64v-278h-174v294q0 35 -13 55t-46 20q-21 0 -39 -10t-30 -21v-338h-175z" />
    <glyph glyph-name="n" unicode="n" horiz-adv-x="590" 
d="M51 0v488h152l9 -42q24 21 61.5 37t82.5 16q83 0 134 -47t51 -145v-307h-175v287q0 39 -17 60.5t-49 21.5q-23 0 -41.5 -9.5t-32.5 -22.5v-337h-175z" />
    <glyph glyph-name="o" unicode="o" horiz-adv-x="571" 
d="M177 10q-47 20 -80 54.5t-50 81.5t-17 100q0 54 17 100t50 80t80.5 53.5t108.5 19.5t108.5 -19.5t80.5 -53.5t50 -80t17 -100q0 -53 -17 -100t-50 -81.5t-80.5 -54.5t-108.5 -20t-109 20zM222 155q22 -37 64 -37t63 37t21 91t-21 89t-63 35t-63.5 -35t-21.5 -89t21 -91z
" />
    <glyph glyph-name="p" unicode="p" horiz-adv-x="574" 
d="M51 -189v677h152l8 -37q15 14 46.5 31t81.5 17q97 0 151 -66.5t54 -187.5q0 -53 -15.5 -100t-45.5 -81.5t-74 -54.5t-100 -20q-24 0 -45 4t-38 11v-193h-175zM226 131q10 -5 21 -8t28 -3q48 0 73 36.5t25 93.5q0 65 -22.5 94t-60.5 29q-22 0 -39 -9.5t-25 -19.5v-213z
" />
    <glyph glyph-name="q" unicode="q" horiz-adv-x="572" 
d="M345 -189v186q-15 -3 -34 -5t-45 -2q-54 0 -97.5 18t-74 51t-47.5 79t-17 101q0 59 19.5 107t56 82t89 52.5t118.5 18.5q60 0 112 -5.5t95 -12.5v-670h-175zM345 366q-11 2 -20 2.5t-20 0.5q-51 0 -78 -36t-27 -92q0 -58 28.5 -90t74.5 -32q15 0 24.5 3t17.5 6v238z" />
    <glyph glyph-name="r" unicode="r" horiz-adv-x="399" 
d="M51 0v488h156l9 -44q21 24 48 37.5t59 13.5q23 0 44.5 -5t38.5 -13l-36 -139q-17 8 -35.5 12.5t-36.5 4.5q-23 0 -42.5 -10.5t-29.5 -21.5v-323h-175z" />
    <glyph glyph-name="s" unicode="s" horiz-adv-x="501" 
d="M118 159q18 -22 51.5 -39.5t77.5 -17.5q13 0 25.5 1t22.5 5t16 10.5t6 17.5q0 19 -17 29.5t-65 21.5q-44 10 -80 23t-61 32t-38.5 45.5t-13.5 62.5t16.5 63.5t46 46.5t70 29t88.5 10q45 0 79 -6.5t60.5 -17.5t45 -25t31.5 -30l-98 -79q-17 18 -46 32.5t-67 14.5
q-23 0 -42.5 -6t-19.5 -25q0 -8 3 -14t13 -11.5t28.5 -11t48.5 -12.5q45 -10 79 -23t57.5 -32t35 -45t11.5 -62q0 -42 -18.5 -71.5t-49.5 -48t-72.5 -27.5t-86.5 -9q-90 0 -148.5 26t-86.5 64z" />
    <glyph glyph-name="t" unicode="t" horiz-adv-x="398" 
d="M10 366v122h69v123h175v-123h113v-122h-113v-196q0 -25 5.5 -39t24.5 -14q18 0 34.5 8t29.5 18l45 -106q-33 -23 -71.5 -35t-89.5 -12q-43 0 -72.5 11.5t-47.5 32.5t-25.5 51t-7.5 67v214h-69z" />
    <glyph glyph-name="u" unicode="u" horiz-adv-x="589" 
d="M384 0l-8 41q-26 -23 -62 -37t-81 -14q-87 0 -136 47.5t-49 142.5v308h175v-288q0 -37 14.5 -58.5t48.5 -21.5q26 0 45 9t31 20v339h175v-488h-153z" />
    <glyph glyph-name="v" unicode="v" horiz-adv-x="566" 
d="M211 0l-215 488h190l104 -290l100 290h180l-208 -488h-151z" />
    <glyph glyph-name="w" unicode="w" horiz-adv-x="758" 
d="M169 0l-173 488h178l73 -259l75 259h114l75 -259l72 259h179l-173 -488h-134l-77 256l-76 -256h-133z" />
    <glyph glyph-name="x" unicode="x" horiz-adv-x="545" 
d="M-1 0l179 241l-182 247h193l88 -133l87 133h178l-174 -240l181 -248h-194l-86 134l-90 -134h-180z" />
    <glyph glyph-name="y" unicode="y" horiz-adv-x="559" 
d="M57 -54q14 -8 33 -14t35 -6q19 0 30.5 7t19.5 25l28 63l-207 467h190l99 -285l98 285h180l-244 -578q-26 -61 -70.5 -86t-104.5 -25q-38 0 -70 8t-61 21z" />
    <glyph glyph-name="z" unicode="z" horiz-adv-x="529" 
d="M31 0v105l246 260h-235v123h449v-113l-240 -252h248v-123h-468z" />
    <glyph glyph-name="braceleft" unicode="{" horiz-adv-x="363" 
d="M346 -62q-84 0 -144 20q-33 11 -53 28t-31 39.5t-14.5 49t-3.5 56.5v79q0 37 -19 56.5t-66 24.5v85q48 5 66.5 24t18.5 57v80q0 29 3.5 56t14.5 49.5t31 40t53 27.5q58 19 144 21l11 -111q-56 -3 -75 -23.5t-19 -56.5v-95q0 -88 -82 -111q40 -13 61 -40t21 -72v-96
q0 -18 4.5 -31.5t15 -23.5t28.5 -16t46 -8z" />
    <glyph glyph-name="bar" unicode="|" horiz-adv-x="283" 
d="M66 -74v812h150v-812h-150z" />
    <glyph glyph-name="braceright" unicode="}" horiz-adv-x="363" 
d="M5 47q55 4 74.5 24t19.5 55v96q0 45 21 72t61 40q-82 23 -82 111v95q0 36 -19 56.5t-75 23.5l11 111q85 -2 144 -21q33 -10 53 -27.5t31 -40t14.5 -49.5t3.5 -56v-80q0 -38 18.5 -57t66.5 -24v-85q-47 -5 -66 -24.5t-19 -56.5v-79q0 -30 -3.5 -56.5t-14.5 -49t-31 -39.5
t-53 -28q-60 -20 -144 -20z" />
    <glyph glyph-name="asciitilde" unicode="~" horiz-adv-x="474" 
d="M-2 472q3 40 14 73t29.5 57t44.5 37t60 13q33 0 57 -10t42 -21.5t33 -21.5t31 -10q18 0 30 14t17 49h120q-5 -88 -43.5 -134.5t-98.5 -46.5q-33 0 -56.5 10t-42 21.5t-35 21.5t-36.5 10q-39 0 -46 -62h-120z" />
    <glyph glyph-name="uni00A0" unicode="&#xa0;" horiz-adv-x="175" 
 />
    <glyph glyph-name="exclamdown" unicode="&#xa1;" horiz-adv-x="264" 
d="M64 343q-26 24 -26 62t26 62t68 24q41 0 67.5 -24t26.5 -62t-26.5 -62t-67.5 -24q-42 0 -68 24zM44 -187v446h176v-446h-176z" />
    <glyph glyph-name="cent" unicode="&#xa2;" horiz-adv-x="573" 
d="M248 -11v125q-81 17 -130 73t-49 144q0 89 47 145t132 72v119h128v-118q19 -2 39 -7.5t38 -13t33 -16t25 -16.5l-69 -115q-23 16 -48.5 28t-62.5 12q-47 0 -71 -27t-24 -63q0 -37 25 -64t68 -27q30 0 56 8.5t56 27.5l60 -117q-31 -21 -64.5 -32t-60.5 -16v-122h-128z" />
    <glyph glyph-name="sterling" unicode="&#xa3;" horiz-adv-x="573" 
d="M97 0v246h-74v131h74v64q0 111 61.5 172t173.5 61q47 0 83 -10t62.5 -28.5t44.5 -44.5t30 -57l-149 -57q-13 30 -30.5 43t-39.5 13q-26 0 -45 -18.5t-19 -56.5v-81h206v-131h-206v-103h275v-143h-447z" />
    <glyph glyph-name="currency" unicode="&#xa4;" horiz-adv-x="738" 
d="M0 97l160 152q-31 55 -31 119q0 62 28 114l-157 148l90 81l148 -141q29 17 62 25t67 8q35 0 68.5 -8t63.5 -26l149 142l90 -81l-158 -148q14 -26 20 -54t6 -57q0 -67 -31 -120l163 -154l-86 -83l-161 152q-29 -16 -61 -23t-65 -7q-31 0 -61.5 7t-58.5 22l-159 -151z
M281 281q16 -17 37.5 -26.5t48.5 -9.5t49 9.5t38 26.5t24.5 39.5t8.5 48.5t-8.5 49t-24.5 40t-38 26.5t-49 9.5t-49 -9.5t-37.5 -26.5t-24 -39.5t-8.5 -49.5q0 -26 8.5 -48.5t24.5 -39.5z" />
    <glyph glyph-name="yen" unicode="&#xa5;" horiz-adv-x="573" 
d="M197 0v212h-152v131h109l-162 319h190l105 -248l99 248h188l-160 -319h105v-131h-147v-212h-175z" />
    <glyph glyph-name="brokenbar" unicode="&#xa6;" horiz-adv-x="283" 
d="M66 429v309h150v-309h-150zM66 -74v309h150v-309h-150z" />
    <glyph glyph-name="section" unicode="&#xa7;" horiz-adv-x="468" 
d="M110 31q8 -10 19.5 -20t25 -17.5t27 -12.5t25.5 -5q24 0 36.5 9.5t12.5 25.5q0 10 -5.5 19.5t-18 20.5t-32.5 25t-49 33q-57 38 -88.5 77.5t-31.5 96.5q0 42 24 75t61 50q-27 27 -43 54.5t-16 75.5q0 31 14 57t38.5 45t56.5 29.5t68 10.5q72 0 118.5 -22.5t87.5 -70.5
l-92 -82q-29 28 -50 41.5t-43 13.5q-19 0 -29.5 -8.5t-10.5 -21.5q0 -9 4 -17t15 -17.5t30.5 -23.5t50.5 -35q57 -39 87 -81.5t30 -103.5q0 -47 -20 -74t-45 -44q22 -22 34.5 -53t12.5 -66q0 -40 -18 -69.5t-46 -49.5t-63 -30t-69 -10q-116 0 -196 86zM261 211
q9 8 12.5 16.5t3.5 22.5t-7.5 26.5t-21.5 23.5l-35 28q-27 -11 -27 -39q0 -14 10.5 -25t27.5 -25z" />
    <glyph glyph-name="dieresis" unicode="&#xa8;" horiz-adv-x="434" 
d="M325 556q-38 0 -59.5 21.5t-21.5 53.5t21.5 54t59.5 22t59.5 -22t21.5 -54t-21.5 -53.5t-59.5 -21.5zM109 556q-38 0 -59.5 21.5t-21.5 53.5t21.5 54t59.5 22t59.5 -22t21.5 -54t-21.5 -53.5t-59.5 -21.5z" />
    <glyph glyph-name="copyright" unicode="&#xa9;" horiz-adv-x="775" 
d="M238 -45q-64 32 -107.5 84.5t-65 120t-21.5 137.5t21.5 136.5t65 119t107.5 84.5t150 32q85 0 149.5 -32t107.5 -84.5t64.5 -119t21.5 -136.5t-21.5 -137.5t-64.5 -120t-107.5 -84.5t-149.5 -32q-86 0 -150 32zM195 93q33 -41 81.5 -65.5t111.5 -24.5t111.5 24.5t81 65.5
t49 94t16.5 110q0 56 -16.5 109t-49 94t-81 65.5t-111.5 24.5q-64 0 -112.5 -24.5t-81 -65.5t-49 -94t-16.5 -109q0 -57 16.5 -110t49.5 -94zM565 167q-32 -57 -73 -78.5t-96 -21.5q-45 0 -82.5 15.5t-64.5 45t-41.5 71.5t-14.5 96q0 58 16.5 101.5t44 72t63.5 42.5t75 14
q63 0 103.5 -26.5t65.5 -79.5l-84 -46q-15 31 -33.5 48.5t-49.5 17.5q-19 0 -37 -8.5t-31.5 -26.5t-22 -45t-8.5 -64q0 -66 30.5 -103.5t73.5 -37.5q23 0 43 12t41 50z" />
    <glyph glyph-name="ordfeminine" unicode="&#xaa;" horiz-adv-x="371" 
d="M237 305l-4 26q-17 -14 -40 -23.5t-55 -9.5q-24 0 -44.5 7t-36.5 21t-25 34t-9 47q0 36 19 59.5t48.5 38t65.5 21.5t71 9v10q0 20 -12 27.5t-30 7.5q-14 0 -33 -6t-37 -20l-62 61q23 23 61 37.5t83 14.5q69 0 107.5 -34t38.5 -103v-225h-106zM228 460q-13 -2 -25.5 -4
t-23.5 -5q-43 -11 -43 -40q0 -31 37 -31q16 0 30 6t25 15v59z" />
    <glyph glyph-name="guillemotleft" unicode="&#xab;" horiz-adv-x="577" 
d="M452 43l-195 207l177 211l111 -81l-110 -124l124 -123zM202 34l-192 216l175 224l121 -79l-119 -139l130 -139z" />
    <glyph glyph-name="logicalnot" unicode="&#xac;" horiz-adv-x="573" 
d="M33 321v137h505v-341h-145v204h-360z" />
    <glyph glyph-name="uni00AD" unicode="&#xad;" horiz-adv-x="330" 
d="M27 201v141h276v-141h-276z" />
    <glyph glyph-name="registered" unicode="&#xae;" horiz-adv-x="776" 
d="M238 -45q-64 32 -107 84.5t-64.5 120t-21.5 137.5t21.5 136.5t65 119t107.5 84.5t150 32q85 0 149 -32t107 -84.5t64.5 -119t21.5 -136.5t-21.5 -137.5t-64.5 -120t-107.5 -84.5t-149.5 -32t-150 32zM195 93q33 -41 81.5 -65.5t112.5 -24.5q63 0 111 24.5t81 65.5
t49.5 94t16.5 110q0 56 -16.5 109t-49 94t-81 65.5t-111.5 24.5q-64 0 -112.5 -24.5t-81.5 -65.5t-49.5 -94t-16.5 -109q0 -57 16.5 -110t49.5 -94zM245 102v406h152q81 0 120 -32.5t39 -95.5q0 -50 -23 -79t-58 -41l85 -158h-99l-77 147h-46v-147h-93zM338 334h52
q38 0 54 10t16 39q0 24 -14.5 32t-51.5 8h-56v-89z" />
    <glyph glyph-name="macron" unicode="&#xaf;" horiz-adv-x="377" 
d="M18 588v104h342v-104h-342z" />
    <glyph glyph-name="degree" unicode="&#xb0;" horiz-adv-x="396" 
d="M83 399q-22 20 -35 49t-13 65t13 64.5t35.5 48.5t52 30.5t62.5 10.5t62.5 -10.5t52 -30.5t35.5 -49t13 -65t-13 -64.5t-35 -49t-52 -31t-63 -10.5t-62.5 11t-52.5 31zM144 512q0 -31 17 -46.5t37 -15.5t37 15.5t17 46.5q0 32 -17 47.5t-37 15.5t-37 -15.5t-17 -47.5z" />
    <glyph glyph-name="plusminus" unicode="&#xb1;" horiz-adv-x="573" 
d="M34 340v138h181v190h142v-190h182v-138h-182v-156h-142v156h-181zM34 0v137h505v-137h-505z" />
    <glyph glyph-name="twosuperior" unicode="&#xb2;" 
d="M33 330v59q37 31 72.5 59t64.5 56q14 14 21 25t7 25q0 29 -30 29t-54 -47l-99 43q23 42 65.5 68.5t102.5 26.5q28 0 53.5 -7.5t44 -21.5t29.5 -34t11 -44t-10 -45t-25.5 -39t-35.5 -33.5t-40 -29.5h113v-90h-290z" />
    <glyph glyph-name="threesuperior" unicode="&#xb3;" 
d="M106 449q12 -20 27.5 -28t33.5 -8q42 0 42 28q0 11 -11 19t-51 9v66q38 2 47 9.5t9 17.5q0 23 -35 23q-14 0 -29 -7.5t-27 -26.5l-86 49q28 37 65 55.5t94 18.5q60 0 98 -24t38 -69q0 -32 -15.5 -49t-35.5 -26q22 -7 39.5 -25t17.5 -51q0 -26 -11.5 -46t-31.5 -33.5
t-47.5 -20t-59.5 -6.5q-54 0 -93.5 18t-65.5 57z" />
    <glyph glyph-name="acute" unicode="&#xb4;" horiz-adv-x="364" 
d="M83 536l-43 76l223 129l61 -106z" />
    <glyph glyph-name="mu" unicode="&#xb5;" horiz-adv-x="625" 
d="M56 -188v676h175v-284q0 -36 15 -60t53 -24q23 0 37.5 8.5t22 22.5t10 31.5t2.5 35.5v268h175v-318q0 -35 9 -48t26 -13q15 0 35 7l12 -109q-17 -7 -40.5 -11t-43.5 -4q-44 0 -72.5 19t-39.5 48q-19 -34 -50 -50.5t-62 -16.5q-35 0 -60 12.5t-37 27.5v-218h-167z" />
    <glyph glyph-name="paragraph" unicode="&#xb6;" horiz-adv-x="530" 
d="M355 -145v812h109v-812h-109zM200 -145v397q-41 5 -75 23t-58 45.5t-37.5 63t-13.5 74.5q0 42 15.5 79.5t43.5 66.5t66.5 46t85.5 17h80v-812h-107z" />
    <glyph glyph-name="periodcentered" unicode="&#xb7;" horiz-adv-x="319" 
d="M164 281q-42 0 -66 25.5t-24 61.5t24 62t66 26t66 -26t24 -62t-24 -61.5t-66 -25.5z" />
    <glyph glyph-name="cedilla" unicode="&#xb8;" horiz-adv-x="325" 
d="M61 -188l65 144h141l-87 -144h-119z" />
    <glyph glyph-name="onesuperior" unicode="&#xb9;" 
d="M139 330v214l-65 -34l-44 81l138 73h97v-334h-126z" />
    <glyph glyph-name="ordmasculine" unicode="&#xba;" horiz-adv-x="413" 
d="M126 313q-33 16 -55.5 41.5t-33.5 59t-11 69.5q0 37 11.5 70t34 58.5t56 40.5t77.5 15t78 -15t57 -40.5t34.5 -58.5t11.5 -70q0 -36 -11.5 -69.5t-34 -59t-56.5 -41t-79 -15.5t-79 15zM162 420q15 -23 43 -23q29 0 44 23t15 63q0 42 -15 65t-43 23q-29 0 -43.5 -23
t-14.5 -65q0 -40 14 -63z" />
    <glyph glyph-name="guillemotright" unicode="&#xbb;" horiz-adv-x="571" 
d="M258 117l126 137l-123 141l117 79l183 -220l-185 -220zM19 131l117 123l-118 125l110 85l186 -210l-186 -207z" />
    <glyph glyph-name="onequarter" unicode="&#xbc;" horiz-adv-x="890" 
d="M156 330v214l-65 -34l-44 81l138 73h97v-334h-126zM520 59v84l165 188h118v-193h40v-79h-40v-65h-126v65h-157zM605 138h72v86zM164 -16l-79 82l666 611l81 -80z" />
    <glyph glyph-name="onehalf" unicode="&#xbd;" horiz-adv-x="890" 
d="M148 330v214l-65 -34l-44 81l138 73h97v-334h-126zM560 -6v59q37 31 72.5 59t64.5 56q14 14 21 25t7 25q0 29 -30 29t-54 -47l-99 43q23 42 65.5 68.5t102.5 26.5q28 0 53.5 -7.5t44 -21.5t29.5 -34t11 -44t-10 -45t-25.5 -39t-35.5 -33.5t-40 -29.5h113v-90h-290z
M149 -16l-79 82l666 611l81 -80z" />
    <glyph glyph-name="threequarters" unicode="&#xbe;" horiz-adv-x="890" 
d="M165 -16l-79 82l666 611l81 -80zM140 449q12 -20 27.5 -28t33.5 -8q42 0 42 28q0 11 -11 19t-51 9v66q38 2 47 9.5t9 17.5q0 23 -35 23q-14 0 -29 -7.5t-27 -26.5l-86 49q28 37 65 55.5t94 18.5q60 0 98 -24t38 -69q0 -32 -15.5 -49t-35.5 -26q22 -7 39.5 -25t17.5 -51
q0 -26 -11.5 -46t-31.5 -33.5t-47.5 -20t-59.5 -6.5q-54 0 -93.5 18t-65.5 57zM514 59v84l165 188h118v-193h40v-79h-40v-65h-126v65h-157zM599 138h72v86z" />
    <glyph glyph-name="questiondown" unicode="&#xbf;" horiz-adv-x="458" 
d="M174 345q-26 24 -26 62t26 62t68 24q41 0 67.5 -24t26.5 -62t-26.5 -62t-67.5 -24q-42 0 -68 24zM466 -70q-17 -28 -39 -51.5t-50.5 -40.5t-64.5 -26.5t-81 -9.5q-106 0 -163.5 50.5t-57.5 132.5q0 54 25 91t60 67q31 27 47.5 49.5t16.5 53.5v15h168v-39
q0 -43 -18.5 -75.5t-42.5 -52.5q-18 -16 -33.5 -28.5t-26 -24.5t-16.5 -24t-6 -27q0 -25 14.5 -39t43.5 -14q26 0 51 19t48 54z" />
    <glyph glyph-name="Agrave" unicode="&#xc0;" horiz-adv-x="677" 
d="M-5 0l259 668h167l261 -668h-192l-43 115h-224l-44 -115h-184zM262 251h144l-72 203zM161 799l61 106l223 -129l-43 -76z" />
    <glyph glyph-name="Aacute" unicode="&#xc1;" horiz-adv-x="677" 
d="M-5 0l259 668h167l261 -668h-192l-43 115h-224l-44 -115h-184zM262 251h144l-72 203zM251 700l-43 76l223 129l61 -106z" />
    <glyph glyph-name="Acircumflex" unicode="&#xc2;" horiz-adv-x="677" 
d="M-5 0l259 668h167l261 -668h-192l-43 115h-224l-44 -115h-184zM262 251h144l-72 203zM225 706l-63 70l117 107h114l119 -109l-69 -67l-107 81z" />
    <glyph glyph-name="Atilde" unicode="&#xc3;" horiz-adv-x="677" 
d="M-5 0l259 668h167l261 -668h-192l-43 115h-224l-44 -115h-184zM262 251h144l-72 203zM123 747q17 58 50.5 92t78.5 34q25 0 48 -11t44 -22q13 -6 24 -11t25 -5q17 0 30 14t23 39l83 -32q-14 -56 -46 -92.5t-83 -36.5q-21 0 -40.5 7.5t-36.5 17.5t-32 17t-32 7
q-18 0 -30 -13.5t-25 -41.5z" />
    <glyph glyph-name="Adieresis" unicode="&#xc4;" horiz-adv-x="677" 
d="M-5 0l259 668h167l261 -668h-192l-43 115h-224l-44 -115h-184zM262 251h144l-72 203zM443 720q-38 0 -59.5 21.5t-21.5 53.5t21.5 54t59.5 22t59.5 -22t21.5 -54t-21.5 -53.5t-59.5 -21.5zM227 720q-38 0 -59.5 21.5t-21.5 53.5t21.5 54t59.5 22t59.5 -22t21.5 -54
t-21.5 -53.5t-59.5 -21.5z" />
    <glyph glyph-name="Aring" unicode="&#xc5;" horiz-adv-x="677" 
d="M-5 0l259 668h1q-6 5 -11 10q-15 17 -22.5 38.5t-7.5 43.5t7.5 44t23 38.5t38.5 27t54 10.5t54.5 -10.5t39 -27t23 -38.5t7.5 -44t-7.5 -43.5t-23.5 -38.5q-5 -5 -11 -10h2l261 -668h-192l-43 115h-224l-44 -115h-184zM262 251h144l-72 203zM303 726q13 -13 34 -13
t33.5 13.5t12.5 34.5q0 22 -12.5 35t-33.5 13t-33.5 -13t-12.5 -35q0 -21 12 -35z" />
    <glyph glyph-name="AE" unicode="&#xc6;" horiz-adv-x="944" 
d="M-5 0l390 668h513v-157h-266v-105h211v-143h-211v-107h287v-156h-466v131h-188l-75 -131h-195zM327 269h126v225z" />
    <glyph glyph-name="Ccedilla" unicode="&#xc7;" horiz-adv-x="637" 
d="M617 148q-37 -80 -100 -121t-170 -41q-71 0 -128.5 24t-98 69t-62.5 109t-22 144q0 86 24.5 151.5t66.5 109t97.5 65.5t118.5 22q52 0 93 -11t73.5 -33t57.5 -54t45 -75l-145 -77q-19 48 -45 74.5t-70 26.5q-33 0 -58 -15t-41.5 -41t-25 -63t-8.5 -80q0 -88 37 -139.5
t99 -51.5q45 0 72.5 23.5t44.5 62.5zM218 -188l65 144h141l-87 -144h-119z" />
    <glyph glyph-name="Egrave" unicode="&#xc8;" horiz-adv-x="583" 
d="M62 0v667h475v-153h-296v-110h241v-141h-241v-109h317v-154h-496zM140 799l61 106l223 -129l-43 -76z" />
    <glyph glyph-name="Eacute" unicode="&#xc9;" horiz-adv-x="583" 
d="M62 0v667h475v-153h-296v-110h241v-141h-241v-109h317v-154h-496zM218 700l-43 76l223 129l61 -106z" />
    <glyph glyph-name="Ecircumflex" unicode="&#xca;" horiz-adv-x="583" 
d="M62 0v667h475v-153h-296v-110h241v-141h-241v-109h317v-154h-496zM187 706l-63 70l117 107h114l119 -109l-69 -67l-107 81z" />
    <glyph glyph-name="Edieresis" unicode="&#xcb;" horiz-adv-x="583" 
d="M62 0v667h475v-153h-296v-110h241v-141h-241v-109h317v-154h-496zM413 720q-38 0 -59.5 21.5t-21.5 53.5t21.5 54t59.5 22t59.5 -22t21.5 -54t-21.5 -53.5t-59.5 -21.5zM197 720q-38 0 -59.5 21.5t-21.5 53.5t21.5 54t59.5 22t59.5 -22t21.5 -54t-21.5 -53.5t-59.5 -21.5
z" />
    <glyph glyph-name="Igrave" unicode="&#xcc;" horiz-adv-x="303" 
d="M62 0v667h179v-667h-179zM-13 799l61 106l223 -129l-43 -76z" />
    <glyph glyph-name="Iacute" unicode="&#xcd;" horiz-adv-x="303" 
d="M62 0v667h179v-667h-179zM78 700l-43 76l223 129l61 -106z" />
    <glyph glyph-name="Icircumflex" unicode="&#xce;" horiz-adv-x="303" 
d="M62 0v667h179v-667h-179zM44 706l-63 70l117 107h114l119 -109l-69 -67l-107 81z" />
    <glyph glyph-name="Idieresis" unicode="&#xcf;" horiz-adv-x="303" 
d="M62 0v667h179v-667h-179zM264 720q-38 0 -59.5 21.5t-21.5 53.5t21.5 54t59.5 22t59.5 -22t21.5 -54t-21.5 -53.5t-59.5 -21.5zM48 720q-38 0 -59.5 21.5t-21.5 53.5t21.5 54t59.5 22t59.5 -22t21.5 -54t-21.5 -53.5t-59.5 -21.5z" />
    <glyph glyph-name="Eth" unicode="&#xd0;" horiz-adv-x="672" 
d="M62 0v276h-69v129h69v262h182q45 0 96 -4t94 -18q50 -17 88 -47t63.5 -70.5t38.5 -89.5t13 -103q0 -53 -13 -102t-39 -89.5t-64 -71t-87 -48.5q-43 -15 -91.5 -19.5t-96.5 -4.5h-184zM241 153h46q80 0 124 47.5t44 132.5q0 84 -43 132.5t-124 48.5h-47v-109h122v-129
h-122v-123z" />
    <glyph glyph-name="Ntilde" unicode="&#xd1;" horiz-adv-x="698" 
d="M62 0v667h181l217 -353v353h176v-667h-163l-236 377v-377h-175zM148 747q17 58 50.5 92t78.5 34q25 0 48 -11t44 -22q13 -6 24 -11t25 -5q17 0 30 14t23 39l83 -32q-14 -56 -46 -92.5t-83 -36.5q-21 0 -40.5 7.5t-36.5 17.5t-32 17t-32 7q-18 0 -30 -13.5t-25 -41.5z" />
    <glyph glyph-name="Ograve" unicode="&#xd2;" horiz-adv-x="709" 
d="M216 14q-59 28 -99 75.5t-60 110.5t-20 134t20 134t60 110t99.5 74.5t137.5 27.5t137.5 -27.5t99.5 -74.5t60.5 -110t20.5 -134t-20.5 -134t-60.5 -110.5t-99.5 -75.5t-137.5 -28t-138 28zM253 192q18 -26 43 -41t58 -15t58 15t42.5 41.5t26 63t8.5 78.5t-8.5 78.5
t-26 62.5t-42.5 41t-58 15t-58 -15t-42.5 -41t-26 -62.5t-8.5 -78.5t8.5 -78.5t25.5 -63.5zM185 799l61 106l223 -129l-43 -76z" />
    <glyph glyph-name="Oacute" unicode="&#xd3;" horiz-adv-x="709" 
d="M216 14q-59 28 -99 75.5t-60 110.5t-20 134t20 134t60 110t99.5 74.5t137.5 27.5t137.5 -27.5t99.5 -74.5t60.5 -110t20.5 -134t-20.5 -134t-60.5 -110.5t-99.5 -75.5t-137.5 -28t-138 28zM253 192q18 -26 43 -41t58 -15t58 15t42.5 41.5t26 63t8.5 78.5t-8.5 78.5
t-26 62.5t-42.5 41t-58 15t-58 -15t-42.5 -41t-26 -62.5t-8.5 -78.5t8.5 -78.5t25.5 -63.5zM268 700l-43 76l223 129l61 -106z" />
    <glyph glyph-name="Ocircumflex" unicode="&#xd4;" horiz-adv-x="709" 
d="M216 14q-59 28 -99 75.5t-60 110.5t-20 134t20 134t60 110t99.5 74.5t137.5 27.5t137.5 -27.5t99.5 -74.5t60.5 -110t20.5 -134t-20.5 -134t-60.5 -110.5t-99.5 -75.5t-137.5 -28t-138 28zM253 192q18 -26 43 -41t58 -15t58 15t42.5 41.5t26 63t8.5 78.5t-8.5 78.5
t-26 62.5t-42.5 41t-58 15t-58 -15t-42.5 -41t-26 -62.5t-8.5 -78.5t8.5 -78.5t25.5 -63.5zM243 706l-63 70l117 107h114l119 -109l-69 -67l-107 81z" />
    <glyph glyph-name="Otilde" unicode="&#xd5;" horiz-adv-x="709" 
d="M216 14q-59 28 -99 75.5t-60 110.5t-20 134t20 134t60 110t99.5 74.5t137.5 27.5t137.5 -27.5t99.5 -74.5t60.5 -110t20.5 -134t-20.5 -134t-60.5 -110.5t-99.5 -75.5t-137.5 -28t-138 28zM253 192q18 -26 43 -41t58 -15t58 15t42.5 41.5t26 63t8.5 78.5t-8.5 78.5
t-26 62.5t-42.5 41t-58 15t-58 -15t-42.5 -41t-26 -62.5t-8.5 -78.5t8.5 -78.5t25.5 -63.5zM143 747q17 58 50.5 92t78.5 34q25 0 48 -11t44 -22q13 -6 24 -11t25 -5q17 0 30 14t23 39l83 -32q-14 -56 -46 -92.5t-83 -36.5q-21 0 -40.5 7.5t-36.5 17.5t-32 17t-32 7
q-18 0 -30 -13.5t-25 -41.5z" />
    <glyph glyph-name="Odieresis" unicode="&#xd6;" horiz-adv-x="709" 
d="M216 14q-59 28 -99 75.5t-60 110.5t-20 134t20 134t60 110t99.5 74.5t137.5 27.5t137.5 -27.5t99.5 -74.5t60.5 -110t20.5 -134t-20.5 -134t-60.5 -110.5t-99.5 -75.5t-137.5 -28t-138 28zM253 192q18 -26 43 -41t58 -15t58 15t42.5 41.5t26 63t8.5 78.5t-8.5 78.5
t-26 62.5t-42.5 41t-58 15t-58 -15t-42.5 -41t-26 -62.5t-8.5 -78.5t8.5 -78.5t25.5 -63.5zM459 720q-38 0 -59.5 21.5t-21.5 53.5t21.5 54t59.5 22t59.5 -22t21.5 -54t-21.5 -53.5t-59.5 -21.5zM243 720q-38 0 -59.5 21.5t-21.5 53.5t21.5 54t59.5 22t59.5 -22t21.5 -54
t-21.5 -53.5t-59.5 -21.5z" />
    <glyph glyph-name="multiply" unicode="&#xd7;" horiz-adv-x="574" 
d="M161 108l-97 97l124 124l-127 128l100 101l128 -127l125 124l97 -97l-125 -125l127 -127l-101 -100l-126 126z" />
    <glyph glyph-name="Oslash" unicode="&#xd8;" horiz-adv-x="709" 
d="M32 41l65 75q-30 45 -45 100.5t-15 117.5q0 71 20 134t60 110t99.5 74.5t137.5 27.5q57 0 103 -14t83 -40l57 66l84 -71l-65 -76q28 -44 42 -97.5t14 -113.5q0 -71 -20.5 -134.5t-60.5 -111t-99.5 -75t-137.5 -27.5q-54 0 -99 13.5t-81 37.5l-58 -67zM254 193
q17 -26 42 -41t58 -15t58 15t42 41t25.5 62.5t8.5 78.5t-8.5 78t-25.5 62t-42 41t-58 15t-58 -15t-42 -41t-25.5 -62t-8.5 -78t8.5 -78.5t25.5 -62.5z" />
    <glyph glyph-name="Ugrave" unicode="&#xd9;" horiz-adv-x="691" 
d="M237 251q0 -54 28 -83t81 -29q52 0 80 29t28 83v416h179v-428q0 -60 -20.5 -107t-58.5 -79.5t-91 -49.5t-118 -17t-117.5 17t-90.5 49.5t-58.5 79.5t-20.5 107v428h179v-416zM161 799l61 106l223 -129l-43 -76z" />
    <glyph glyph-name="Uacute" unicode="&#xda;" horiz-adv-x="691" 
d="M237 251q0 -54 28 -83t81 -29q52 0 80 29t28 83v416h179v-428q0 -60 -20.5 -107t-58.5 -79.5t-91 -49.5t-118 -17t-117.5 17t-90.5 49.5t-58.5 79.5t-20.5 107v428h179v-416zM272 700l-43 76l223 129l61 -106z" />
    <glyph glyph-name="Ucircumflex" unicode="&#xdb;" horiz-adv-x="691" 
d="M237 251q0 -54 28 -83t81 -29q52 0 80 29t28 83v416h179v-428q0 -60 -20.5 -107t-58.5 -79.5t-91 -49.5t-118 -17t-117.5 17t-90.5 49.5t-58.5 79.5t-20.5 107v428h179v-416zM237 706l-63 70l117 107h114l119 -109l-69 -67l-107 81z" />
    <glyph glyph-name="Udieresis" unicode="&#xdc;" horiz-adv-x="691" 
d="M237 251q0 -54 28 -83t81 -29q52 0 80 29t28 83v416h179v-428q0 -60 -20.5 -107t-58.5 -79.5t-91 -49.5t-118 -17t-117.5 17t-90.5 49.5t-58.5 79.5t-20.5 107v428h179v-416zM452 720q-38 0 -59.5 21.5t-21.5 53.5t21.5 54t59.5 22t59.5 -22t21.5 -54t-21.5 -53.5
t-59.5 -21.5zM236 720q-38 0 -59.5 21.5t-21.5 53.5t21.5 54t59.5 22t59.5 -22t21.5 -54t-21.5 -53.5t-59.5 -21.5z" />
    <glyph glyph-name="Yacute" unicode="&#xdd;" horiz-adv-x="639" 
d="M232 0v260l-237 407h202l126 -235l121 235h200l-233 -407v-260h-179zM252 700l-43 76l223 129l61 -106z" />
    <glyph glyph-name="Thorn" unicode="&#xde;" horiz-adv-x="596" 
d="M62 0v667h176v-97h35q54 0 109 -6t100 -30q50 -27 75 -75.5t25 -108.5q0 -64 -28 -116t-81 -79q-34 -17 -72.5 -25t-82.5 -8h-80v-122h-176zM238 267h84q36 0 59.5 21t23.5 58t-23.5 57t-61.5 20h-82v-156z" />
    <glyph glyph-name="germandbls" unicode="&#xdf;" horiz-adv-x="644" 
d="M76 0v370h-68v122h68v4q0 45 18 79t51.5 57.5t80.5 35.5t104 12q126 0 195 -53.5t69 -155.5v-99h-93q-18 0 -28.5 -8t-10.5 -22q0 -15 11 -26t45 -28q57 -28 83.5 -62.5t26.5 -89.5q0 -65 -47 -105.5t-129 -40.5q-63 0 -102.5 20.5t-67.5 51.5l89 76q14 -19 30 -28t33 -9
q15 0 25 7.5t10 24.5q0 19 -15 33.5t-62 36.5q-20 9 -37.5 21.5t-30.5 29.5t-20.5 40t-7.5 52q0 62 35 98t96 41q-2 39 -23.5 56t-66.5 17q-26 0 -42.5 -6t-26 -15.5t-13.5 -21.5t-4 -24v-491h-175z" />
    <glyph glyph-name="agrave" unicode="&#xe0;" horiz-adv-x="524" 
d="M329 0l-14 38q-20 -19 -54 -32.5t-79 -13.5q-34 0 -63 10t-50.5 29.5t-33.5 46.5t-12 62q0 36 13.5 63t37 46t54.5 31t66 17q32 5 59.5 7.5t50.5 3.5v12q0 30 -19 44t-45 14q-29 0 -54.5 -11t-49.5 -30l-78 87q40 35 89.5 55t118.5 20q96 0 153 -46.5t57 -144.5v-308
h-147zM304 221q-15 -1 -30 -2.5t-31 -4.5q-31 -5 -44 -21.5t-13 -36.5q0 -21 14.5 -34.5t40.5 -13.5q19 0 34.5 6t28.5 16v91zM109 635l61 106l223 -129l-43 -76z" />
    <glyph glyph-name="aacute" unicode="&#xe1;" horiz-adv-x="524" 
d="M329 0l-14 38q-20 -19 -54 -32.5t-79 -13.5q-34 0 -63 10t-50.5 29.5t-33.5 46.5t-12 62q0 36 13.5 63t37 46t54.5 31t66 17q32 5 59.5 7.5t50.5 3.5v12q0 30 -19 44t-45 14q-29 0 -54.5 -11t-49.5 -30l-78 87q40 35 89.5 55t118.5 20q96 0 153 -46.5t57 -144.5v-308
h-147zM304 221q-15 -1 -30 -2.5t-31 -4.5q-31 -5 -44 -21.5t-13 -36.5q0 -21 14.5 -34.5t40.5 -13.5q19 0 34.5 6t28.5 16v91zM166 536l-43 76l223 129l61 -106z" />
    <glyph glyph-name="acircumflex" unicode="&#xe2;" horiz-adv-x="524" 
d="M329 0l-14 38q-20 -19 -54 -32.5t-79 -13.5q-34 0 -63 10t-50.5 29.5t-33.5 46.5t-12 62q0 36 13.5 63t37 46t54.5 31t66 17q32 5 59.5 7.5t50.5 3.5v12q0 30 -19 44t-45 14q-29 0 -54.5 -11t-49.5 -30l-78 87q40 35 89.5 55t118.5 20q96 0 153 -46.5t57 -144.5v-308
h-147zM304 221q-15 -1 -30 -2.5t-31 -4.5q-31 -5 -44 -21.5t-13 -36.5q0 -21 14.5 -34.5t40.5 -13.5q19 0 34.5 6t28.5 16v91zM145 542l-63 70l117 107h114l119 -109l-69 -67l-107 81z" />
    <glyph glyph-name="atilde" unicode="&#xe3;" horiz-adv-x="524" 
d="M329 0l-14 38q-20 -19 -54 -32.5t-79 -13.5q-34 0 -63 10t-50.5 29.5t-33.5 46.5t-12 62q0 36 13.5 63t37 46t54.5 31t66 17q32 5 59.5 7.5t50.5 3.5v12q0 30 -19 44t-45 14q-29 0 -54.5 -11t-49.5 -30l-78 87q40 35 89.5 55t118.5 20q96 0 153 -46.5t57 -144.5v-308
h-147zM304 221q-15 -1 -30 -2.5t-31 -4.5q-31 -5 -44 -21.5t-13 -36.5q0 -21 14.5 -34.5t40.5 -13.5q19 0 34.5 6t28.5 16v91zM56 583q17 58 50.5 92t78.5 34q25 0 48 -11t44 -22q13 -6 24 -11t25 -5q17 0 30 14t23 39l83 -32q-14 -56 -46 -92.5t-83 -36.5q-21 0 -40.5 7.5
t-36.5 17.5t-32 17t-32 7q-18 0 -30 -13.5t-25 -41.5z" />
    <glyph glyph-name="adieresis" unicode="&#xe4;" horiz-adv-x="524" 
d="M329 0l-14 38q-20 -19 -54 -32.5t-79 -13.5q-34 0 -63 10t-50.5 29.5t-33.5 46.5t-12 62q0 36 13.5 63t37 46t54.5 31t66 17q32 5 59.5 7.5t50.5 3.5v12q0 30 -19 44t-45 14q-29 0 -54.5 -11t-49.5 -30l-78 87q40 35 89.5 55t118.5 20q96 0 153 -46.5t57 -144.5v-308
h-147zM304 221q-15 -1 -30 -2.5t-31 -4.5q-31 -5 -44 -21.5t-13 -36.5q0 -21 14.5 -34.5t40.5 -13.5q19 0 34.5 6t28.5 16v91zM368 556q-38 0 -59.5 21.5t-21.5 53.5t21.5 54t59.5 22t59.5 -22t21.5 -54t-21.5 -53.5t-59.5 -21.5zM152 556q-38 0 -59.5 21.5t-21.5 53.5
t21.5 54t59.5 22t59.5 -22t21.5 -54t-21.5 -53.5t-59.5 -21.5z" />
    <glyph glyph-name="aring" unicode="&#xe5;" horiz-adv-x="524" 
d="M329 0l-14 38q-20 -19 -54 -32.5t-79 -13.5q-34 0 -63 10t-50.5 29.5t-33.5 46.5t-12 62q0 36 13.5 63t37 46t54.5 31t66 17q32 5 59.5 7.5t50.5 3.5v12q0 30 -19 44t-45 14q-29 0 -54.5 -11t-49.5 -30l-78 87q40 35 89.5 55t118.5 20q96 0 153 -46.5t57 -144.5v-308
h-147zM304 221q-15 -1 -30 -2.5t-31 -4.5q-31 -5 -44 -21.5t-13 -36.5q0 -21 14.5 -34.5t40.5 -13.5q19 0 34.5 6t28.5 16v91zM208 543q-23 11 -38.5 27.5t-23 38t-7.5 43.5t7.5 44t23 38.5t38.5 27t54 10.5t54.5 -10.5t39 -27t23 -38.5t7.5 -44t-7.5 -43.5t-23 -38t-39 -27
t-54.5 -10.5t-54 10zM228 618q13 -13 34 -13t33.5 13.5t12.5 34.5q0 22 -12.5 35t-33.5 13t-33.5 -13t-12.5 -35q0 -21 12 -35z" />
    <glyph glyph-name="ae" unicode="&#xe6;" horiz-adv-x="814" 
d="M56 425q15 13 34.5 26.5t44.5 24t55 17t65 6.5q62 0 97.5 -19t56.5 -46q23 26 61 45.5t97 19.5q102 0 162.5 -71t60.5 -218h-308q2 -40 28.5 -65t65.5 -25q32 0 54 12.5t38 34.5l109 -84q-27 -39 -79.5 -66t-125.5 -27q-71 0 -111.5 22t-63.5 53q-16 -15 -34.5 -28.5
t-41.5 -24t-51 -16.5t-62 -6q-41 0 -75 10t-58.5 29t-38 46.5t-13.5 63.5q0 34 12.5 60t34 45t51.5 31.5t65 19.5q29 6 59 9t58 4v18q0 26 -18.5 38.5t-47.5 12.5q-26 0 -54.5 -12t-47.5 -29zM626 304q-3 38 -20.5 60.5t-48.5 22.5q-36 0 -54.5 -24t-20.5 -59h144zM303 217
q-17 -1 -36.5 -3t-35.5 -7q-41 -11 -41 -54q0 -20 13.5 -33t37.5 -13q32 0 47 14.5t15 34.5v61z" />
    <glyph glyph-name="ccedilla" unicode="&#xe7;" horiz-adv-x="521" 
d="M505 127q-29 -67 -83 -102t-144 -35q-52 0 -97.5 16.5t-79 48.5t-52.5 79t-19 108q0 62 18.5 110t51.5 80.5t78 49.5t98 17q48 0 85 -11t64.5 -31t45.5 -47t29 -58l-133 -59q-16 45 -35.5 61.5t-48.5 16.5q-34 0 -58 -30.5t-24 -96.5q0 -62 24 -94t61 -32q32 0 54 19
t33 54zM152 -188l65 144h141l-87 -144h-119z" />
    <glyph glyph-name="egrave" unicode="&#xe8;" horiz-adv-x="541" 
d="M200 211q2 -44 28.5 -68.5t67.5 -24.5q33 0 56.5 12t43.5 37l107 -84q-16 -20 -36.5 -36.5t-47 -29.5t-61 -20t-77.5 -7q-52 0 -97.5 16t-79.5 47.5t-54 79t-20 110.5q0 61 19 108.5t52 80.5t78.5 50t98.5 17q109 0 173.5 -70.5t65.5 -217.5h-317zM353 304
q-3 39 -23.5 61.5t-49.5 22.5q-30 0 -52.5 -23t-26.5 -61h152zM117 635l61 106l223 -129l-43 -76z" />
    <glyph glyph-name="eacute" unicode="&#xe9;" horiz-adv-x="541" 
d="M200 211q2 -44 28.5 -68.5t67.5 -24.5q33 0 56.5 12t43.5 37l107 -84q-16 -20 -36.5 -36.5t-47 -29.5t-61 -20t-77.5 -7q-52 0 -97.5 16t-79.5 47.5t-54 79t-20 110.5q0 61 19 108.5t52 80.5t78.5 50t98.5 17q109 0 173.5 -70.5t65.5 -217.5h-317zM353 304
q-3 39 -23.5 61.5t-49.5 22.5q-30 0 -52.5 -23t-26.5 -61h152zM184 536l-43 76l223 129l61 -106z" />
    <glyph glyph-name="ecircumflex" unicode="&#xea;" horiz-adv-x="541" 
d="M200 211q2 -44 28.5 -68.5t67.5 -24.5q33 0 56.5 12t43.5 37l107 -84q-16 -20 -36.5 -36.5t-47 -29.5t-61 -20t-77.5 -7q-52 0 -97.5 16t-79.5 47.5t-54 79t-20 110.5q0 61 19 108.5t52 80.5t78.5 50t98.5 17q109 0 173.5 -70.5t65.5 -217.5h-317zM353 304
q-3 39 -23.5 61.5t-49.5 22.5q-30 0 -52.5 -23t-26.5 -61h152zM162 542l-63 70l117 107h114l119 -109l-69 -67l-107 81z" />
    <glyph glyph-name="edieresis" unicode="&#xeb;" horiz-adv-x="541" 
d="M200 211q2 -44 28.5 -68.5t67.5 -24.5q33 0 56.5 12t43.5 37l107 -84q-16 -20 -36.5 -36.5t-47 -29.5t-61 -20t-77.5 -7q-52 0 -97.5 16t-79.5 47.5t-54 79t-20 110.5q0 61 19 108.5t52 80.5t78.5 50t98.5 17q109 0 173.5 -70.5t65.5 -217.5h-317zM353 304
q-3 39 -23.5 61.5t-49.5 22.5q-30 0 -52.5 -23t-26.5 -61h152zM384 556q-38 0 -59.5 21.5t-21.5 53.5t21.5 54t59.5 22t59.5 -22t21.5 -54t-21.5 -53.5t-59.5 -21.5zM168 556q-38 0 -59.5 21.5t-21.5 53.5t21.5 54t59.5 22t59.5 -22t21.5 -54t-21.5 -53.5t-59.5 -21.5z" />
    <glyph glyph-name="igrave" unicode="&#xec;" horiz-adv-x="277" 
d="M51 0v486h175v-486h-175zM-23 635l61 106l223 -129l-43 -76z" />
    <glyph glyph-name="iacute" unicode="&#xed;" horiz-adv-x="277" 
d="M51 0v486h175v-486h-175zM61 536l-43 76l223 129l61 -106z" />
    <glyph glyph-name="icircumflex" unicode="&#xee;" horiz-adv-x="277" 
d="M51 0v486h175v-486h-175zM30 542l-63 70l117 107h114l119 -109l-69 -67l-107 81z" />
    <glyph glyph-name="idieresis" unicode="&#xef;" horiz-adv-x="277" 
d="M51 0v486h175v-486h-175zM250 556q-38 0 -59.5 21.5t-21.5 53.5t21.5 54t59.5 22t59.5 -22t21.5 -54t-21.5 -53.5t-59.5 -21.5zM34 556q-38 0 -59.5 21.5t-21.5 53.5t21.5 54t59.5 22t59.5 -22t21.5 -54t-21.5 -53.5t-59.5 -21.5z" />
    <glyph glyph-name="eth" unicode="&#xf0;" horiz-adv-x="574" 
d="M168 692q41 -5 81.5 -18t69.5 -30l55 64l93 -69l-52 -62q129 -120 129 -318q0 -60 -17 -109.5t-50 -85t-81 -55t-111 -19.5q-54 0 -101 15t-81.5 46t-54 77.5t-19.5 108.5q0 56 17 101t47.5 77t74 49t96.5 17q26 0 52 -6q-23 38 -75.5 63.5t-112.5 36.5zM365 305
q-4 30 -9 46q-14 5 -28.5 7t-26.5 2q-47 0 -73.5 -30.5t-26.5 -91.5q0 -59 23.5 -89.5t61.5 -30.5q35 0 59.5 29t24.5 102q0 27 -5 56z" />
    <glyph glyph-name="ntilde" unicode="&#xf1;" horiz-adv-x="590" 
d="M51 0v488h152l9 -42q24 21 61.5 37t82.5 16q83 0 134 -47t51 -145v-307h-175v287q0 39 -17 60.5t-49 21.5q-23 0 -41.5 -9.5t-32.5 -22.5v-337h-175zM87 583q17 58 50.5 92t78.5 34q25 0 48 -11t44 -22q13 -6 24 -11t25 -5q17 0 30 14t23 39l83 -32q-14 -56 -46 -92.5
t-83 -36.5q-21 0 -40.5 7.5t-36.5 17.5t-32 17t-32 7q-18 0 -30 -13.5t-25 -41.5z" />
    <glyph glyph-name="ograve" unicode="&#xf2;" horiz-adv-x="571" 
d="M177 10q-47 20 -80 54.5t-50 81.5t-17 100q0 54 17 100t50 80t80.5 53.5t108.5 19.5t108.5 -19.5t80.5 -53.5t50 -80t17 -100q0 -53 -17 -100t-50 -81.5t-80.5 -54.5t-108.5 -20t-109 20zM222 155q22 -37 64 -37t63 37t21 91t-21 89t-63 35t-63.5 -35t-21.5 -89t21 -91z
M114 635l61 106l223 -129l-43 -76z" />
    <glyph glyph-name="oacute" unicode="&#xf3;" horiz-adv-x="571" 
d="M177 10q-47 20 -80 54.5t-50 81.5t-17 100q0 54 17 100t50 80t80.5 53.5t108.5 19.5t108.5 -19.5t80.5 -53.5t50 -80t17 -100q0 -53 -17 -100t-50 -81.5t-80.5 -54.5t-108.5 -20t-109 20zM222 155q22 -37 64 -37t63 37t21 91t-21 89t-63 35t-63.5 -35t-21.5 -89t21 -91z
M191 536l-43 76l223 129l61 -106z" />
    <glyph glyph-name="ocircumflex" unicode="&#xf4;" horiz-adv-x="571" 
d="M177 10q-47 20 -80 54.5t-50 81.5t-17 100q0 54 17 100t50 80t80.5 53.5t108.5 19.5t108.5 -19.5t80.5 -53.5t50 -80t17 -100q0 -53 -17 -100t-50 -81.5t-80.5 -54.5t-108.5 -20t-109 20zM222 155q22 -37 64 -37t63 37t21 91t-21 89t-63 35t-63.5 -35t-21.5 -89t21 -91z
M172 542l-63 70l117 107h114l119 -109l-69 -67l-107 81z" />
    <glyph glyph-name="otilde" unicode="&#xf5;" horiz-adv-x="571" 
d="M177 10q-47 20 -80 54.5t-50 81.5t-17 100q0 54 17 100t50 80t80.5 53.5t108.5 19.5t108.5 -19.5t80.5 -53.5t50 -80t17 -100q0 -53 -17 -100t-50 -81.5t-80.5 -54.5t-108.5 -20t-109 20zM222 155q22 -37 64 -37t63 37t21 91t-21 89t-63 35t-63.5 -35t-21.5 -89t21 -91z
M76 583q17 58 50.5 92t78.5 34q25 0 48 -11t44 -22q13 -6 24 -11t25 -5q17 0 30 14t23 39l83 -32q-14 -56 -46 -92.5t-83 -36.5q-21 0 -40.5 7.5t-36.5 17.5t-32 17t-32 7q-18 0 -30 -13.5t-25 -41.5z" />
    <glyph glyph-name="odieresis" unicode="&#xf6;" horiz-adv-x="571" 
d="M177 10q-47 20 -80 54.5t-50 81.5t-17 100q0 54 17 100t50 80t80.5 53.5t108.5 19.5t108.5 -19.5t80.5 -53.5t50 -80t17 -100q0 -53 -17 -100t-50 -81.5t-80.5 -54.5t-108.5 -20t-109 20zM222 155q22 -37 64 -37t63 37t21 91t-21 89t-63 35t-63.5 -35t-21.5 -89t21 -91z
M393 556q-38 0 -59.5 21.5t-21.5 53.5t21.5 54t59.5 22t59.5 -22t21.5 -54t-21.5 -53.5t-59.5 -21.5zM177 556q-38 0 -59.5 21.5t-21.5 53.5t21.5 54t59.5 22t59.5 -22t21.5 -54t-21.5 -53.5t-59.5 -21.5z" />
    <glyph glyph-name="divide" unicode="&#xf7;" horiz-adv-x="573" 
d="M287 446q-38 0 -62.5 24.5t-24.5 59.5t24.5 59t62.5 24q37 0 61.5 -24t24.5 -59t-24.5 -59.5t-61.5 -24.5zM34 262v138h505v-138h-505zM224 79q-24 24 -24 59t24.5 59t62.5 24q37 0 61.5 -24t24.5 -59t-24.5 -59t-61.5 -24q-38 0 -63 24z" />
    <glyph glyph-name="oslash" unicode="&#xf8;" horiz-adv-x="572" 
d="M31 27l50 56q-51 68 -51 162q0 54 17 99.5t50 79.5t81 53t109 19q69 0 122 -25l51 57l80 -65l-50 -55q53 -67 53 -163q0 -54 -17 -100.5t-50 -81t-80.5 -54t-108.5 -19.5q-73 0 -127 28l-51 -56zM224 154q21 -36 63 -36q41 0 62 36t21 91q0 54 -21 88t-62 34
q-42 0 -63 -34t-21 -88q0 -55 21 -91z" />
    <glyph glyph-name="ugrave" unicode="&#xf9;" horiz-adv-x="589" 
d="M384 0l-8 41q-26 -23 -62 -37t-81 -14q-87 0 -136 47.5t-49 142.5v308h175v-288q0 -37 14.5 -58.5t48.5 -21.5q26 0 45 9t31 20v339h175v-488h-153zM118 635l61 106l223 -129l-43 -76z" />
    <glyph glyph-name="uacute" unicode="&#xfa;" horiz-adv-x="589" 
d="M384 0l-8 41q-26 -23 -62 -37t-81 -14q-87 0 -136 47.5t-49 142.5v308h175v-288q0 -37 14.5 -58.5t48.5 -21.5q26 0 45 9t31 20v339h175v-488h-153zM216 536l-43 76l223 129l61 -106z" />
    <glyph glyph-name="ucircumflex" unicode="&#xfb;" horiz-adv-x="589" 
d="M384 0l-8 41q-26 -23 -62 -37t-81 -14q-87 0 -136 47.5t-49 142.5v308h175v-288q0 -37 14.5 -58.5t48.5 -21.5q26 0 45 9t31 20v339h175v-488h-153zM181 542l-63 70l117 107h114l119 -109l-69 -67l-107 81z" />
    <glyph glyph-name="udieresis" unicode="&#xfc;" horiz-adv-x="589" 
d="M384 0l-8 41q-26 -23 -62 -37t-81 -14q-87 0 -136 47.5t-49 142.5v308h175v-288q0 -37 14.5 -58.5t48.5 -21.5q26 0 45 9t31 20v339h175v-488h-153zM402 556q-38 0 -59.5 21.5t-21.5 53.5t21.5 54t59.5 22t59.5 -22t21.5 -54t-21.5 -53.5t-59.5 -21.5zM186 556
q-38 0 -59.5 21.5t-21.5 53.5t21.5 54t59.5 22t59.5 -22t21.5 -54t-21.5 -53.5t-59.5 -21.5z" />
    <glyph glyph-name="yacute" unicode="&#xfd;" horiz-adv-x="559" 
d="M57 -54q14 -8 33 -14t35 -6q19 0 30.5 7t19.5 25l28 63l-207 467h190l99 -285l98 285h180l-244 -578q-26 -61 -70.5 -86t-104.5 -25q-38 0 -70 8t-61 21zM197 536l-43 76l223 129l61 -106z" />
    <glyph glyph-name="thorn" unicode="&#xfe;" horiz-adv-x="574" 
d="M51 -188v855h160v-216q15 14 46.5 31t81.5 17q97 0 151 -66.5t54 -187.5q0 -53 -15.5 -100t-45.5 -81.5t-74 -54.5t-100 -20q-24 0 -45 4t-38 11v-192h-175zM226 131q10 -5 21 -8t28 -3q48 0 73 36.5t25 93.5q0 65 -22.5 94t-60.5 29q-22 0 -39 -9.5t-25 -19.5v-213z" />
    <glyph glyph-name="ydieresis" unicode="&#xff;" horiz-adv-x="559" 
d="M57 -54q14 -8 33 -14t35 -6q19 0 30.5 7t19.5 25l28 63l-207 467h190l99 -285l98 285h180l-244 -578q-26 -61 -70.5 -86t-104.5 -25q-38 0 -70 8t-61 21zM391 556q-38 0 -59.5 21.5t-21.5 53.5t21.5 54t59.5 22t59.5 -22t21.5 -54t-21.5 -53.5t-59.5 -21.5zM175 556
q-38 0 -59.5 21.5t-21.5 53.5t21.5 54t59.5 22t59.5 -22t21.5 -54t-21.5 -53.5t-59.5 -21.5z" />
    <glyph glyph-name="Amacron" unicode="&#x100;" horiz-adv-x="677" 
d="M-5 0l259 668h167l261 -668h-192l-43 115h-224l-44 -115h-184zM262 251h144l-72 203zM164 754v104h342v-104h-342z" />
    <glyph glyph-name="amacron" unicode="&#x101;" horiz-adv-x="524" 
d="M329 0l-14 38q-20 -19 -54 -32.5t-79 -13.5q-34 0 -63 10t-50.5 29.5t-33.5 46.5t-12 62q0 36 13.5 63t37 46t54.5 31t66 17q32 5 59.5 7.5t50.5 3.5v12q0 30 -19 44t-45 14q-29 0 -54.5 -11t-49.5 -30l-78 87q40 35 89.5 55t118.5 20q96 0 153 -46.5t57 -144.5v-308
h-147zM304 221q-15 -1 -30 -2.5t-31 -4.5q-31 -5 -44 -21.5t-13 -36.5q0 -21 14.5 -34.5t40.5 -13.5q19 0 34.5 6t28.5 16v91zM94 588v104h342v-104h-342z" />
    <glyph glyph-name="Abreve" unicode="&#x102;" horiz-adv-x="677" 
d="M-5 0l259 668h167l261 -668h-192l-43 115h-224l-44 -115h-184zM262 251h144l-72 203zM257 880q5 -36 25.5 -55t52.5 -19q26 0 49 18t29 56h91q-2 -45 -17 -76.5t-39 -52t-53.5 -29.5t-59.5 -9q-33 0 -63 9t-53 29.5t-38 52t-16 76.5h92z" />
    <glyph glyph-name="abreve" unicode="&#x103;" horiz-adv-x="524" 
d="M329 0l-14 38q-20 -19 -54 -32.5t-79 -13.5q-34 0 -63 10t-50.5 29.5t-33.5 46.5t-12 62q0 36 13.5 63t37 46t54.5 31t66 17q32 5 59.5 7.5t50.5 3.5v12q0 30 -19 44t-45 14q-29 0 -54.5 -11t-49.5 -30l-78 87q40 35 89.5 55t118.5 20q96 0 153 -46.5t57 -144.5v-308
h-147zM304 221q-15 -1 -30 -2.5t-31 -4.5q-31 -5 -44 -21.5t-13 -36.5q0 -21 14.5 -34.5t40.5 -13.5q19 0 34.5 6t28.5 16v91zM193 714q5 -36 25.5 -55t52.5 -19q26 0 49 18t29 56h91q-2 -45 -17 -76.5t-39 -52t-53.5 -29.5t-59.5 -9q-33 0 -63 9t-53 29.5t-38 52t-16 76.5
h92z" />
    <glyph glyph-name="Aogonek" unicode="&#x104;" horiz-adv-x="677" 
d="M680 -178q-20 -10 -40.5 -15.5t-46.5 -5.5q-61 0 -91 27t-30 70q0 23 9 42.5t22 34.5q13 14 28 25h-41l-43 115h-224l-44 -115h-184l259 668h167l261 -668h-43l-6 -5q-13 -11 -24 -23t-17.5 -25.5t-6.5 -26.5q0 -29 29 -29q11 0 20.5 3t16.5 7zM262 251h144l-72 203z" />
    <glyph glyph-name="aogonek" unicode="&#x105;" horiz-adv-x="524" 
d="M476 -178q-20 -10 -40.5 -15.5t-46.5 -5.5q-61 0 -91 27t-30 70q0 23 9 42.5t22 34.5t29 26l-13 37q-20 -19 -54 -32.5t-79 -13.5q-34 0 -63 10t-50.5 29.5t-33.5 46.5t-12 62q0 36 13.5 63t37 46t54.5 31t66 17q32 5 59.5 7.5t50.5 3.5v12q0 30 -19 44t-45 14
q-29 0 -54.5 -11t-49.5 -30l-78 87q40 35 89.5 55t118.5 20q96 0 153 -46.5t57 -144.5v-308h-41l-6 -5q-13 -11 -24 -23t-17.5 -25.5t-6.5 -26.5q0 -29 29 -29q11 0 20.5 3t16.5 7zM304 221q-15 -1 -30 -2.5t-31 -4.5q-31 -5 -44 -21.5t-13 -36.5q0 -21 14.5 -34.5
t40.5 -13.5q19 0 34.5 6t28.5 16v91z" />
    <glyph glyph-name="Cacute" unicode="&#x106;" horiz-adv-x="637" 
d="M617 148q-37 -80 -100 -121t-170 -41q-71 0 -128.5 24t-98 69t-62.5 109t-22 144q0 86 24.5 151.5t66.5 109t97.5 65.5t118.5 22q52 0 93 -11t73.5 -33t57.5 -54t45 -75l-145 -77q-19 48 -45 74.5t-70 26.5q-33 0 -58 -15t-41.5 -41t-25 -63t-8.5 -80q0 -88 37 -139.5
t99 -51.5q45 0 72.5 23.5t44.5 62.5zM237 702l-43 76l223 129l61 -106z" />
    <glyph glyph-name="cacute" unicode="&#x107;" horiz-adv-x="521" 
d="M505 127q-29 -67 -83 -102t-144 -35q-52 0 -97.5 16.5t-79 48.5t-52.5 79t-19 108q0 62 18.5 110t51.5 80.5t78 49.5t98 17q48 0 85 -11t64.5 -31t45.5 -47t29 -58l-133 -59q-16 45 -35.5 61.5t-48.5 16.5q-34 0 -58 -30.5t-24 -96.5q0 -62 24 -94t61 -32q32 0 54 19
t33 54zM177 536l-43 76l223 129l61 -106z" />
    <glyph glyph-name="Ccircumflex" unicode="&#x108;" horiz-adv-x="637" 
d="M617 148q-37 -80 -100 -121t-170 -41q-71 0 -128.5 24t-98 69t-62.5 109t-22 144q0 86 24.5 151.5t66.5 109t97.5 65.5t118.5 22q52 0 93 -11t73.5 -33t57.5 -54t45 -75l-145 -77q-19 48 -45 74.5t-70 26.5q-33 0 -58 -15t-41.5 -41t-25 -63t-8.5 -80q0 -88 37 -139.5
t99 -51.5q45 0 72.5 23.5t44.5 62.5zM230 708l-63 70l117 107h114l119 -109l-69 -67l-107 81z" />
    <glyph glyph-name="ccircumflex" unicode="&#x109;" horiz-adv-x="521" 
d="M505 127q-29 -67 -83 -102t-144 -35q-52 0 -97.5 16.5t-79 48.5t-52.5 79t-19 108q0 62 18.5 110t51.5 80.5t78 49.5t98 17q48 0 85 -11t64.5 -31t45.5 -47t29 -58l-133 -59q-16 45 -35.5 61.5t-48.5 16.5q-34 0 -58 -30.5t-24 -96.5q0 -62 24 -94t61 -32q32 0 54 19
t33 54zM163 542l-63 70l117 107h114l119 -109l-69 -67l-107 81z" />
    <glyph glyph-name="Cdotaccent" unicode="&#x10a;" horiz-adv-x="637" 
d="M617 148q-37 -80 -100 -121t-170 -41q-71 0 -128.5 24t-98 69t-62.5 109t-22 144q0 86 24.5 151.5t66.5 109t97.5 65.5t118.5 22q52 0 93 -11t73.5 -33t57.5 -54t45 -75l-145 -77q-19 48 -45 74.5t-70 26.5q-33 0 -58 -15t-41.5 -41t-25 -63t-8.5 -80q0 -88 37 -139.5
t99 -51.5q45 0 72.5 23.5t44.5 62.5zM292 741q-24 23 -24 56t24 56t62 23q39 0 62.5 -23t23.5 -56t-23.5 -55.5t-62.5 -22.5q-38 0 -62 22z" />
    <glyph glyph-name="cdotaccent" unicode="&#x10b;" horiz-adv-x="521" 
d="M505 127q-29 -67 -83 -102t-144 -35q-52 0 -97.5 16.5t-79 48.5t-52.5 79t-19 108q0 62 18.5 110t51.5 80.5t78 49.5t98 17q48 0 85 -11t64.5 -31t45.5 -47t29 -58l-133 -59q-16 45 -35.5 61.5t-48.5 16.5q-34 0 -58 -30.5t-24 -96.5q0 -62 24 -94t61 -32q32 0 54 19
t33 54zM218 575q-24 23 -24 56t24 56t62 23q39 0 62.5 -23t23.5 -56t-23.5 -55.5t-62.5 -22.5q-38 0 -62 22z" />
    <glyph glyph-name="Ccaron" unicode="&#x10c;" horiz-adv-x="637" 
d="M617 148q-37 -80 -100 -121t-170 -41q-71 0 -128.5 24t-98 69t-62.5 109t-22 144q0 86 24.5 151.5t66.5 109t97.5 65.5t118.5 22q52 0 93 -11t73.5 -33t57.5 -54t45 -75l-145 -77q-19 48 -45 74.5t-70 26.5q-33 0 -58 -15t-41.5 -41t-25 -63t-8.5 -80q0 -88 37 -139.5
t99 -51.5q45 0 72.5 23.5t44.5 62.5zM169 822l68 63l110 -83q29 21 57.5 41t57.5 41l64 -62l-122 -115h-114z" />
    <glyph glyph-name="ccaron" unicode="&#x10d;" horiz-adv-x="521" 
d="M505 127q-29 -67 -83 -102t-144 -35q-52 0 -97.5 16.5t-79 48.5t-52.5 79t-19 108q0 62 18.5 110t51.5 80.5t78 49.5t98 17q48 0 85 -11t64.5 -31t45.5 -47t29 -58l-133 -59q-16 45 -35.5 61.5t-48.5 16.5q-34 0 -58 -30.5t-24 -96.5q0 -62 24 -94t61 -32q32 0 54 19
t33 54zM101 656l68 63l110 -83q29 21 57.5 41t57.5 41l64 -62l-122 -115h-114z" />
    <glyph glyph-name="Dcaron" unicode="&#x10e;" horiz-adv-x="672" 
d="M62 0v667h182q45 0 96 -4t94 -18q50 -17 88 -47t63.5 -70.5t38.5 -89.5t13 -103q0 -53 -13 -102t-39 -89.5t-64 -71t-87 -48.5q-43 -15 -91.5 -19.5t-96.5 -4.5h-184zM241 153h46q80 0 124 47.5t44 132.5q0 84 -43 132.5t-124 48.5h-47v-361zM110 822l68 63l110 -83
q29 21 57.5 41t57.5 41l64 -62l-122 -115h-114z" />
    <glyph glyph-name="dcaron" unicode="&#x10f;" horiz-adv-x="648" 
d="M573 475v193h126l-38 -193h-88zM372 0l-8 38q-16 -18 -44 -33t-76 -15q-49 0 -88.5 19.5t-67.5 53.5t-43 81t-15 101q0 53 15.5 99.5t45 81t71.5 54t96 19.5q25 0 48.5 -3.5t42.5 -11.5v184h175v-668h-152zM349 359q-11 5 -23.5 8t-29.5 3q-46 0 -71 -35.5t-25 -88.5
q0 -60 23.5 -94.5t65.5 -34.5q18 0 35 7.5t25 19.5v215z" />
    <glyph glyph-name="Dcroat" unicode="&#x110;" horiz-adv-x="675" 
d="M64 0v276h-71v129h71v262h229q46 0 89 -7.5t80 -22.5q44 -19 77 -49.5t55.5 -70t34 -85.5t11.5 -97q0 -100 -45 -181.5t-133 -121.5q-72 -32 -167 -32h-231zM243 153h47q50 0 86 18q39 20 60 62.5t21 99.5q0 50 -16.5 90t-47.5 63q-20 14 -46.5 21t-55.5 7h-48v-109h120
v-129h-120v-123z" />
    <glyph glyph-name="dcroat" unicode="&#x111;" horiz-adv-x="575" 
d="M372 0l-8 38q-16 -18 -44 -33t-76 -15q-49 0 -88.5 19t-67.5 53t-43 80t-15 100q0 53 15.5 98.5t45 78.5t71.5 52t96 19q25 0 48.5 -3.5t42.5 -11.5v60h-111v88h111v45h175v-45h56v-88h-56v-535h-152zM349 349q-11 5 -23.5 8.5t-29.5 3.5q-46 0 -71 -32.5t-25 -85.5
q0 -59 23.5 -92.5t65.5 -33.5q18 0 35 7.5t25 19.5v205z" />
    <glyph glyph-name="Emacron" unicode="&#x112;" horiz-adv-x="583" 
d="M62 0v667h475v-153h-296v-110h241v-141h-241v-109h317v-154h-496zM128 754v104h342v-104h-342z" />
    <glyph glyph-name="emacron" unicode="&#x113;" horiz-adv-x="541" 
d="M200 211q2 -44 28.5 -68.5t67.5 -24.5q33 0 56.5 12t43.5 37l107 -84q-16 -20 -36.5 -36.5t-47 -29.5t-61 -20t-77.5 -7q-52 0 -97.5 16t-79.5 47.5t-54 79t-20 110.5q0 61 19 108.5t52 80.5t78.5 50t98.5 17q109 0 173.5 -70.5t65.5 -217.5h-317zM353 304
q-3 39 -23.5 61.5t-49.5 22.5q-30 0 -52.5 -23t-26.5 -61h152zM103 588v104h342v-104h-342z" />
    <glyph glyph-name="Ebreve" unicode="&#x114;" horiz-adv-x="583" 
d="M62 0v667h475v-153h-296v-110h241v-141h-241v-109h317v-154h-496zM226 880q5 -36 25.5 -55t52.5 -19q26 0 49 18t29 56h91q-2 -45 -17 -76.5t-39 -52t-53.5 -29.5t-59.5 -9q-33 0 -63 9t-53 29.5t-38 52t-16 76.5h92z" />
    <glyph glyph-name="ebreve" unicode="&#x115;" horiz-adv-x="541" 
d="M200 211q2 -44 28.5 -68.5t67.5 -24.5q33 0 56.5 12t43.5 37l107 -84q-16 -20 -36.5 -36.5t-47 -29.5t-61 -20t-77.5 -7q-52 0 -97.5 16t-79.5 47.5t-54 79t-20 110.5q0 61 19 108.5t52 80.5t78.5 50t98.5 17q109 0 173.5 -70.5t65.5 -217.5h-317zM353 304
q-3 39 -23.5 61.5t-49.5 22.5q-30 0 -52.5 -23t-26.5 -61h152zM209 714q5 -36 25.5 -55t52.5 -19q26 0 49 18t29 56h91q-2 -45 -17 -76.5t-39 -52t-53.5 -29.5t-59.5 -9q-33 0 -63 9t-53 29.5t-38 52t-16 76.5h92z" />
    <glyph glyph-name="Edotaccent" unicode="&#x116;" horiz-adv-x="583" 
d="M62 0v667h475v-153h-296v-110h241v-141h-241v-109h317v-154h-496zM243 741q-24 23 -24 56t24 56t62 23q39 0 62.5 -23t23.5 -56t-23.5 -55.5t-62.5 -22.5q-38 0 -62 22z" />
    <glyph glyph-name="edotaccent" unicode="&#x117;" horiz-adv-x="541" 
d="M200 211q2 -44 28.5 -68.5t67.5 -24.5q33 0 56.5 12t43.5 37l107 -84q-16 -20 -36.5 -36.5t-47 -29.5t-61 -20t-77.5 -7q-52 0 -97.5 16t-79.5 47.5t-54 79t-20 110.5q0 61 19 108.5t52 80.5t78.5 50t98.5 17q109 0 173.5 -70.5t65.5 -217.5h-317zM353 304
q-3 39 -23.5 61.5t-49.5 22.5q-30 0 -52.5 -23t-26.5 -61h152zM218 575q-24 23 -24 56t24 56t62 23q39 0 62.5 -23t23.5 -56t-23.5 -55.5t-62.5 -22.5q-38 0 -62 22z" />
    <glyph glyph-name="Eogonek" unicode="&#x118;" horiz-adv-x="583" 
d="M555 -178q-20 -10 -40.5 -15.5t-46.5 -5.5q-61 0 -91 27t-30 70q0 23 9 42.5t22 34.5q13 14 28 25h-344v667h475v-153h-296v-110h241v-141h-241v-109h317v-154h-44l-6 -5q-13 -11 -24 -23t-17.5 -25.5t-6.5 -26.5q0 -29 29 -29q11 0 20.5 3t16.5 7z" />
    <glyph glyph-name="eogonek" unicode="&#x119;" horiz-adv-x="541" 
d="M434 -178q-20 -10 -40.5 -15.5t-46.5 -5.5q-61 0 -91 27t-30 70q0 23 9 42.5t22 34.5q7 8 15 15q-47 2 -89 16q-45 16 -79 47.5t-54 79t-20 110.5q0 61 19 108.5t52 80.5t78.5 50t98.5 17q109 0 173.5 -70.5t65.5 -217.5h-317q2 -44 28.5 -68.5t67.5 -24.5q33 0 56.5 12
t43.5 37l107 -84q-16 -20 -36.5 -36.5t-47.5 -29.5q-2 -1 -3 -2q-15 -9 -28.5 -20t-24.5 -23t-17.5 -25.5t-6.5 -26.5q0 -29 29 -29q11 0 20.5 3t16.5 7zM353 304q-3 39 -23.5 61.5t-49.5 22.5q-30 0 -52.5 -23t-26.5 -61h152z" />
    <glyph glyph-name="Ecaron" unicode="&#x11a;" horiz-adv-x="583" 
d="M62 0v667h475v-153h-296v-110h241v-141h-241v-109h317v-154h-496zM125 822l68 63l110 -83q29 21 57.5 41t57.5 41l64 -62l-122 -115h-114z" />
    <glyph glyph-name="ecaron" unicode="&#x11b;" horiz-adv-x="541" 
d="M200 211q2 -44 28.5 -68.5t67.5 -24.5q33 0 56.5 12t43.5 37l107 -84q-16 -20 -36.5 -36.5t-47 -29.5t-61 -20t-77.5 -7q-52 0 -97.5 16t-79.5 47.5t-54 79t-20 110.5q0 61 19 108.5t52 80.5t78.5 50t98.5 17q109 0 173.5 -70.5t65.5 -217.5h-317zM353 304
q-3 39 -23.5 61.5t-49.5 22.5q-30 0 -52.5 -23t-26.5 -61h152zM100 656l68 63l110 -83q29 21 57.5 41t57.5 41l64 -62l-122 -115h-114z" />
    <glyph glyph-name="Gcircumflex" unicode="&#x11c;" horiz-adv-x="654" 
d="M350 233v132h262v-338q-47 -18 -110.5 -29.5t-148.5 -11.5q-73 0 -131.5 24t-100 68.5t-63.5 108.5t-22 145q0 84 23 149t64 109.5t97.5 67t124.5 22.5q53 0 94.5 -10.5t73 -30.5t54.5 -48.5t39 -63.5l-149 -76q-18 38 -42.5 59t-65.5 21q-55 0 -92.5 -49.5t-37.5 -150.5
q0 -45 10.5 -81.5t30.5 -63t49 -41t67 -14.5q20 0 36 1t33 4v97h-95zM240 708l-63 70l117 107h114l119 -109l-69 -67l-107 81z" />
    <glyph glyph-name="gcircumflex" unicode="&#x11d;" horiz-adv-x="552" 
d="M470 420q17 -16 30 -42.5t13 -59.5q0 -44 -18.5 -76.5t-50 -53.5t-73 -31.5t-87.5 -10.5q-29 0 -51.5 3.5t-31.5 6.5q-5 -3 -10 -11t-5 -15q0 -8 5 -13t20 -9t43 -6t75 -4q27 -1 47.5 -3t37 -5t29.5 -7t27 -9q38 -15 58.5 -44t20.5 -77q0 -26 -9 -48t-24 -39
q-34 -36 -95 -51.5t-139 -15.5q-57 0 -104.5 8.5t-81 25.5t-52 42.5t-18.5 60.5q0 20 6 35t15 26t20.5 18t23.5 12q-21 14 -33 33t-12 50q0 27 18 51t37 35q-26 18 -45.5 50.5t-19.5 71.5q0 48 19 82t50.5 56t73.5 32.5t88 10.5q34 0 57.5 -4.5t46.5 -12.5l68 73l90 -70z
M200 318q0 -29 20 -47t54 -18q35 0 54 18t19 46q0 29 -19 48t-54 19t-54.5 -19t-19.5 -47zM274 -19q-27 2 -47 3.5t-37 3.5q-7 -6 -12.5 -15t-5.5 -21q0 -52 118 -52q110 0 110 39q0 17 -15.5 27t-64.5 13zM153 542l-63 70l117 107h114l119 -109l-69 -67l-107 81z" />
    <glyph glyph-name="Gbreve" unicode="&#x11e;" horiz-adv-x="654" 
d="M350 233v132h262v-338q-47 -18 -110.5 -29.5t-148.5 -11.5q-73 0 -131.5 24t-100 68.5t-63.5 108.5t-22 145q0 84 23 149t64 109.5t97.5 67t124.5 22.5q53 0 94.5 -10.5t73 -30.5t54.5 -48.5t39 -63.5l-149 -76q-18 38 -42.5 59t-65.5 21q-55 0 -92.5 -49.5t-37.5 -150.5
q0 -45 10.5 -81.5t30.5 -63t49 -41t67 -14.5q20 0 36 1t33 4v97h-95zM277 880q5 -36 25.5 -55t52.5 -19q26 0 49 18t29 56h91q-2 -45 -17 -76.5t-39 -52t-53.5 -29.5t-59.5 -9q-33 0 -63 9t-53 29.5t-38 52t-16 76.5h92z" />
    <glyph glyph-name="gbreve" unicode="&#x11f;" horiz-adv-x="552" 
d="M470 420q17 -16 30 -42.5t13 -59.5q0 -44 -18.5 -76.5t-50 -53.5t-73 -31.5t-87.5 -10.5q-29 0 -51.5 3.5t-31.5 6.5q-5 -3 -10 -11t-5 -15q0 -8 5 -13t20 -9t43 -6t75 -4q27 -1 47.5 -3t37 -5t29.5 -7t27 -9q38 -15 58.5 -44t20.5 -77q0 -26 -9 -48t-24 -39
q-34 -36 -95 -51.5t-139 -15.5q-57 0 -104.5 8.5t-81 25.5t-52 42.5t-18.5 60.5q0 20 6 35t15 26t20.5 18t23.5 12q-21 14 -33 33t-12 50q0 27 18 51t37 35q-26 18 -45.5 50.5t-19.5 71.5q0 48 19 82t50.5 56t73.5 32.5t88 10.5q34 0 57.5 -4.5t46.5 -12.5l68 73l90 -70z
M200 318q0 -29 20 -47t54 -18q35 0 54 18t19 46q0 29 -19 48t-54 19t-54.5 -19t-19.5 -47zM274 -19q-27 2 -47 3.5t-37 3.5q-7 -6 -12.5 -15t-5.5 -21q0 -52 118 -52q110 0 110 39q0 17 -15.5 27t-64.5 13zM195 714q5 -36 25.5 -55t52.5 -19q26 0 49 18t29 56h91
q-2 -45 -17 -76.5t-39 -52t-53.5 -29.5t-59.5 -9q-33 0 -63 9t-53 29.5t-38 52t-16 76.5h92z" />
    <glyph glyph-name="Gdotaccent" unicode="&#x120;" horiz-adv-x="654" 
d="M350 233v132h262v-338q-47 -18 -110.5 -29.5t-148.5 -11.5q-73 0 -131.5 24t-100 68.5t-63.5 108.5t-22 145q0 84 23 149t64 109.5t97.5 67t124.5 22.5q53 0 94.5 -10.5t73 -30.5t54.5 -48.5t39 -63.5l-149 -76q-18 38 -42.5 59t-65.5 21q-55 0 -92.5 -49.5t-37.5 -150.5
q0 -45 10.5 -81.5t30.5 -63t49 -41t67 -14.5q20 0 36 1t33 4v97h-95zM290 741q-24 23 -24 56t24 56t62 23q39 0 62.5 -23t23.5 -56t-23.5 -55.5t-62.5 -22.5q-38 0 -62 22z" />
    <glyph glyph-name="gdotaccent" unicode="&#x121;" horiz-adv-x="552" 
d="M470 420q17 -16 30 -42.5t13 -59.5q0 -44 -18.5 -76.5t-50 -53.5t-73 -31.5t-87.5 -10.5q-29 0 -51.5 3.5t-31.5 6.5q-5 -3 -10 -11t-5 -15q0 -8 5 -13t20 -9t43 -6t75 -4q27 -1 47.5 -3t37 -5t29.5 -7t27 -9q38 -15 58.5 -44t20.5 -77q0 -26 -9 -48t-24 -39
q-34 -36 -95 -51.5t-139 -15.5q-57 0 -104.5 8.5t-81 25.5t-52 42.5t-18.5 60.5q0 20 6 35t15 26t20.5 18t23.5 12q-21 14 -33 33t-12 50q0 27 18 51t37 35q-26 18 -45.5 50.5t-19.5 71.5q0 48 19 82t50.5 56t73.5 32.5t88 10.5q34 0 57.5 -4.5t46.5 -12.5l68 73l90 -70z
M200 318q0 -29 20 -47t54 -18q35 0 54 18t19 46q0 29 -19 48t-54 19t-54.5 -19t-19.5 -47zM274 -19q-27 2 -47 3.5t-37 3.5q-7 -6 -12.5 -15t-5.5 -21q0 -52 118 -52q110 0 110 39q0 17 -15.5 27t-64.5 13zM216 575q-24 23 -24 56t24 56t62 23q39 0 62.5 -23t23.5 -56
t-23.5 -55.5t-62.5 -22.5q-38 0 -62 22z" />
    <glyph glyph-name="Gcommaaccent" unicode="&#x122;" horiz-adv-x="654" 
d="M350 233v132h262v-338q-47 -18 -110.5 -29.5t-148.5 -11.5q-73 0 -131.5 24t-100 68.5t-63.5 108.5t-22 145q0 84 23 149t64 109.5t97.5 67t124.5 22.5q53 0 94.5 -10.5t73 -30.5t54.5 -48.5t39 -63.5l-149 -76q-18 38 -42.5 59t-65.5 21q-55 0 -92.5 -49.5t-37.5 -150.5
q0 -45 10.5 -81.5t30.5 -63t49 -41t67 -14.5q20 0 36 1t33 4v97h-95zM238 -188l65 144h141l-87 -144h-119z" />
    <glyph glyph-name="gcommaaccent" unicode="&#x123;" horiz-adv-x="552" 
d="M470 420q17 -16 30 -42.5t13 -59.5q0 -44 -18.5 -76.5t-50 -53.5t-73 -31.5t-87.5 -10.5q-29 0 -51.5 3.5t-31.5 6.5q-5 -3 -10 -11t-5 -15q0 -8 5 -13t20 -9t43 -6t75 -4q27 -1 47.5 -3t37 -5t29.5 -7t27 -9q38 -15 58.5 -44t20.5 -77q0 -26 -9 -48t-24 -39
q-34 -36 -95 -51.5t-139 -15.5q-57 0 -104.5 8.5t-81 25.5t-52 42.5t-18.5 60.5q0 20 6 35t15 26t20.5 18t23.5 12q-21 14 -33 33t-12 50q0 27 18 51t37 35q-26 18 -45.5 50.5t-19.5 71.5q0 48 19 82t50.5 56t73.5 32.5t88 10.5q34 0 57.5 -4.5t46.5 -12.5l68 73l90 -70z
M200 318q0 -29 20 -47t54 -18q35 0 54 18t19 46q0 29 -19 48t-54 19t-54.5 -19t-19.5 -47zM274 -19q-27 2 -47 3.5t-37 3.5q-7 -6 -12.5 -15t-5.5 -21q0 -52 118 -52q110 0 110 39q0 17 -15.5 27t-64.5 13zM193 562l88 145h114l-63 -145h-139z" />
    <glyph glyph-name="Hcircumflex" unicode="&#x124;" horiz-adv-x="692" 
d="M62 0v667h179v-247h210v247h179v-667h-179v264h-210v-264h-179zM242 708l-63 70l117 107h114l119 -109l-69 -67l-107 81z" />
    <glyph glyph-name="hcircumflex" unicode="&#x125;" horiz-adv-x="588" 
d="M51 0v667h175v-205q22 15 54 26t75 11q91 0 137.5 -50.5t46.5 -141.5v-307h-175v289q0 42 -17.5 61.5t-43.5 19.5q-24 0 -44 -10.5t-33 -21.5v-338h-175zM111 708l-63 70l117 107h114l119 -109l-69 -67l-107 81z" />
    <glyph glyph-name="Hbar" unicode="&#x126;" horiz-adv-x="692" 
d="M62 0v484h-73v112h73v71h179v-71h210v71h179v-71h69v-112h-69v-484h-179v264h-210v-264h-179zM241 420h210v64h-210v-64z" />
    <glyph glyph-name="hbar" unicode="&#x127;" horiz-adv-x="588" 
d="M51 0v535h-52v88h52v45h175v-45h156v-88h-156v-73q22 15 54 26t75 11q91 0 137.5 -50.5t46.5 -141.5v-307h-175v289q0 42 -17.5 61.5t-43.5 19.5q-24 0 -44 -10.5t-33 -21.5v-338h-175z" />
    <glyph glyph-name="Itilde" unicode="&#x128;" horiz-adv-x="303" 
d="M62 0v667h179v-667h-179zM-53 749q17 58 50.5 92t78.5 34q25 0 48 -11t44 -22q13 -6 24 -11t25 -5q17 0 30 14t23 39l83 -32q-14 -56 -46 -92.5t-83 -36.5q-21 0 -40.5 7.5t-36.5 17.5t-32 17t-32 7q-18 0 -30 -13.5t-25 -41.5z" />
    <glyph glyph-name="itilde" unicode="&#x129;" horiz-adv-x="277" 
d="M51 0v486h175v-486h-175zM-68 583q17 58 50.5 92t78.5 34q25 0 48 -11t44 -22q13 -6 24 -11t25 -5q17 0 30 14t23 39l83 -32q-14 -56 -46 -92.5t-83 -36.5q-21 0 -40.5 7.5t-36.5 17.5t-32 17t-32 7q-18 0 -30 -13.5t-25 -41.5z" />
    <glyph glyph-name="Imacron" unicode="&#x12a;" horiz-adv-x="303" 
d="M62 0v667h179v-667h-179zM-18 754v104h342v-104h-342z" />
    <glyph glyph-name="imacron" unicode="&#x12b;" horiz-adv-x="277" 
d="M51 0v486h175v-486h-175zM-27 588v104h342v-104h-342z" />
    <glyph glyph-name="Ibreve" unicode="&#x12c;" horiz-adv-x="303" 
d="M62 0v667h179v-667h-179zM76 880q5 -36 25.5 -55t52.5 -19q26 0 49 18t29 56h91q-2 -45 -17 -76.5t-39 -52t-53.5 -29.5t-59.5 -9q-33 0 -63 9t-53 29.5t-38 52t-16 76.5h92z" />
    <glyph glyph-name="ibreve" unicode="&#x12d;" horiz-adv-x="277" 
d="M51 0v486h175v-486h-175zM66 714q5 -36 25.5 -55t52.5 -19q26 0 49 18t29 56h91q-2 -45 -17 -76.5t-39 -52t-53.5 -29.5t-59.5 -9q-33 0 -63 9t-53 29.5t-38 52t-16 76.5h92z" />
    <glyph glyph-name="Iogonek" unicode="&#x12e;" horiz-adv-x="303" 
d="M250 -178q-20 -10 -40.5 -15.5t-46.5 -5.5q-61 0 -91 27t-30 70q0 23 9 42.5t22 34.5q13 14 28 25h-39v667h179v-667h-32l-6 -5q-13 -11 -24 -23t-17.5 -25.5t-6.5 -26.5q0 -29 29 -29q11 0 20.5 3t16.5 7z" />
    <glyph glyph-name="iogonek" unicode="&#x12f;" horiz-adv-x="276" 
d="M235 -178q-20 -10 -40.5 -15.5t-46.5 -5.5q-61 0 -91 27t-30 70q0 23 9 42.5t22 34.5q13 14 28 25h-35v488h174v-488h-31l-6 -5q-13 -11 -24 -23t-17.5 -25.5t-6.5 -26.5q0 -29 29 -29q11 0 20.5 3t16.5 7zM69 545q-24 21 -24 56q0 33 24 53.5t69 20.5t69.5 -20.5
t24.5 -53.5q0 -35 -24.5 -55.5t-69.5 -20.5t-69 20z" />
    <glyph glyph-name="Idotaccent" unicode="&#x130;" horiz-adv-x="303" 
d="M62 0v667h179v-667h-179zM92 741q-24 23 -24 56t24 56t62 23q39 0 62.5 -23t23.5 -56t-23.5 -55.5t-62.5 -22.5q-38 0 -62 22z" />
    <glyph glyph-name="dotlessi" unicode="&#x131;" horiz-adv-x="277" 
d="M51 0v486h175v-486h-175z" />
    <glyph glyph-name="IJ" unicode="&#x132;" horiz-adv-x="608" 
d="M62 0v667h179v-667h-179zM264 -27q53 12 78 35.5t25 64.5v594h179v-608q0 -50 -18 -88t-50.5 -66.5t-78 -46.5t-99.5 -27z" />
    <glyph glyph-name="ij" unicode="&#x133;" horiz-adv-x="552" 
d="M69 545q-24 21 -24 56q0 33 24 53.5t69 20.5t69.5 -20.5t24.5 -53.5q0 -35 -24.5 -55.5t-69.5 -20.5t-69 20zM51 0v488h174v-488h-174zM345 545q-24 21 -24 56q0 33 24.5 53.5t69.5 20.5q44 0 68 -20.5t24 -53.5q0 -35 -24 -55.5t-68 -20.5q-45 0 -70 20zM255 -100
q18 13 31.5 24t22.5 23.5t13.5 29t4.5 39.5v472h174v-478q0 -43 -11 -77t-32 -61.5t-50 -49t-65 -39.5z" />
    <glyph glyph-name="Jcircumflex" unicode="&#x134;" horiz-adv-x="310" 
d="M-34 -27q53 12 78 35.5t25 64.5v594h179v-608q0 -50 -18 -88t-50.5 -66.5t-78 -46.5t-99.5 -27zM48 708l-63 70l117 107h114l119 -109l-69 -67l-107 81z" />
    <glyph glyph-name="jcircumflex" unicode="&#x135;" horiz-adv-x="279" 
d="M-18 -100q18 13 31.5 24t22.5 23.5t13.5 29t4.5 39.5v472h174v-478q0 -43 -11 -77t-32 -61.5t-50 -49t-65 -39.5zM29 542l-63 70l117 107h114l119 -109l-69 -67l-107 81z" />
    <glyph glyph-name="Kcommaaccent" unicode="&#x136;" horiz-adv-x="672" 
d="M62 0v667h179v-225l208 225h210l-241 -260l260 -407h-212l-172 282l-53 -52v-230h-179zM230 -188l65 144h141l-87 -144h-119z" />
    <glyph glyph-name="kcommaaccent" unicode="&#x137;" horiz-adv-x="561" 
d="M51 0v667h175v-310l136 131h187l-155 -158l175 -330h-191l-110 219l-42 -44v-175h-175zM182 -188l65 144h141l-87 -144h-119z" />
    <glyph glyph-name="kgreenlandic" unicode="&#x138;" horiz-adv-x="561" 
d="M51 0v488h175v-171l150 171h186q-42 -50 -84.5 -98.5t-84.5 -97.5l181 -292h-191q-28 45 -56 89t-56 89l-45 -50v-128h-175z" />
    <glyph glyph-name="Lacute" unicode="&#x139;" horiz-adv-x="549" 
d="M62 0v667h179v-513h300v-154h-479zM81 702l-43 76l223 129l61 -106z" />
    <glyph glyph-name="lacute" unicode="&#x13a;" horiz-adv-x="277" 
d="M51 0v667h175v-667h-175zM62 702l-43 76l223 129l61 -106z" />
    <glyph glyph-name="Lcommaaccent" unicode="&#x13b;" horiz-adv-x="549" 
d="M62 0v667h179v-513h300v-154h-479zM185 -188l65 144h141l-87 -144h-119z" />
    <glyph glyph-name="lcommaaccent" unicode="&#x13c;" horiz-adv-x="277" 
d="M51 0v667h175v-667h-175zM0 -188l65 144h141l-87 -144h-119z" />
    <glyph glyph-name="Lcaron" unicode="&#x13d;" horiz-adv-x="549" 
d="M62 0v667h179v-513h300v-154h-479zM318 475v193h126l-39 -193h-87z" />
    <glyph glyph-name="lcaron" unicode="&#x13e;" horiz-adv-x="376" 
d="M51 0v667h175v-667h-175zM279 475v193h126l-39 -193h-87z" />
    <glyph glyph-name="Ldot" unicode="&#x13f;" horiz-adv-x="549" 
d="M62 0v667h179v-513h300v-154h-479zM361 323q-24 23 -24 56t24 56t62 23q39 0 62.5 -23t23.5 -56t-23.5 -55.5t-62.5 -22.5q-38 0 -62 22z" />
    <glyph glyph-name="ldot" unicode="&#x140;" horiz-adv-x="423" 
d="M51 0v667h175v-667h-175zM294 306q-24 23 -24 56t24 56t62 23q39 0 62.5 -23t23.5 -56t-23.5 -55.5t-62.5 -22.5q-38 0 -62 22z" />
    <glyph glyph-name="Lslash" unicode="&#x141;" horiz-adv-x="543" 
d="M62 0v245l-66 -33l-52 104l118 61v291h179v-223l125 64l52 -104l-177 -91v-160h300v-154h-479z" />
    <glyph glyph-name="lslash" unicode="&#x142;" horiz-adv-x="360" 
d="M74 0v228l-55 -32l-52 100l107 63v309h175v-232l78 46l53 -102l-131 -75v-305h-175z" />
    <glyph glyph-name="Nacute" unicode="&#x143;" horiz-adv-x="698" 
d="M62 0v667h181l217 -353v353h176v-667h-163l-236 377v-377h-175zM282 702l-43 76l223 129l61 -106z" />
    <glyph glyph-name="nacute" unicode="&#x144;" horiz-adv-x="590" 
d="M51 0v488h152l9 -42q24 21 61.5 37t82.5 16q83 0 134 -47t51 -145v-307h-175v287q0 39 -17 60.5t-49 21.5q-23 0 -41.5 -9.5t-32.5 -22.5v-337h-175zM205 536l-43 76l223 129l61 -106z" />
    <glyph glyph-name="Ncommaaccent" unicode="&#x145;" horiz-adv-x="698" 
d="M62 0v667h181l217 -353v353h176v-667h-163l-236 377v-377h-175zM231 -188l65 144h141l-87 -144h-119z" />
    <glyph glyph-name="ncommaaccent" unicode="&#x146;" horiz-adv-x="590" 
d="M51 0v488h152l9 -42q24 21 61.5 37t82.5 16q83 0 134 -47t51 -145v-307h-175v287q0 39 -17 60.5t-49 21.5q-23 0 -41.5 -9.5t-32.5 -22.5v-337h-175zM169 -188l65 144h141l-87 -144h-119z" />
    <glyph glyph-name="Ncaron" unicode="&#x147;" horiz-adv-x="698" 
d="M62 0v667h181l217 -353v353h176v-667h-163l-236 377v-377h-175zM167 822l68 63l110 -83q29 21 57.5 41t57.5 41l64 -62l-122 -115h-114z" />
    <glyph glyph-name="ncaron" unicode="&#x148;" horiz-adv-x="590" 
d="M51 0v488h152l9 -42q24 21 61.5 37t82.5 16q83 0 134 -47t51 -145v-307h-175v287q0 39 -17 60.5t-49 21.5q-23 0 -41.5 -9.5t-32.5 -22.5v-337h-175zM115 656l68 63l110 -83q29 21 57.5 41t57.5 41l64 -62l-122 -115h-114z" />
    <glyph glyph-name="napostrophe" unicode="&#x149;" horiz-adv-x="590" 
d="M51 0v488h152l9 -42q24 21 61.5 37t82.5 16q83 0 134 -47t51 -145v-307h-175v287q0 39 -17 60.5t-49 21.5q-23 0 -41.5 -9.5t-32.5 -22.5v-337h-175zM22 579q17 4 34.5 13t27.5 17q-14 8 -25 22t-11 38q0 27 17 47t52 20q31 0 50.5 -19.5t19.5 -51.5q0 -40 -36 -78
t-112 -58z" />
    <glyph glyph-name="Eng" unicode="&#x14a;" horiz-adv-x="698" 
d="M62 0v667h181l217 -353v353h175v-658q0 -43 -10.5 -76.5t-30 -59t-47.5 -44t-62 -32.5l-95 103q18 12 31.5 23.5t22.5 24.5t13.5 29.5t4.5 38.5l-225 361v-377h-175z" />
    <glyph glyph-name="eng" unicode="&#x14b;" horiz-adv-x="590" 
d="M51 0v488h153l9 -41q23 21 60.5 36.5t83.5 15.5q41 0 75 -11.5t58 -35.5t37.5 -60t13.5 -85v-306q0 -41 -11 -73t-30.5 -56.5t-47.5 -43t-61 -31.5l-95 103q33 22 51 44t19 60v284q0 40 -17 61t-49 21q-23 0 -41.5 -10t-32.5 -22v-338h-175z" />
    <glyph glyph-name="Omacron" unicode="&#x14c;" horiz-adv-x="709" 
d="M216 14q-59 28 -99 75.5t-60 110.5t-20 134t20 134t60 110t99.5 74.5t137.5 27.5t137.5 -27.5t99.5 -74.5t60.5 -110t20.5 -134t-20.5 -134t-60.5 -110.5t-99.5 -75.5t-137.5 -28t-138 28zM253 192q18 -26 43 -41t58 -15t58 15t42.5 41.5t26 63t8.5 78.5t-8.5 78.5
t-26 62.5t-42.5 41t-58 15t-58 -15t-42.5 -41t-26 -62.5t-8.5 -78.5t8.5 -78.5t25.5 -63.5zM185 754v104h342v-104h-342z" />
    <glyph glyph-name="omacron" unicode="&#x14d;" horiz-adv-x="571" 
d="M177 10q-47 20 -80 54.5t-50 81.5t-17 100q0 54 17 100t50 80t80.5 53.5t108.5 19.5t108.5 -19.5t80.5 -53.5t50 -80t17 -100q0 -53 -17 -100t-50 -81.5t-80.5 -54.5t-108.5 -20t-109 20zM222 155q22 -37 64 -37t63 37t21 91t-21 89t-63 35t-63.5 -35t-21.5 -89t21 -91z
M118 588v104h342v-104h-342z" />
    <glyph glyph-name="Obreve" unicode="&#x14e;" horiz-adv-x="709" 
d="M216 14q-59 28 -99 75.5t-60 110.5t-20 134t20 134t60 110t99.5 74.5t137.5 27.5t137.5 -27.5t99.5 -74.5t60.5 -110t20.5 -134t-20.5 -134t-60.5 -110.5t-99.5 -75.5t-137.5 -28t-138 28zM253 192q18 -26 43 -41t58 -15t58 15t42.5 41.5t26 63t8.5 78.5t-8.5 78.5
t-26 62.5t-42.5 41t-58 15t-58 -15t-42.5 -41t-26 -62.5t-8.5 -78.5t8.5 -78.5t25.5 -63.5zM282 880q5 -36 25.5 -55t52.5 -19q26 0 49 18t29 56h91q-2 -45 -17 -76.5t-39 -52t-53.5 -29.5t-59.5 -9q-33 0 -63 9t-53 29.5t-38 52t-16 76.5h92z" />
    <glyph glyph-name="obreve" unicode="&#x14f;" horiz-adv-x="571" 
d="M177 10q-47 20 -80 54.5t-50 81.5t-17 100q0 54 17 100t50 80t80.5 53.5t108.5 19.5t108.5 -19.5t80.5 -53.5t50 -80t17 -100q0 -53 -17 -100t-50 -81.5t-80.5 -54.5t-108.5 -20t-109 20zM222 155q22 -37 64 -37t63 37t21 91t-21 89t-63 35t-63.5 -35t-21.5 -89t21 -91z
M214 714q5 -36 25.5 -55t52.5 -19q26 0 49 18t29 56h91q-2 -45 -17 -76.5t-39 -52t-53.5 -29.5t-59.5 -9q-33 0 -63 9t-53 29.5t-38 52t-16 76.5h92z" />
    <glyph glyph-name="Ohungarumlaut" unicode="&#x150;" horiz-adv-x="709" 
d="M216 14q-59 28 -99 75.5t-60 110.5t-20 134t20 134t60 110t99.5 74.5t137.5 27.5t137.5 -27.5t99.5 -74.5t60.5 -110t20.5 -134t-20.5 -134t-60.5 -110.5t-99.5 -75.5t-137.5 -28t-138 28zM253 192q18 -26 43 -41t58 -15t58 15t42.5 41.5t26 63t8.5 78.5t-8.5 78.5
t-26 62.5t-42.5 41t-58 15t-58 -15t-42.5 -41t-26 -62.5t-8.5 -78.5t8.5 -78.5t25.5 -63.5zM372 761l141 152l84 -76l-161 -133zM188 758l136 157l85 -72l-155 -138z" />
    <glyph glyph-name="ohungarumlaut" unicode="&#x151;" horiz-adv-x="571" 
d="M177 10q-47 20 -80 54.5t-50 81.5t-17 100q0 54 17 100t50 80t80.5 53.5t108.5 19.5t108.5 -19.5t80.5 -53.5t50 -80t17 -100q0 -53 -17 -100t-50 -81.5t-80.5 -54.5t-108.5 -20t-109 20zM222 155q22 -37 64 -37t63 37t21 91t-21 89t-63 35t-63.5 -35t-21.5 -89t21 -91z
M300 595l141 152l84 -76l-161 -133zM116 592l136 157l85 -72l-155 -138z" />
    <glyph glyph-name="OE" unicode="&#x152;" horiz-adv-x="981" 
d="M382 0q-82 0 -146 23.5t-108.5 67t-67.5 105.5t-23 138q0 77 26.5 138.5t74 105t113.5 67t145 23.5h539v-154h-296v-110h241v-141h-241v-109h317v-154h-574zM460 151v365h-68q-37 0 -68.5 -12t-55 -35.5t-36.5 -57.5t-13 -77q0 -42 12.5 -76t35.5 -58t54.5 -36.5
t70.5 -12.5h68z" />
    <glyph glyph-name="oe" unicode="&#x153;" horiz-adv-x="866" 
d="M532 211q5 -46 30 -69t63 -23q27 0 51.5 10.5t45.5 37.5l107 -85q-30 -41 -84 -66.5t-121 -25.5q-60 0 -101.5 19.5t-69.5 47.5q-30 -32 -73.5 -49.5t-103.5 -17.5q-59 0 -104.5 20t-77 54.5t-48 81.5t-16.5 100q0 54 17 100t50 80t80.5 53.5t108.5 19.5q55 0 97 -17
t70 -47q26 26 63 45t94 19q117 0 174 -75t58 -213h-310zM222 155q22 -37 64 -37t63 37t21 91t-21 89t-63 35t-63.5 -35t-21.5 -89t21 -91zM681 304q-1 16 -6 31t-14.5 27t-22.5 19t-31 7q-17 0 -30 -7t-23 -19t-15.5 -27t-6.5 -31h149z" />
    <glyph glyph-name="Racute" unicode="&#x154;" horiz-adv-x="639" 
d="M62 0v667h295q51 0 96 -13t78 -39t52 -65t19 -92q0 -70 -29.5 -120.5t-92.5 -77.5l151 -260h-201l-127 232h-65v-232h-176zM238 377h90q52 0 74.5 19t22.5 52q0 35 -21.5 54t-75.5 19h-90v-144zM220 702l-43 76l223 129l61 -106z" />
    <glyph glyph-name="racute" unicode="&#x155;" horiz-adv-x="399" 
d="M51 0v488h156l9 -44q21 24 48 37.5t59 13.5q23 0 44.5 -5t38.5 -13l-36 -139q-17 8 -35.5 12.5t-36.5 4.5q-23 0 -42.5 -10.5t-29.5 -21.5v-323h-175zM139 536l-43 76l223 129l61 -106z" />
    <glyph glyph-name="Rcommaaccent" unicode="&#x156;" horiz-adv-x="639" 
d="M62 0v667h295q51 0 96 -13t78 -39t52 -65t19 -92q0 -70 -29.5 -120.5t-92.5 -77.5l151 -260h-201l-127 232h-65v-232h-176zM238 377h90q52 0 74.5 19t22.5 52q0 35 -21.5 54t-75.5 19h-90v-144zM207 -188l65 144h141l-87 -144h-119z" />
    <glyph glyph-name="rcommaaccent" unicode="&#x157;" horiz-adv-x="399" 
d="M51 0v488h156l9 -44q21 24 48 37.5t59 13.5q23 0 44.5 -5t38.5 -13l-36 -139q-17 8 -35.5 12.5t-36.5 4.5q-23 0 -42.5 -10.5t-29.5 -21.5v-323h-175zM0 -188l65 144h141l-87 -144h-119z" />
    <glyph glyph-name="Rcaron" unicode="&#x158;" horiz-adv-x="639" 
d="M62 0v667h295q51 0 96 -13t78 -39t52 -65t19 -92q0 -70 -29.5 -120.5t-92.5 -77.5l151 -260h-201l-127 232h-65v-232h-176zM238 377h90q52 0 74.5 19t22.5 52q0 35 -21.5 54t-75.5 19h-90v-144zM120 822l68 63l110 -83q29 21 57.5 41t57.5 41l64 -62l-122 -115h-114z" />
    <glyph glyph-name="rcaron" unicode="&#x159;" horiz-adv-x="399" 
d="M51 0v488h156l9 -44q21 24 48 37.5t59 13.5q23 0 44.5 -5t38.5 -13l-36 -139q-17 8 -35.5 12.5t-36.5 4.5q-23 0 -42.5 -10.5t-29.5 -21.5v-323h-175zM30 656l68 63l110 -83q29 21 57.5 41t57.5 41l64 -62l-122 -115h-114z" />
    <glyph glyph-name="Sacute" unicode="&#x15a;" horiz-adv-x="579" 
d="M150 199q22 -28 59.5 -49.5t85.5 -21.5q35 0 60 12.5t25 41.5q0 14 -5 25t-20 21t-41 20t-68 23q-48 15 -86.5 32t-66 41t-42 56.5t-14.5 77.5q0 46 18 83t51.5 63.5t81 41t106.5 14.5q51 0 90.5 -10t70 -26t52.5 -37t36 -42l-120 -93q-8 12 -20 25t-28.5 23.5
t-37.5 17.5t-46 7q-40 0 -60.5 -14t-20.5 -37q0 -13 6 -23t21.5 -20t41.5 -19.5t65 -21.5q46 -14 84.5 -31t66.5 -42t43.5 -60.5t15.5 -84.5q0 -53 -21.5 -91.5t-57.5 -64t-84 -38t-101 -12.5q-90 0 -157.5 33.5t-105.5 84.5zM220 702l-43 76l223 129l61 -106z" />
    <glyph glyph-name="sacute" unicode="&#x15b;" horiz-adv-x="501" 
d="M118 159q18 -22 51.5 -39.5t77.5 -17.5q13 0 25.5 1t22.5 5t16 10.5t6 17.5q0 19 -17 29.5t-65 21.5q-44 10 -80 23t-61 32t-38.5 45.5t-13.5 62.5t16.5 63.5t46 46.5t70 29t88.5 10q45 0 79 -6.5t60.5 -17.5t45 -25t31.5 -30l-98 -79q-17 18 -46 32.5t-67 14.5
q-23 0 -42.5 -6t-19.5 -25q0 -8 3 -14t13 -11.5t28.5 -11t48.5 -12.5q45 -10 79 -23t57.5 -32t35 -45t11.5 -62q0 -42 -18.5 -71.5t-49.5 -48t-72.5 -27.5t-86.5 -9q-90 0 -148.5 26t-86.5 64zM162 536l-43 76l223 129l61 -106z" />
    <glyph glyph-name="Scircumflex" unicode="&#x15c;" horiz-adv-x="579" 
d="M150 199q22 -28 59.5 -49.5t85.5 -21.5q35 0 60 12.5t25 41.5q0 14 -5 25t-20 21t-41 20t-68 23q-48 15 -86.5 32t-66 41t-42 56.5t-14.5 77.5q0 46 18 83t51.5 63.5t81 41t106.5 14.5q51 0 90.5 -10t70 -26t52.5 -37t36 -42l-120 -93q-8 12 -20 25t-28.5 23.5
t-37.5 17.5t-46 7q-40 0 -60.5 -14t-20.5 -37q0 -13 6 -23t21.5 -20t41.5 -19.5t65 -21.5q46 -14 84.5 -31t66.5 -42t43.5 -60.5t15.5 -84.5q0 -53 -21.5 -91.5t-57.5 -64t-84 -38t-101 -12.5q-90 0 -157.5 33.5t-105.5 84.5zM186 708l-63 70l117 107h114l119 -109l-69 -67
l-107 81z" />
    <glyph glyph-name="scircumflex" unicode="&#x15d;" horiz-adv-x="501" 
d="M118 159q18 -22 51.5 -39.5t77.5 -17.5q13 0 25.5 1t22.5 5t16 10.5t6 17.5q0 19 -17 29.5t-65 21.5q-44 10 -80 23t-61 32t-38.5 45.5t-13.5 62.5t16.5 63.5t46 46.5t70 29t88.5 10q45 0 79 -6.5t60.5 -17.5t45 -25t31.5 -30l-98 -79q-17 18 -46 32.5t-67 14.5
q-23 0 -42.5 -6t-19.5 -25q0 -8 3 -14t13 -11.5t28.5 -11t48.5 -12.5q45 -10 79 -23t57.5 -32t35 -45t11.5 -62q0 -42 -18.5 -71.5t-49.5 -48t-72.5 -27.5t-86.5 -9q-90 0 -148.5 26t-86.5 64zM153 542l-63 70l117 107h114l119 -109l-69 -67l-107 81z" />
    <glyph glyph-name="Scedilla" unicode="&#x15e;" horiz-adv-x="579" 
d="M150 199q22 -28 59.5 -49.5t85.5 -21.5q35 0 60 12.5t25 41.5q0 14 -5 25t-20 21t-41 20t-68 23q-48 15 -86.5 32t-66 41t-42 56.5t-14.5 77.5q0 46 18 83t51.5 63.5t81 41t106.5 14.5q51 0 90.5 -10t70 -26t52.5 -37t36 -42l-120 -93q-8 12 -20 25t-28.5 23.5
t-37.5 17.5t-46 7q-40 0 -60.5 -14t-20.5 -37q0 -13 6 -23t21.5 -20t41.5 -19.5t65 -21.5q46 -14 84.5 -31t66.5 -42t43.5 -60.5t15.5 -84.5q0 -53 -21.5 -91.5t-57.5 -64t-84 -38t-101 -12.5q-90 0 -157.5 33.5t-105.5 84.5zM157 -188l65 144h141l-87 -144h-119z" />
    <glyph glyph-name="scedilla" unicode="&#x15f;" horiz-adv-x="501" 
d="M118 159q18 -22 51.5 -39.5t77.5 -17.5q13 0 25.5 1t22.5 5t16 10.5t6 17.5q0 19 -17 29.5t-65 21.5q-44 10 -80 23t-61 32t-38.5 45.5t-13.5 62.5t16.5 63.5t46 46.5t70 29t88.5 10q45 0 79 -6.5t60.5 -17.5t45 -25t31.5 -30l-98 -79q-17 18 -46 32.5t-67 14.5
q-23 0 -42.5 -6t-19.5 -25q0 -8 3 -14t13 -11.5t28.5 -11t48.5 -12.5q45 -10 79 -23t57.5 -32t35 -45t11.5 -62q0 -42 -18.5 -71.5t-49.5 -48t-72.5 -27.5t-86.5 -9q-90 0 -148.5 26t-86.5 64zM126 -188l65 144h141l-87 -144h-119z" />
    <glyph glyph-name="Scaron" unicode="&#x160;" horiz-adv-x="579" 
d="M150 199q22 -28 59.5 -49.5t85.5 -21.5q35 0 60 12.5t25 41.5q0 14 -5 25t-20 21t-41 20t-68 23q-48 15 -86.5 32t-66 41t-42 56.5t-14.5 77.5q0 46 18 83t51.5 63.5t81 41t106.5 14.5q51 0 90.5 -10t70 -26t52.5 -37t36 -42l-120 -93q-8 12 -20 25t-28.5 23.5
t-37.5 17.5t-46 7q-40 0 -60.5 -14t-20.5 -37q0 -13 6 -23t21.5 -20t41.5 -19.5t65 -21.5q46 -14 84.5 -31t66.5 -42t43.5 -60.5t15.5 -84.5q0 -53 -21.5 -91.5t-57.5 -64t-84 -38t-101 -12.5q-90 0 -157.5 33.5t-105.5 84.5zM115 820l68 63l110 -83q29 21 57.5 41t57.5 41
l64 -62l-122 -115h-114z" />
    <glyph glyph-name="scaron" unicode="&#x161;" horiz-adv-x="501" 
d="M118 159q18 -22 51.5 -39.5t77.5 -17.5q13 0 25.5 1t22.5 5t16 10.5t6 17.5q0 19 -17 29.5t-65 21.5q-44 10 -80 23t-61 32t-38.5 45.5t-13.5 62.5t16.5 63.5t46 46.5t70 29t88.5 10q45 0 79 -6.5t60.5 -17.5t45 -25t31.5 -30l-98 -79q-17 18 -46 32.5t-67 14.5
q-23 0 -42.5 -6t-19.5 -25q0 -8 3 -14t13 -11.5t28.5 -11t48.5 -12.5q45 -10 79 -23t57.5 -32t35 -45t11.5 -62q0 -42 -18.5 -71.5t-49.5 -48t-72.5 -27.5t-86.5 -9q-90 0 -148.5 26t-86.5 64zM78 656l68 63l110 -83q29 21 57.5 41t57.5 41l64 -62l-122 -115h-114z" />
    <glyph glyph-name="Tcommaaccent" unicode="&#x162;" horiz-adv-x="556" 
d="M189 0v514h-187v153h552v-153h-185v-514h-180zM141 -188l65 144h141l-87 -144h-119z" />
    <glyph glyph-name="tcommaaccent" unicode="&#x163;" horiz-adv-x="398" 
d="M10 366v122h69v123h175v-123h113v-122h-113v-196q0 -25 5.5 -39t24.5 -14q18 0 34.5 8t29.5 18l45 -106q-33 -23 -71.5 -35t-89.5 -12q-43 0 -72.5 11.5t-47.5 32.5t-25.5 51t-7.5 67v214h-69zM110 -188l65 144h141l-87 -144h-119z" />
    <glyph glyph-name="Tcaron" unicode="&#x164;" horiz-adv-x="556" 
d="M189 0v514h-187v153h552v-153h-185v-514h-180zM99 822l68 63l110 -83q29 21 57.5 41t57.5 41l64 -62l-122 -115h-114z" />
    <glyph glyph-name="tcaron" unicode="&#x165;" horiz-adv-x="437" 
d="M306 536v193h126l-39 -193h-87zM10 366v122h69v123h175v-123h113v-122h-113v-196q0 -25 5.5 -39t24.5 -14q18 0 34.5 8t29.5 18l45 -106q-33 -23 -71.5 -35t-89.5 -12q-43 0 -72.5 11.5t-47.5 32.5t-25.5 51t-7.5 67v214h-69z" />
    <glyph glyph-name="Tbar" unicode="&#x166;" horiz-adv-x="556" 
d="M188 0v233h-138v130h138v150h-186v154h551v-154h-185v-150h135v-130h-135v-233h-180z" />
    <glyph glyph-name="tbar" unicode="&#x167;" horiz-adv-x="398" 
d="M10 204v97h69v65h-69v122h69v123h175v-123h113v-122h-113v-65h113v-97h-113v-52q0 -15 6 -22t12 -9q5 -2 15 -2q17 0 33 7.5t28 16.5l51 -103q-33 -23 -74.5 -36.5t-92.5 -13.5q-67 0 -107 32.5t-44 94.5q-1 8 -1.5 15.5t-0.5 15.5v56h-69z" />
    <glyph glyph-name="Utilde" unicode="&#x168;" horiz-adv-x="691" 
d="M237 251q0 -54 28 -83t81 -29q52 0 80 29t28 83v416h179v-428q0 -60 -20.5 -107t-58.5 -79.5t-91 -49.5t-118 -17t-117.5 17t-90.5 49.5t-58.5 79.5t-20.5 107v428h179v-416zM142 749q17 58 50.5 92t78.5 34q25 0 48 -11t44 -22q13 -6 24 -11t25 -5q17 0 30 14t23 39
l83 -32q-14 -56 -46 -92.5t-83 -36.5q-21 0 -40.5 7.5t-36.5 17.5t-32 17t-32 7q-18 0 -30 -13.5t-25 -41.5z" />
    <glyph glyph-name="utilde" unicode="&#x169;" horiz-adv-x="589" 
d="M384 0l-8 41q-26 -23 -62 -37t-81 -14q-87 0 -136 47.5t-49 142.5v308h175v-288q0 -37 14.5 -58.5t48.5 -21.5q26 0 45 9t31 20v339h175v-488h-153zM91 583q17 58 50.5 92t78.5 34q25 0 48 -11t44 -22q13 -6 24 -11t25 -5q17 0 30 14t23 39l83 -32q-14 -56 -46 -92.5
t-83 -36.5q-21 0 -40.5 7.5t-36.5 17.5t-32 17t-32 7q-18 0 -30 -13.5t-25 -41.5z" />
    <glyph glyph-name="Umacron" unicode="&#x16a;" horiz-adv-x="691" 
d="M237 251q0 -54 28 -83t81 -29q52 0 80 29t28 83v416h179v-428q0 -60 -20.5 -107t-58.5 -79.5t-91 -49.5t-118 -17t-117.5 17t-90.5 49.5t-58.5 79.5t-20.5 107v428h179v-416zM174 754v104h342v-104h-342z" />
    <glyph glyph-name="umacron" unicode="&#x16b;" horiz-adv-x="589" 
d="M384 0l-8 41q-26 -23 -62 -37t-81 -14q-87 0 -136 47.5t-49 142.5v308h175v-288q0 -37 14.5 -58.5t48.5 -21.5q26 0 45 9t31 20v339h175v-488h-153zM123 588v104h342v-104h-342z" />
    <glyph glyph-name="Ubreve" unicode="&#x16c;" horiz-adv-x="691" 
d="M237 251q0 -54 28 -83t81 -29q52 0 80 29t28 83v416h179v-428q0 -60 -20.5 -107t-58.5 -79.5t-91 -49.5t-118 -17t-117.5 17t-90.5 49.5t-58.5 79.5t-20.5 107v428h179v-416zM276 880q5 -36 25.5 -55t52.5 -19q26 0 49 18t29 56h91q-2 -45 -17 -76.5t-39 -52t-53.5 -29.5
t-59.5 -9q-33 0 -63 9t-53 29.5t-38 52t-16 76.5h92z" />
    <glyph glyph-name="ubreve" unicode="&#x16d;" horiz-adv-x="589" 
d="M384 0l-8 41q-26 -23 -62 -37t-81 -14q-87 0 -136 47.5t-49 142.5v308h175v-288q0 -37 14.5 -58.5t48.5 -21.5q26 0 45 9t31 20v339h175v-488h-153zM221 714q5 -36 25.5 -55t52.5 -19q26 0 49 18t29 56h91q-2 -45 -17 -76.5t-39 -52t-53.5 -29.5t-59.5 -9q-33 0 -63 9
t-53 29.5t-38 52t-16 76.5h92z" />
    <glyph glyph-name="Uring" unicode="&#x16e;" horiz-adv-x="691" 
d="M237 251q0 -54 28 -83t81 -29q52 0 80 29t28 83v416h179v-428q0 -60 -20.5 -107t-58.5 -79.5t-91 -49.5t-118 -17t-117.5 17t-90.5 49.5t-58.5 79.5t-20.5 107v428h179v-416zM295 709q-23 11 -38.5 27.5t-23 38t-7.5 43.5t7.5 44t23 38.5t38.5 27t54 10.5t54.5 -10.5
t39 -27t23 -38.5t7.5 -44t-7.5 -43.5t-23 -38t-39 -27t-54.5 -10.5t-54 10zM315 784q13 -13 34 -13t33.5 13.5t12.5 34.5q0 22 -12.5 35t-33.5 13t-33.5 -13t-12.5 -35q0 -21 12 -35z" />
    <glyph glyph-name="uring" unicode="&#x16f;" horiz-adv-x="589" 
d="M384 0l-8 41q-26 -23 -62 -37t-81 -14q-87 0 -136 47.5t-49 142.5v308h175v-288q0 -37 14.5 -58.5t48.5 -21.5q26 0 45 9t31 20v339h175v-488h-153zM238 543q-23 11 -38.5 27.5t-23 38t-7.5 43.5t7.5 44t23 38.5t38.5 27t54 10.5t54.5 -10.5t39 -27t23 -38.5t7.5 -44
t-7.5 -43.5t-23 -38t-39 -27t-54.5 -10.5t-54 10zM258 618q13 -13 34 -13t33.5 13.5t12.5 34.5q0 22 -12.5 35t-33.5 13t-33.5 -13t-12.5 -35q0 -21 12 -35z" />
    <glyph glyph-name="Uhungarumlaut" unicode="&#x170;" horiz-adv-x="691" 
d="M237 251q0 -54 28 -83t81 -29q52 0 80 29t28 83v416h179v-428q0 -60 -20.5 -107t-58.5 -79.5t-91 -49.5t-118 -17t-117.5 17t-90.5 49.5t-58.5 79.5t-20.5 107v428h179v-416zM361 761l141 152l84 -76l-161 -133zM177 758l136 157l85 -72l-155 -138z" />
    <glyph glyph-name="uhungarumlaut" unicode="&#x171;" horiz-adv-x="589" 
d="M384 0l-8 41q-26 -23 -62 -37t-81 -14q-87 0 -136 47.5t-49 142.5v308h175v-288q0 -37 14.5 -58.5t48.5 -21.5q26 0 45 9t31 20v339h175v-488h-153zM305 595l141 152l84 -76l-161 -133zM121 592l136 157l85 -72l-155 -138z" />
    <glyph glyph-name="Uogonek" unicode="&#x172;" horiz-adv-x="691" 
d="M507 -178q-20 -10 -40.5 -15.5t-46.5 -5.5q-61 0 -91 27t-30 70q0 23 9 42.5t22 34.5q5 6 11 11q-63 1 -114 17q-52 17 -90 49.5t-58.5 79.5t-20.5 107v428h179v-416q0 -54 28 -83t81 -29q52 0 80 29t28 83v416h179v-428q0 -60 -20.5 -107t-58.5 -80q-33 -27 -76 -44
q-9 -6 -18 -13q-13 -11 -24 -23t-17.5 -25.5t-6.5 -26.5q0 -29 29 -29q11 0 20.5 3t16.5 7z" />
    <glyph glyph-name="uogonek" unicode="&#x173;" horiz-adv-x="589" 
d="M552 -178q-20 -10 -40.5 -15.5t-46.5 -5.5q-61 0 -91 27t-30 70q0 23 9 42.5t22 34.5q13 14 28 25h-19l-8 41q-26 -23 -62 -37t-81 -14q-87 0 -136 47.5t-49 142.5v308h175v-288q0 -37 14.5 -58.5t48.5 -21.5q26 0 45 9t31 20v339h175v-488h-26l-6 -5q-13 -11 -24 -23
t-17.5 -25.5t-6.5 -26.5q0 -29 29 -29q11 0 20.5 3t16.5 7z" />
    <glyph glyph-name="Wcircumflex" unicode="&#x174;" horiz-adv-x="834" 
d="M163 0l-168 667h180l77 -344l103 344h124l102 -344l79 344h180l-169 -667h-134l-121 385l-119 -385h-134zM307 708l-63 70l117 107h114l119 -109l-69 -67l-107 81z" />
    <glyph glyph-name="wcircumflex" unicode="&#x175;" horiz-adv-x="758" 
d="M169 0l-173 488h178l73 -259l75 259h114l75 -259l72 259h179l-173 -488h-134l-77 256l-76 -256h-133zM268 542l-63 70l117 107h114l119 -109l-69 -67l-107 81z" />
    <glyph glyph-name="Ycircumflex" unicode="&#x176;" horiz-adv-x="639" 
d="M232 0v260l-237 407h202l126 -235l121 235h200l-233 -407v-260h-179zM212 708l-63 70l117 107h114l119 -109l-69 -67l-107 81z" />
    <glyph glyph-name="ycircumflex" unicode="&#x177;" horiz-adv-x="559" 
d="M57 -54q14 -8 33 -14t35 -6q19 0 30.5 7t19.5 25l28 63l-207 467h190l99 -285l98 285h180l-244 -578q-26 -61 -70.5 -86t-104.5 -25q-38 0 -70 8t-61 21zM176 542l-63 70l117 107h114l119 -109l-69 -67l-107 81z" />
    <glyph glyph-name="Ydieresis" unicode="&#x178;" horiz-adv-x="639" 
d="M232 0v260l-237 407h202l126 -235l121 235h200l-233 -407v-260h-179zM431 720q-38 0 -59.5 21.5t-21.5 53.5t21.5 54t59.5 22t59.5 -22t21.5 -54t-21.5 -53.5t-59.5 -21.5zM215 720q-38 0 -59.5 21.5t-21.5 53.5t21.5 54t59.5 22t59.5 -22t21.5 -54t-21.5 -53.5
t-59.5 -21.5z" />
    <glyph glyph-name="Zacute" unicode="&#x179;" horiz-adv-x="599" 
d="M29 0v130l308 384h-288v153h514v-134l-305 -379h313v-154h-542zM227 702l-43 76l223 129l61 -106z" />
    <glyph glyph-name="zacute" unicode="&#x17a;" horiz-adv-x="529" 
d="M31 0v105l246 260h-235v123h449v-113l-240 -252h248v-123h-468zM179 536l-43 76l223 129l61 -106z" />
    <glyph glyph-name="Zdotaccent" unicode="&#x17b;" horiz-adv-x="599" 
d="M29 0v130l308 384h-288v153h514v-134l-305 -379h313v-154h-542zM250 741q-24 23 -24 56t24 56t62 23q39 0 62.5 -23t23.5 -56t-23.5 -55.5t-62.5 -22.5q-38 0 -62 22z" />
    <glyph glyph-name="zdotaccent" unicode="&#x17c;" horiz-adv-x="529" 
d="M31 0v105l246 260h-235v123h449v-113l-240 -252h248v-123h-468zM208 575q-24 23 -24 56t24 56t62 23q39 0 62.5 -23t23.5 -56t-23.5 -55.5t-62.5 -22.5q-38 0 -62 22z" />
    <glyph glyph-name="Zcaron" unicode="&#x17d;" horiz-adv-x="599" 
d="M29 0v130l308 384h-288v153h514v-134l-305 -379h313v-154h-542zM127 820l68 63l110 -83q29 21 57.5 41t57.5 41l64 -62l-122 -115h-114z" />
    <glyph glyph-name="zcaron" unicode="&#x17e;" horiz-adv-x="529" 
d="M31 0v105l246 260h-235v123h449v-113l-240 -252h248v-123h-468zM95 656l68 63l110 -83q29 21 57.5 41t57.5 41l64 -62l-122 -115h-114z" />
    <glyph glyph-name="longs" unicode="&#x17f;" horiz-adv-x="360" 
d="M78 0v504q0 86 48.5 131t134.5 45q51 0 91 -10t63 -21l-40 -107q-16 7 -33 11t-38 4q-24 0 -38 -14.5t-14 -40.5v-502h-174z" />
    <glyph glyph-name="florin" unicode="&#x192;" horiz-adv-x="585" 
d="M-23 2q62 2 96.5 24t45.5 70l51 217h-87v133h115l12 44q14 49 33.5 78.5t48.5 52.5q39 31 89.5 42t119.5 11h25v-139h-22q-35 0 -56.5 -6.5t-35.5 -18.5t-21.5 -28.5t-13.5 -35.5h149v-133h-176l-55 -243q-12 -53 -36 -91.5t-62.5 -63.5t-92.5 -37.5t-127 -13.5v138z" />
    <glyph glyph-name="Scommaaccent" unicode="&#x218;" horiz-adv-x="579" 
d="M150 199q22 -28 59.5 -49.5t85.5 -21.5q35 0 60 12.5t25 41.5q0 14 -5 25t-20 21t-41 20t-68 23q-48 15 -86.5 32t-66 41t-42 56.5t-14.5 77.5q0 46 18 83t51.5 63.5t81 41t106.5 14.5q51 0 90.5 -10t70 -26t52.5 -37t36 -42l-120 -93q-8 12 -20 25t-28.5 23.5
t-37.5 17.5t-46 7q-40 0 -60.5 -14t-20.5 -37q0 -13 6 -23t21.5 -20t41.5 -19.5t65 -21.5q46 -14 84.5 -31t66.5 -42t43.5 -60.5t15.5 -84.5q0 -53 -21.5 -91.5t-57.5 -64t-84 -38t-101 -12.5q-90 0 -157.5 33.5t-105.5 84.5zM161 -188l65 144h141l-87 -144h-119z" />
    <glyph glyph-name="scommaaccent" unicode="&#x219;" horiz-adv-x="501" 
d="M118 159q18 -22 51.5 -39.5t77.5 -17.5q13 0 25.5 1t22.5 5t16 10.5t6 17.5q0 19 -17 29.5t-65 21.5q-44 10 -80 23t-61 32t-38.5 45.5t-13.5 62.5t16.5 63.5t46 46.5t70 29t88.5 10q45 0 79 -6.5t60.5 -17.5t45 -25t31.5 -30l-98 -79q-17 18 -46 32.5t-67 14.5
q-23 0 -42.5 -6t-19.5 -25q0 -8 3 -14t13 -11.5t28.5 -11t48.5 -12.5q45 -10 79 -23t57.5 -32t35 -45t11.5 -62q0 -42 -18.5 -71.5t-49.5 -48t-72.5 -27.5t-86.5 -9q-90 0 -148.5 26t-86.5 64zM130 -188l65 144h141l-87 -144h-119z" />
    <glyph glyph-name="uni021A" unicode="&#x21a;" horiz-adv-x="556" 
d="M189 0v514h-187v153h552v-153h-185v-514h-180zM189 -188l65 144h141l-87 -144h-119z" />
    <glyph glyph-name="uni021B" unicode="&#x21b;" horiz-adv-x="398" 
d="M10 366v122h69v123h175v-123h113v-122h-113v-196q0 -25 5.5 -39t24.5 -14q18 0 34.5 8t29.5 18l45 -106q-33 -23 -71.5 -35t-89.5 -12q-43 0 -72.5 11.5t-47.5 32.5t-25.5 51t-7.5 67v214h-69zM110 -188l65 144h141l-87 -144h-119z" />
    <glyph glyph-name="dotlessj" unicode="&#x237;" horiz-adv-x="279" 
d="M-18 -100q18 13 31.5 24t22.5 23.5t13.5 29t4.5 39.5v472h174v-478q0 -43 -11 -77t-32 -61.5t-50 -49t-65 -39.5z" />
    <glyph glyph-name="apostrophe" unicode="&#x2bc;" horiz-adv-x="246" 
d="M3 579q17 4 34.5 13t27.5 17q-14 8 -25 22t-11 38q0 27 17 47t52 20q31 0 50.5 -19.5t19.5 -51.5q0 -40 -36 -78t-112 -58z" />
    <glyph glyph-name="circumflex" unicode="&#x2c6;" horiz-adv-x="404" 
d="M90 542l-63 70l117 107h114l119 -109l-69 -67l-107 81z" />
    <glyph glyph-name="caron" unicode="&#x2c7;" horiz-adv-x="404" 
d="M23 656l68 63l110 -83q29 21 57.5 41t57.5 41l64 -62l-122 -115h-114z" />
    <glyph glyph-name="uni02C9" unicode="&#x2c9;" horiz-adv-x="377" 
d="M18 588v104h342v-104h-342z" />
    <glyph glyph-name="breve" unicode="&#x2d8;" horiz-adv-x="388" 
d="M116 714q5 -36 25.5 -55t52.5 -19q26 0 49 18t29 56h91q-2 -45 -17 -76.5t-39 -52t-53.5 -29.5t-59.5 -9q-33 0 -63 9t-53 29.5t-38 52t-16 76.5h92z" />
    <glyph glyph-name="dotaccent" unicode="&#x2d9;" horiz-adv-x="308" 
d="M92 575q-24 23 -24 56t24 56t62 23q39 0 62.5 -23t23.5 -56t-23.5 -55.5t-62.5 -22.5q-38 0 -62 22z" />
    <glyph glyph-name="ring" unicode="&#x2da;" horiz-adv-x="352" 
d="M122 543q-23 11 -38.5 27.5t-23 38t-7.5 43.5t7.5 44t23 38.5t38.5 27t54 10.5t54.5 -10.5t39 -27t23 -38.5t7.5 -44t-7.5 -43.5t-23 -38t-39 -27t-54.5 -10.5t-54 10zM142 618q13 -13 34 -13t33.5 13.5t12.5 34.5q0 22 -12.5 35t-33.5 13t-33.5 -13t-12.5 -35
q0 -21 12 -35z" />
    <glyph glyph-name="ogonek" unicode="&#x2db;" horiz-adv-x="332" 
d="M240 -178q-20 -10 -40.5 -15.5t-46.5 -5.5q-61 0 -91 27t-30 70q0 23 9 42.5t22.5 34.5t30.5 26.5t33 18.5l95 -5q-15 -9 -28.5 -20t-24.5 -23t-17.5 -25.5t-6.5 -26.5q0 -29 29 -29q11 0 20.5 3t16.5 7z" />
    <glyph glyph-name="tilde" unicode="&#x2dc;" horiz-adv-x="425" 
d="M9 583q17 58 50.5 92t78.5 34q25 0 48 -11t44 -22q13 -6 24 -11t25 -5q17 0 30 14t23 39l83 -32q-14 -56 -46 -92.5t-83 -36.5q-21 0 -40.5 7.5t-36.5 17.5t-32 17t-32 7q-18 0 -30 -13.5t-25 -41.5z" />
    <glyph glyph-name="hungarumlaut" unicode="&#x2dd;" horiz-adv-x="422" 
d="M190 595l141 152l84 -76l-161 -133zM6 592l136 157l85 -72l-155 -138z" />
    <glyph glyph-name="tonos" unicode="&#x384;" horiz-adv-x="442" 
d="M134 564l103 234l116 -55l-141 -219z" />
    <glyph glyph-name="dieresistonos" unicode="&#x385;" horiz-adv-x="442" 
d="M419 556q-38 0 -59.5 21.5t-21.5 53.5t21.5 54t59.5 22t59.5 -22t21.5 -54t-21.5 -53.5t-59.5 -21.5zM35 556q-38 0 -59.5 21.5t-21.5 53.5t21.5 54t59.5 22t59 -22t21 -54t-21 -53.5t-59 -21.5zM138 569l103 232l113 -50l-141 -219z" />
    <glyph glyph-name="Alphatonos" unicode="&#x386;" horiz-adv-x="699" 
d="M-5 418l64 257l130 -37l-100 -248zM17 0l259 668h167l261 -668h-192l-43 115h-224l-44 -115h-184zM284 251h144l-72 203z" />
    <glyph glyph-name="Epsilontonos" unicode="&#x388;" horiz-adv-x="684" 
d="M-60 418l64 257l130 -37l-100 -248zM163 0v667h475v-153h-296v-110h241v-141h-241v-109h317v-154h-496z" />
    <glyph glyph-name="Etatonos" unicode="&#x389;" horiz-adv-x="799" 
d="M-66 418l64 257l130 -37l-100 -248zM169 0v667h179v-247h210v247h179v-667h-179v264h-210v-264h-179z" />
    <glyph glyph-name="Iotatonos" unicode="&#x38a;" horiz-adv-x="410" 
d="M-60 418l64 257l130 -37l-100 -248zM169 0v667h179v-667h-179z" />
    <glyph glyph-name="Omicrontonos" unicode="&#x38c;" horiz-adv-x="783" 
d="M-60 418l64 257l130 -37l-100 -248zM290 14q-59 28 -99 75.5t-60 110.5t-20 134t20 134t60 110t99.5 74.5t137.5 27.5t137.5 -27.5t99.5 -74.5t60.5 -110t20.5 -134t-20.5 -134t-60.5 -110.5t-99.5 -75.5t-137.5 -28t-138 28zM327 192q18 -26 43 -41t58 -15t58 15
t42.5 41.5t26 63t8.5 78.5t-8.5 78.5t-26 62.5t-42.5 41t-58 15t-58 -15t-42.5 -41t-26 -62.5t-8.5 -78.5t8.5 -78.5t25.5 -63.5z" />
    <glyph glyph-name="Upsilontonos" unicode="&#x38e;" horiz-adv-x="792" 
d="M-59 418l64 257l130 -37l-100 -248zM372 0v131q0 11 -1 34t-4 47q-6 47 -29.5 96.5t-57.5 95.5t-73.5 84.5t-77.5 63.5l112 123q31 -20 65 -51t65.5 -68.5t56.5 -80.5t38 -88q11 41 35 83t54.5 80.5t65 70.5t67.5 53l104 -113q-33 -24 -72.5 -64.5t-75 -89.5t-61.5 -102
t-32 -101q-4 -33 -5 -55t-1 -39v-110h-173z" />
    <glyph glyph-name="Omegatonos" unicode="&#x38f;" horiz-adv-x="809" 
d="M-59 418l64 257l130 -37l-100 -248zM125 0v154h87q-18 15 -35.5 38.5t-31 52.5t-21.5 63.5t-8 71.5q0 69 24 124.5t67.5 94.5t104 60t132.5 21q73 0 133 -21t102.5 -60t66 -94t23.5 -123q0 -37 -9 -72t-23 -65t-32 -53.5t-36 -37.5h91v-154h-268v140q15 12 31.5 29.5
t30.5 42.5t23 59t9 80q0 93 -39.5 136.5t-103.5 43.5q-65 0 -104.5 -43.5t-39.5 -136.5q0 -45 9.5 -79t23.5 -59.5t30.5 -43t30.5 -29.5v-140h-268z" />
    <glyph glyph-name="iotadieresistonos" unicode="&#x390;" horiz-adv-x="324" 
d="M329 13q-22 -9 -55 -16t-69 -7q-78 0 -114.5 40t-36.5 113v345h173v-319q0 -32 11 -43.5t30 -11.5q12 0 23 2.5t22 5.5zM349 556q-38 0 -59.5 21.5t-21.5 53.5t21.5 54t59.5 22t59.5 -22t21.5 -54t-21.5 -53.5t-59.5 -21.5zM-35 556q-38 0 -59.5 21.5t-21.5 53.5t21.5 54
t59.5 22t59 -22t21 -54t-21 -53.5t-59 -21.5zM68 569l103 232l113 -50l-141 -219z" />
    <glyph glyph-name="Alpha" unicode="&#x391;" horiz-adv-x="677" 
d="M-5 0l259 668h167l261 -668h-192l-43 115h-224l-44 -115h-184zM262 251h144l-72 203z" />
    <glyph glyph-name="Beta" unicode="&#x392;" horiz-adv-x="612" 
d="M62 0v667h265q51 0 93.5 -11.5t73 -34t47.5 -55.5t17 -76q0 -28 -7.5 -49.5t-19.5 -38.5t-27.5 -29.5t-31.5 -21.5q25 -7 47 -20.5t38.5 -33.5t26 -46.5t9.5 -59.5q0 -49 -17.5 -85t-48 -59.5t-72.5 -35t-91 -11.5h-302zM237 402h74q35 0 54 18t19 47q0 32 -22 47t-58 15
h-67v-127zM237 142h103q30 0 52 14.5t22 48.5q0 36 -23.5 52.5t-55.5 16.5h-98v-132z" />
    <glyph glyph-name="Gamma" unicode="&#x393;" horiz-adv-x="532" 
d="M63 0v668h459v-153h-282v-515h-177z" />
    <glyph glyph-name="uni0394" unicode="&#x394;" horiz-adv-x="673" 
d="M8 0l34 121l213 546h161q54 -137 107.5 -273t107.5 -273q8 -31 16.5 -61t17.5 -60h-657zM217 136h234q-29 85 -59 168t-59 168z" />
    <glyph glyph-name="Epsilon" unicode="&#x395;" horiz-adv-x="583" 
d="M62 0v667h475v-153h-296v-110h241v-141h-241v-109h317v-154h-496z" />
    <glyph glyph-name="Zeta" unicode="&#x396;" horiz-adv-x="599" 
d="M29 0v130l308 384h-288v153h514v-134l-305 -379h313v-154h-542z" />
    <glyph glyph-name="Eta" unicode="&#x397;" horiz-adv-x="692" 
d="M62 0v667h179v-247h210v247h179v-667h-179v264h-210v-264h-179z" />
    <glyph glyph-name="Theta" unicode="&#x398;" horiz-adv-x="709" 
d="M263 269v129h183v-129h-183zM216 14q-59 28 -99 75.5t-60 110.5t-20 134t20 134t60 110t99.5 74.5t137.5 27.5t137.5 -27.5t99.5 -74.5t60.5 -110t20.5 -134t-20.5 -134t-60.5 -110.5t-99.5 -75.5t-137.5 -28t-138 28zM253 192q18 -26 43 -41t58 -15t58 15t42.5 41.5
t26 63t8.5 78.5t-8.5 78.5t-26 62.5t-42.5 41t-58 15t-58 -15t-42.5 -41t-26 -62.5t-8.5 -78.5t8.5 -78.5t25.5 -63.5z" />
    <glyph glyph-name="Iota" unicode="&#x399;" horiz-adv-x="303" 
d="M62 0v667h179v-667h-179z" />
    <glyph glyph-name="Kappa" unicode="&#x39a;" horiz-adv-x="672" 
d="M62 0v667h179v-225l208 225h210l-241 -260l260 -407h-212l-172 282l-53 -52v-230h-179z" />
    <glyph glyph-name="Lambda" unicode="&#x39b;" horiz-adv-x="667" 
d="M-5 0l256 668h165l257 -668h-186l-157 447l-156 -447h-179z" />
    <glyph glyph-name="Mu" unicode="&#x39c;" horiz-adv-x="816" 
d="M62 0v667h184l166 -397l157 397h185v-667h-173v326l-133 -330h-73l-140 332v-328h-173z" />
    <glyph glyph-name="Nu" unicode="&#x39d;" horiz-adv-x="698" 
d="M62 0v667h181l217 -353v353h176v-667h-163l-236 377v-377h-175z" />
    <glyph glyph-name="Xi" unicode="&#x39e;" horiz-adv-x="562" 
d="M51 0v154h460v-154h-460zM57 514v154h449v-154h-449zM106 268v141h350v-141h-350z" />
    <glyph glyph-name="Omicron" unicode="&#x39f;" horiz-adv-x="709" 
d="M216 14q-59 28 -99 75.5t-60 110.5t-20 134t20 134t60 110t99.5 74.5t137.5 27.5t137.5 -27.5t99.5 -74.5t60.5 -110t20.5 -134t-20.5 -134t-60.5 -110.5t-99.5 -75.5t-137.5 -28t-138 28zM253 192q18 -26 43 -41t58 -15t58 15t42.5 41.5t26 63t8.5 78.5t-8.5 78.5
t-26 62.5t-42.5 41t-58 15t-58 -15t-42.5 -41t-26 -62.5t-8.5 -78.5t8.5 -78.5t25.5 -63.5z" />
    <glyph glyph-name="Pi" unicode="&#x3a0;" horiz-adv-x="679" 
d="M64 0v668h551v-668h-177v517h-197v-517h-177z" />
    <glyph glyph-name="Rho" unicode="&#x3a1;" horiz-adv-x="602" 
d="M62 0v667h211q54 0 109 -6t100 -30q50 -27 75 -75.5t25 -108.5q0 -64 -28 -116t-81 -79q-34 -17 -72.5 -25t-82.5 -8h-80v-219h-176zM238 364h84q36 0 59.5 21t23.5 58t-23.5 57t-61.5 20h-82v-156z" />
    <glyph glyph-name="Sigma" unicode="&#x3a3;" horiz-adv-x="541" 
d="M33 0v144l198 191l-199 188v145h479v-154h-251l176 -178l-182 -182h261v-154h-482z" />
    <glyph glyph-name="Tau" unicode="&#x3a4;" horiz-adv-x="556" 
d="M189 0v514h-187v153h552v-153h-185v-514h-180z" />
    <glyph glyph-name="Upsilon" unicode="&#x3a5;" horiz-adv-x="663" 
d="M243 0v131q0 11 -1 34t-4 47q-6 47 -29.5 96.5t-57.5 95.5t-73.5 84.5t-77.5 63.5l112 123q31 -20 65 -51t65.5 -68.5t56.5 -80.5t38 -88q11 41 35 83t54.5 80.5t65 70.5t67.5 53l104 -113q-33 -24 -72.5 -64.5t-75 -89.5t-61.5 -102t-32 -101q-4 -33 -5 -55t-1 -39v-110
h-173z" />
    <glyph glyph-name="Phi" unicode="&#x3a6;" horiz-adv-x="818" 
d="M324 -11v86q-69 2 -123.5 19.5t-92.5 50.5t-58 80t-20 108t21 107.5t60 79t93 50t120 21.5v90h171v-90q67 -4 121 -21t92.5 -48.5t59.5 -77.5t21 -107q0 -63 -22 -110.5t-61.5 -80t-93.5 -50t-117 -20.5v-87h-171zM495 204q52 2 84.5 36.5t32.5 94.5t-32.5 92t-84.5 34
v-257zM324 462q-53 -3 -84.5 -36.5t-31.5 -91.5q0 -57 32 -92.5t84 -37.5v258z" />
    <glyph glyph-name="Chi" unicode="&#x3a7;" horiz-adv-x="635" 
d="M-5 0l222 343l-208 324h203l106 -178l106 178h200l-207 -321l223 -346h-205l-120 198l-119 -198h-201z" />
    <glyph glyph-name="Psi" unicode="&#x3a8;" horiz-adv-x="814" 
d="M321 0v176q-78 3 -131 20.5t-85.5 51t-46.5 82.5t-14 114v224h175v-206q0 -36 4.5 -61.5t16 -42t31.5 -24t50 -7.5v341h175v-341q31 0 50.5 7.5t31 23t15.5 40.5t4 60v210h173v-221q0 -60 -15 -109t-47.5 -83.5t-84.5 -55t-127 -23.5v-176h-175z" />
    <glyph glyph-name="Omega" unicode="&#x3a9;" horiz-adv-x="733" 
d="M49 0v154h87q-18 15 -35.5 38.5t-31 52.5t-21.5 63.5t-8 71.5q0 69 24 124.5t67.5 94.5t104 60t132.5 21q73 0 133 -21t102.5 -60t66 -94t23.5 -123q0 -37 -9 -72t-23 -65t-32 -53.5t-36 -37.5h91v-154h-268v140q15 12 31.5 29.5t30.5 42.5t23 59t9 80q0 93 -39.5 136.5
t-103.5 43.5q-65 0 -104.5 -43.5t-39.5 -136.5q0 -45 9.5 -79t23.5 -59.5t30.5 -43t30.5 -29.5v-140h-268z" />
    <glyph glyph-name="Iotadieresis" unicode="&#x3aa;" horiz-adv-x="303" 
d="M62 0v667h179v-667h-179zM263 722q-38 0 -59.5 21.5t-21.5 53.5t21.5 54t59.5 22t59.5 -22t21.5 -54t-21.5 -53.5t-59.5 -21.5zM47 722q-38 0 -59.5 21.5t-21.5 53.5t21.5 54t59.5 22t59.5 -22t21.5 -54t-21.5 -53.5t-59.5 -21.5z" />
    <glyph glyph-name="Upsilondieresis" unicode="&#x3ab;" horiz-adv-x="663" 
d="M243 0v131q0 11 -1 34t-4 47q-6 47 -29.5 96.5t-57.5 95.5t-73.5 84.5t-77.5 63.5l112 123q31 -20 65 -51t65.5 -68.5t56.5 -80.5t38 -88q11 41 35 83t54.5 80.5t65 70.5t67.5 53l104 -113q-33 -24 -72.5 -64.5t-75 -89.5t-61.5 -102t-32 -101q-4 -33 -5 -55t-1 -39v-110
h-173zM443 722q-38 0 -59.5 21.5t-21.5 53.5t21.5 54t59.5 22t59.5 -22t21.5 -54t-21.5 -53.5t-59.5 -21.5zM227 722q-38 0 -59.5 21.5t-21.5 53.5t21.5 54t59.5 22t59.5 -22t21.5 -54t-21.5 -53.5t-59.5 -21.5z" />
    <glyph glyph-name="alphatonos" unicode="&#x3ac;" horiz-adv-x="635" 
d="M636 4q-19 -8 -44.5 -11t-44.5 -3q-53 0 -82.5 20t-43.5 55q-30 -40 -72.5 -57.5t-90.5 -17.5q-49 0 -90 15.5t-71 46.5t-46.5 77.5t-16.5 108.5q0 56 15.5 103.5t45 82.5t73 55t100.5 20q55 0 92 -19.5t55 -42.5q2 16 10.5 38t18.5 38l147 -38q-25 -56 -42.5 -113.5
t-17.5 -134.5q0 -66 14 -93t47 -27q8 0 17 1t19 4zM226 150q19 -33 58 -33q37 0 58.5 31.5t21.5 98.5q0 24 -3.5 46.5t-12.5 39t-24 26.5t-37 10q-15 0 -29.5 -6t-26 -20.5t-18 -38.5t-6.5 -61q0 -59 19 -93zM267 564l103 234l116 -55l-141 -219z" />
    <glyph glyph-name="epsilontonos" unicode="&#x3ad;" horiz-adv-x="493" 
d="M281 187q-72 0 -72 -39q0 -23 25.5 -32.5t62.5 -9.5q32 0 71 7.5t80 24.5l21 -110q-40 -19 -97 -28.5t-111 -9.5q-227 0 -227 144q0 45 26 77t72 43q-38 13 -62 41t-24 67q0 66 55.5 101.5t160.5 35.5q63 0 115.5 -11t84.5 -28l-41 -110q-39 17 -73 24t-60 7
q-25 0 -46 -7t-21 -29q0 -15 8 -23.5t21 -13t30.5 -5.5t37.5 -1h86v-115h-123zM214 564l103 234l116 -55l-141 -219z" />
    <glyph glyph-name="etatonos" unicode="&#x3ae;" horiz-adv-x="624" 
d="M81 0v335q0 24 -6 33.5t-21 9.5q-5 0 -12 -1t-12 -3l-25 98q7 3 19 7t27 7.5t31.5 5.5t32.5 2q45 0 69.5 -17.5t34.5 -50.5q22 31 63.5 52t103.5 21q48 0 82 -12.5t56.5 -33.5t34.5 -49.5t15 -60.5q2 -17 2 -30v-33v-469h-175v442q0 16 -0.5 32t-2.5 29q-8 53 -64 53
q-32 0 -50 -16t-25 -43q-2 -7 -2.5 -16.5l-1 -19t-0.5 -18.5v-15v-239h-174zM273 564l103 234l116 -55l-141 -219z" />
    <glyph glyph-name="iotatonos" unicode="&#x3af;" horiz-adv-x="324" 
d="M329 13q-22 -9 -55 -16t-69 -7q-78 0 -114.5 40t-36.5 113v345h173v-319q0 -32 11 -43.5t30 -11.5q12 0 23 2.5t22 5.5zM67 564l103 234l116 -55l-141 -219z" />
    <glyph glyph-name="upsilondieresistonos" unicode="&#x3b0;" horiz-adv-x="605" 
d="M75 324q0 29 -6 40t-23 11q-7 0 -14.5 -1.5t-12.5 -3.5l-25 100q14 7 47.5 15.5t74.5 8.5q53 0 83 -23t40 -59q6 -21 7.5 -40.5t1.5 -42.5v-99q0 -26 2.5 -46.5t9.5 -35t19.5 -22.5t32.5 -8q38 0 52 26t17 64q2 18 2 32.5v35.5q0 52 -6 102t-17 103l174 13
q10 -48 15.5 -102t5.5 -108q0 -31 -1 -56t-5 -49q-15 -91 -76 -140t-170 -49q-51 0 -93 12t-72 37.5t-46.5 64.5t-16.5 94v126zM494 556q-38 0 -59.5 21.5t-21.5 53.5t21.5 54t59.5 22t59.5 -22t21.5 -54t-21.5 -53.5t-59.5 -21.5zM110 556q-38 0 -59.5 21.5t-21.5 53.5
t21.5 54t59.5 22t59 -22t21 -54t-21 -53.5t-59 -21.5zM213 569l103 232l113 -50l-141 -219z" />
    <glyph glyph-name="alpha" unicode="&#x3b1;" horiz-adv-x="635" 
d="M636 4q-19 -8 -44.5 -11t-44.5 -3q-53 0 -82.5 20t-43.5 55q-30 -40 -72.5 -57.5t-90.5 -17.5q-49 0 -90 15.5t-71 46.5t-46.5 77.5t-16.5 108.5q0 56 15.5 103.5t45 82.5t73 55t100.5 20q55 0 92 -19.5t55 -42.5q2 16 10.5 38t18.5 38l147 -38q-25 -56 -42.5 -113.5
t-17.5 -134.5q0 -66 14 -93t47 -27q8 0 17 1t19 4zM226 150q19 -33 58 -33q37 0 58.5 31.5t21.5 98.5q0 24 -3.5 46.5t-12.5 39t-24 26.5t-37 10q-15 0 -29.5 -6t-26 -20.5t-18 -38.5t-6.5 -61q0 -59 19 -93z" />
    <glyph glyph-name="beta" unicode="&#x3b2;" horiz-adv-x="634" 
d="M59 -189v551q0 26 0.5 56.5t2.5 50.5q4 36 16.5 73t40 67.5t74 49.5t119.5 19q112 0 171 -47.5t59 -127.5q0 -30 -10 -54t-25.5 -41.5t-33.5 -29t-34 -15.5q31 -5 60.5 -17t52 -34t36.5 -53.5t14 -73.5q0 -49 -17 -85.5t-46.5 -61t-70 -36.5t-87.5 -12q-50 0 -88 11
t-65 29v-219h-169zM234 147q18 -14 45 -25t59 -11q38 0 65 19t27 64q0 38 -19 58.5t-50 30.5q-38 11 -78 11v112q49 0 72 21t23 59q0 33 -18.5 52t-50.5 19q-35 0 -53 -20t-21 -52q-1 -12 -1 -26.5v-25.5v-286z" />
    <glyph glyph-name="gamma" unicode="&#x3b3;" horiz-adv-x="598" 
d="M214 -189v41t-1 36t-2 39t-4 49q-5 56 -18 111.5t-29.5 104t-34.5 88t-32 62.5q-10 16 -19.5 21.5t-20.5 5.5q-8 0 -16.5 -2.5t-14.5 -5.5l-35 105q16 8 49 19t71 11t70 -16t56 -60q12 -21 23 -49.5t21.5 -62t18.5 -70.5t14 -74q8 43 22.5 91t32.5 94t37.5 86.5
t37.5 68.5l143 -59q-27 -48 -57 -109t-57.5 -126t-48.5 -130t-29 -122q-5 -40 -6.5 -75.5t-2.5 -71.5h-168z" />
    <glyph glyph-name="delta" unicode="&#x3b4;" horiz-adv-x="573" 
d="M98 668h391v-119h-191q32 -20 58 -37t62 -44q62 -46 94 -101.5t32 -131.5q0 -48 -16.5 -92.5t-49.5 -78.5t-83 -54t-116 -20q-56 0 -101.5 16.5t-78 47t-50 74.5t-17.5 99q0 87 47.5 148.5t135.5 87.5q-35 28 -74.5 50.5t-75.5 41.5zM221 153q10 -16 26.5 -26t39.5 -10
q42 0 64 33t22 87q0 48 -17 81.5t-49 56.5q-51 -17 -78 -54.5t-27 -86.5q0 -22 4.5 -43t14.5 -38z" />
    <glyph glyph-name="epsilon" unicode="&#x3b5;" horiz-adv-x="493" 
d="M281 187q-72 0 -72 -39q0 -23 25.5 -32.5t62.5 -9.5q32 0 71 7.5t80 24.5l21 -110q-40 -19 -97 -28.5t-111 -9.5q-227 0 -227 144q0 45 26 77t72 43q-38 13 -62 41t-24 67q0 66 55.5 101.5t160.5 35.5q63 0 115.5 -11t84.5 -28l-41 -110q-39 17 -73 24t-60 7
q-25 0 -46 -7t-21 -29q0 -15 8 -23.5t21 -13t30.5 -5.5t37.5 -1h86v-115h-123z" />
    <glyph glyph-name="zeta" unicode="&#x3b6;" horiz-adv-x="486" 
d="M277 -154q12 33 21.5 71.5t14.5 70.5q-63 0 -115 9.5t-89 33t-57 63.5t-20 100q0 50 14 96.5t38.5 88.5t58 79.5t71.5 69.5q14 11 26 19.5t21 12.5q-13 -2 -26 -2.5t-33 -0.5q-15 0 -34.5 1.5t-39.5 3.5t-38.5 5.5t-31.5 6.5l22 115q45 -8 95.5 -12.5t95.5 -4.5
q16 0 40 0.5t51 2t55.5 3.5t52.5 5v-111q-19 -11 -37 -23t-35 -25q-47 -35 -83 -73.5t-60.5 -77.5t-37.5 -77t-13 -72t11.5 -55.5t36.5 -34t65.5 -17.5t99.5 -6q30 -1 46 -12.5t16 -40.5q0 -24 -7 -57.5t-18 -68t-24.5 -66.5t-25.5 -53z" />
    <glyph glyph-name="eta" unicode="&#x3b7;" horiz-adv-x="624" 
d="M81 0v335q0 24 -6 33.5t-21 9.5q-5 0 -12 -1t-12 -3l-25 98q7 3 19 7t27 7.5t31.5 5.5t32.5 2q45 0 69.5 -17.5t34.5 -50.5q22 31 63.5 52t103.5 21q48 0 82 -12.5t56.5 -33.5t34.5 -49.5t15 -60.5q2 -17 2 -30v-33v-469h-175v442q0 16 -0.5 32t-2.5 29q-8 53 -64 53
q-32 0 -50 -16t-25 -43q-2 -7 -2.5 -16.5l-1 -19t-0.5 -18.5v-15v-239h-174z" />
    <glyph glyph-name="theta" unicode="&#x3b8;" horiz-adv-x="580" 
d="M166 19q-48 29 -78 76.5t-43 108.5t-13 126q0 68 15 131t47 111t82 77t120 29t118.5 -26.5t78.5 -73t43 -108.5t13 -132q0 -71 -13.5 -134.5t-44.5 -111t-81 -75t-123 -27.5q-72 0 -121 29zM202 272q0 -30 4.5 -60t14.5 -53t27 -37.5t42 -14.5t42 12.5t27 34.5t14.5 52
t4.5 66h-176zM378 393q0 33 -5.5 63t-16 52.5t-27 35.5t-38.5 13q-24 0 -40.5 -14.5t-27 -37.5t-15.5 -52.5t-6 -59.5h176z" />
    <glyph glyph-name="iota" unicode="&#x3b9;" horiz-adv-x="324" 
d="M329 13q-22 -9 -55 -16t-69 -7q-78 0 -114.5 40t-36.5 113v345h173v-319q0 -32 11 -43.5t30 -11.5q12 0 23 2.5t22 5.5z" />
    <glyph glyph-name="kappa" unicode="&#x3ba;" horiz-adv-x="601" 
d="M56 0v488h172v-172q26 29 53 59t50 55q33 35 66 51t74 16q26 0 53 -7.5t45 -18.5l-39 -117q-8 5 -21 8.5t-24 3.5q-19 0 -36.5 -13t-38.5 -36l-26 -29l204 -288h-190l-123 179l-47 -54v-125h-172z" />
    <glyph glyph-name="lambda" unicode="&#x3bb;" horiz-adv-x="576" 
d="M12 0l185 469l-16 37q-11 24 -24 34.5t-35 10.5q-16 0 -30.5 -5t-28.5 -11l-36 105q27 14 67.5 24t76.5 10q55 0 96 -25t64 -90l141 -396q11 -29 21.5 -45t36.5 -16q9 0 20 2.5t19 5.5l18 -103q-13 -5 -42.5 -12t-62.5 -7q-36 0 -62.5 10t-46 29t-33.5 46.5t-26 63.5
l-42 131l-89 -268h-171z" />
    <glyph glyph-name="uni03BC" unicode="&#x3bc;" horiz-adv-x="625" 
d="M56 -188v676h175v-284q0 -36 15 -60t53 -24q23 0 37.5 8.5t22 22.5t10 31.5t2.5 35.5v268h175v-318q0 -35 9 -48t26 -13q15 0 35 7l12 -109q-17 -7 -40.5 -11t-43.5 -4q-44 0 -72.5 19t-39.5 48q-19 -34 -50 -50.5t-62 -16.5q-35 0 -60 12.5t-37 27.5v-218h-167z" />
    <glyph glyph-name="nu" unicode="&#x3bd;" horiz-adv-x="601" 
d="M217 0q-14 57 -30.5 108.5t-32.5 96t-31.5 79.5t-27.5 58q-8 16 -19 21.5t-22 5.5q-8 0 -16.5 -2.5t-14.5 -4.5l-34 104q7 4 20 9.5t29 10t33.5 7.5t35.5 3q38 0 70.5 -14t57.5 -58q11 -19 22 -47t21.5 -60.5t19.5 -67.5t16 -68q12 36 26.5 79t30 86.5t31 84.5t28.5 73
l144 -56q-21 -49 -43 -104t-45 -113t-45 -116.5t-43 -114.5h-181z" />
    <glyph glyph-name="xi" unicode="&#x3be;" horiz-adv-x="518" 
d="M311 -152q12 30 21 68.5t14 71.5q-59 1 -114.5 8t-99 27t-70 56t-26.5 95q0 56 33.5 99.5t93.5 61.5q-38 11 -66 40.5t-28 75.5q0 75 77 109q9 5 24.5 9t28.5 7q-16 -2 -35 -3t-35 -1q-23 0 -50 3t-42 6q5 26 9.5 53t9.5 54q27 -4 58.5 -7t62 -5t59.5 -3t52 -1
q16 0 39.5 0.5t50 1.5t52 2.5t45.5 3.5v-111q-35 -4 -71 -10t-73 -20q-40 -12 -63.5 -30t-23.5 -46q0 -29 20.5 -43t54.5 -18q14 -2 34 -2h40h49v-125q-16 0 -50.5 -0.5t-72.5 -3.5q-46 -3 -76.5 -21t-30.5 -56q0 -23 12 -39t38.5 -26t69.5 -14.5t105 -4.5q33 0 53.5 -10
t20.5 -40q0 -23 -7.5 -56.5t-19 -69t-24.5 -68t-24 -51.5z" />
    <glyph glyph-name="omicron" unicode="&#x3bf;" horiz-adv-x="571" 
d="M177 10q-47 20 -80 54.5t-50 81.5t-17 100q0 54 17 100t50 80t80.5 53.5t108.5 19.5t108.5 -19.5t80.5 -53.5t50 -80t17 -100q0 -53 -17 -100t-50 -81.5t-80.5 -54.5t-108.5 -20t-109 20zM222 155q22 -37 64 -37t63 37t21 91t-21 89t-63 35t-63.5 -35t-21.5 -89t21 -91z
" />
    <glyph glyph-name="pi" unicode="&#x3c0;" horiz-adv-x="774" 
d="M176 0v359h-7q-26 0 -43 -11.5t-31 -31.5l-98 78q21 31 50.5 55t72.5 33q25 6 68 6h539v-122h-98v-206q0 -28 7.5 -38t27.5 -10q8 0 19 2t20 5l20 -109q-23 -8 -55.5 -14t-64.5 -6q-133 0 -144 118q-1 14 -1.5 28t-0.5 28v201h-106v-365h-175z" />
    <glyph glyph-name="rho" unicode="&#x3c1;" horiz-adv-x="598" 
d="M54 -189v408q0 24 2.5 48.5t7.5 44.5q9 38 27.5 72t48.5 59.5t73 40.5t101 15q63 0 110 -18.5t78.5 -51.5t47.5 -79t16 -101q0 -53 -14 -100t-41.5 -82t-69.5 -56t-98 -21q-72 0 -115 37v-216h-174zM230 147q11 -11 31.5 -22.5t47.5 -11.5q46 0 66 35.5t20 94.5
q0 64 -22 95.5t-60 31.5q-20 0 -34 -7.5t-23.5 -21t-14.5 -31t-8 -37.5q-3 -29 -3 -58v-68z" />
    <glyph glyph-name="sigma1" unicode="&#x3c2;" horiz-adv-x="542" 
d="M269 -150q11 31 20.5 69.5t13.5 69.5q-45 3 -93 16t-87.5 41.5t-65 76t-25.5 120.5q0 60 18.5 107.5t52.5 80.5t81.5 50.5t105.5 17.5q85 0 139 -34.5t81 -97.5l-136 -58q-11 26 -30 44.5t-53 18.5q-41 0 -64 -32.5t-23 -87.5q0 -79 52.5 -111.5t152.5 -35.5
q35 -1 47.5 -14t12.5 -39q0 -24 -7.5 -56.5t-19 -66t-25 -63.5t-24.5 -50z" />
    <glyph glyph-name="sigma" unicode="&#x3c3;" horiz-adv-x="632" 
d="M481 364q26 -26 42 -61.5t16 -83.5q0 -41 -14.5 -81.5t-46 -73.5t-80 -53.5t-116.5 -20.5q-65 0 -112.5 19.5t-78.5 52.5t-46.5 76t-15.5 90q0 49 15 93t45.5 78t76.5 56t107 27q48 4 106 5t113 1h104v-124h-115zM357 312q-13 33 -39 54q-11 -1 -20 -2t-17 -3
q-40 -10 -60 -43.5t-20 -81.5q0 -52 20.5 -85.5t65.5 -33.5q39 0 61.5 33t22.5 88q0 42 -14 74z" />
    <glyph glyph-name="tau" unicode="&#x3c4;" horiz-adv-x="612" 
d="M1 374q28 50 74 83q26 18 56 24.5t62 6.5h372v-122h-166v-197q0 -34 12 -45.5t35 -11.5q13 0 26.5 3t26.5 8l19 -110q-24 -10 -56.5 -16.5t-68.5 -6.5q-81 0 -119 33t-44 92q-3 25 -3 52v199h-16q-22 0 -37.5 -5t-27.5 -13.5t-20.5 -19t-17.5 -21.5z" />
    <glyph glyph-name="upsilon" unicode="&#x3c5;" horiz-adv-x="605" 
d="M75 324q0 29 -6 40t-23 11q-7 0 -14.5 -1.5t-12.5 -3.5l-25 100q14 7 47.5 15.5t74.5 8.5q53 0 83 -23t40 -59q6 -21 7.5 -40.5t1.5 -42.5v-99q0 -26 2.5 -46.5t9.5 -35t19.5 -22.5t32.5 -8q38 0 52 26t17 64q2 18 2 32.5v35.5q0 52 -6 102t-17 103l174 13
q10 -48 15.5 -102t5.5 -108q0 -31 -1 -56t-5 -49q-15 -91 -76 -140t-170 -49q-51 0 -93 12t-72 37.5t-46.5 64.5t-16.5 94v126z" />
    <glyph glyph-name="phi" unicode="&#x3c6;" horiz-adv-x="786" 
d="M309 -189v189q-65 2 -116.5 20t-87.5 50t-55 77t-19 101t19.5 101.5t56 77.5t88 50.5t114.5 21.5v168h166v-169q64 -2 115.5 -19t88 -47.5t56 -75.5t19.5 -103q0 -60 -20 -106t-57 -78t-88 -49.5t-114 -19.5v-189h-166zM475 124q45 2 74.5 35t29.5 91q0 56 -29 87.5
t-75 33.5v-247zM309 371q-42 -2 -72 -32t-30 -90q0 -58 29.5 -90.5t72.5 -34.5v247z" />
    <glyph glyph-name="chi" unicode="&#x3c7;" horiz-adv-x="566" 
d="M17 -143l172 302l-69 147q-17 35 -28 49.5t-29 14.5q-8 0 -17 -2.5t-16 -5.5l-36 108q18 9 49 18t65 9q45 0 76.5 -20t55.5 -72l48 -102l110 203l136 -63l-164 -288l84 -168q19 -37 32 -50.5t33 -13.5t35 5l25 -109q-14 -6 -43 -12.5t-57 -6.5q-55 0 -89.5 25.5
t-60.5 75.5l-54 105l-121 -213z" />
    <glyph glyph-name="psi" unicode="&#x3c8;" horiz-adv-x="801" 
d="M319 -189v179q-137 8 -203.5 70t-66.5 188v101q0 26 -1 61.5t-9 66.5l170 15q9 -35 10.5 -73t1.5 -64v-93q0 -63 22 -98.5t76 -40.5v489h167v-489q35 5 59.5 24t33.5 55q5 18 6 39t1 44q0 54 -7 98.5t-17 94.5l166 14q12 -54 19.5 -105t7.5 -102q0 -26 -2.5 -50t-6.5 -45
q-17 -85 -80.5 -139t-179.5 -60v-180h-167z" />
    <glyph glyph-name="omega" unicode="&#x3c9;" horiz-adv-x="837" 
d="M279 439q-29 -45 -48.5 -96t-19.5 -112q0 -48 15 -77.5t50 -29.5q31 0 46.5 24t17.5 69q0 9 0.5 26t1 36.5t1 38t0.5 30.5h158v-30.5t0.5 -38t1 -36.5t1.5 -26q4 -48 20 -70t47 -22q64 0 64 114q0 53 -21.5 107t-50.5 93l146 56q19 -21 36.5 -50t31 -63t21.5 -71t8 -74
q0 -120 -55.5 -183.5t-159.5 -63.5q-60 0 -102 18t-68 63q-35 -47 -78.5 -64t-96.5 -17q-51 0 -90 16.5t-65.5 47t-40.5 73.5t-14 95q0 42 8.5 81.5t22 74.5t31 64.5t35.5 52.5z" />
    <glyph glyph-name="iotadieresis" unicode="&#x3ca;" horiz-adv-x="324" 
d="M329 13q-22 -9 -55 -16t-69 -7q-78 0 -114.5 40t-36.5 113v345h173v-319q0 -32 11 -43.5t30 -11.5q12 0 23 2.5t22 5.5zM252 556q-38 0 -59.5 21.5t-21.5 53.5t21.5 54t59.5 22t59.5 -22t21.5 -54t-21.5 -53.5t-59.5 -21.5zM36 556q-38 0 -59.5 21.5t-21.5 53.5t21.5 54
t59.5 22t59.5 -22t21.5 -54t-21.5 -53.5t-59.5 -21.5z" />
    <glyph glyph-name="upsilondieresis" unicode="&#x3cb;" horiz-adv-x="605" 
d="M75 324q0 29 -6 40t-23 11q-7 0 -14.5 -1.5t-12.5 -3.5l-25 100q14 7 47.5 15.5t74.5 8.5q53 0 83 -23t40 -59q6 -21 7.5 -40.5t1.5 -42.5v-99q0 -26 2.5 -46.5t9.5 -35t19.5 -22.5t32.5 -8q38 0 52 26t17 64q2 18 2 32.5v35.5q0 52 -6 102t-17 103l174 13
q10 -48 15.5 -102t5.5 -108q0 -31 -1 -56t-5 -49q-15 -91 -76 -140t-170 -49q-51 0 -93 12t-72 37.5t-46.5 64.5t-16.5 94v126zM407 556q-38 0 -59.5 21.5t-21.5 53.5t21.5 54t59.5 22t59.5 -22t21.5 -54t-21.5 -53.5t-59.5 -21.5zM191 556q-38 0 -59.5 21.5t-21.5 53.5
t21.5 54t59.5 22t59.5 -22t21.5 -54t-21.5 -53.5t-59.5 -21.5z" />
    <glyph glyph-name="omicrontonos" unicode="&#x3cc;" horiz-adv-x="571" 
d="M177 10q-47 20 -80 54.5t-50 81.5t-17 100q0 54 17 100t50 80t80.5 53.5t108.5 19.5t108.5 -19.5t80.5 -53.5t50 -80t17 -100q0 -53 -17 -100t-50 -81.5t-80.5 -54.5t-108.5 -20t-109 20zM222 155q22 -37 64 -37t63 37t21 91t-21 89t-63 35t-63.5 -35t-21.5 -89t21 -91z
M214 564l103 234l116 -55l-141 -219z" />
    <glyph glyph-name="upsilontonos" unicode="&#x3cd;" horiz-adv-x="605" 
d="M75 324q0 29 -6 40t-23 11q-7 0 -14.5 -1.5t-12.5 -3.5l-25 100q14 7 47.5 15.5t74.5 8.5q53 0 83 -23t40 -59q6 -21 7.5 -40.5t1.5 -42.5v-99q0 -26 2.5 -46.5t9.5 -35t19.5 -22.5t32.5 -8q38 0 52 26t17 64q2 18 2 32.5v35.5q0 52 -6 102t-17 103l174 13
q10 -48 15.5 -102t5.5 -108q0 -31 -1 -56t-5 -49q-15 -91 -76 -140t-170 -49q-51 0 -93 12t-72 37.5t-46.5 64.5t-16.5 94v126zM246 564l103 234l116 -55l-141 -219z" />
    <glyph glyph-name="omegatonos" unicode="&#x3ce;" horiz-adv-x="837" 
d="M279 439q-29 -45 -48.5 -96t-19.5 -112q0 -48 15 -77.5t50 -29.5q31 0 46.5 24t17.5 69q0 9 0.5 26t1 36.5t1 38t0.5 30.5h158v-30.5t0.5 -38t1 -36.5t1.5 -26q4 -48 20 -70t47 -22q64 0 64 114q0 53 -21.5 107t-50.5 93l146 56q19 -21 36.5 -50t31 -63t21.5 -71t8 -74
q0 -120 -55.5 -183.5t-159.5 -63.5q-60 0 -102 18t-68 63q-35 -47 -78.5 -64t-96.5 -17q-51 0 -90 16.5t-65.5 47t-40.5 73.5t-14 95q0 42 8.5 81.5t22 74.5t31 64.5t35.5 52.5zM360 564l103 234l116 -55l-141 -219z" />
    <glyph glyph-name="afii10023" unicode="&#x401;" horiz-adv-x="583" 
d="M62 0v667h475v-153h-296v-110h241v-141h-241v-109h317v-154h-496zM413 720q-38 0 -59.5 21.5t-21.5 53.5t21.5 54t59.5 22t59.5 -22t21.5 -54t-21.5 -53.5t-59.5 -21.5zM197 720q-38 0 -59.5 21.5t-21.5 53.5t21.5 54t59.5 22t59.5 -22t21.5 -54t-21.5 -53.5t-59.5 -21.5
z" />
    <glyph glyph-name="afii10051" unicode="&#x402;" horiz-adv-x="752" 
d="M176 0v521h-162v147h509v-147h-173v-90q24 8 58 14.5t72 6.5q52 0 96.5 -13t77 -40t50.5 -68t18 -96q0 -60 -19 -104t-53.5 -73t-82.5 -43.5t-106 -14.5h-46v138h28q48 0 75 21t27 69q0 44 -23.5 65t-68.5 21q-29 0 -55.5 -7t-46.5 -16v-291h-175z" />
    <glyph glyph-name="afii10052" unicode="&#x403;" horiz-adv-x="532" 
d="M63 0v668h459v-153h-282v-515h-177zM199 702l-43 76l223 129l61 -106z" />
    <glyph glyph-name="afii10053" unicode="&#x404;" horiz-adv-x="633" 
d="M217 271q4 -39 16 -66t30 -44t40.5 -24.5t46.5 -7.5q41 0 73 21.5t60 74.5l128 -83q-46 -81 -112 -118t-158 -37q-67 0 -123.5 22t-97 65.5t-63 107t-22.5 147.5q0 91 25.5 157.5t68.5 109.5t99 63.5t116 20.5q109 0 173 -43.5t99 -113.5l-127 -81q-12 19 -25 36.5
t-29 31t-36 21t-47 7.5q-46 0 -82 -30.5t-48 -94.5h202v-142h-207z" />
    <glyph glyph-name="afii10054" unicode="&#x405;" horiz-adv-x="579" 
d="M150 199q22 -28 59.5 -49.5t85.5 -21.5q35 0 60 12.5t25 41.5q0 14 -5 25t-20 21t-41 20t-68 23q-48 15 -86.5 32t-66 41t-42 56.5t-14.5 77.5q0 46 18 83t51.5 63.5t81 41t106.5 14.5q51 0 90.5 -10t70 -26t52.5 -37t36 -42l-120 -93q-8 12 -20 25t-28.5 23.5
t-37.5 17.5t-46 7q-40 0 -60.5 -14t-20.5 -37q0 -13 6 -23t21.5 -20t41.5 -19.5t65 -21.5q46 -14 84.5 -31t66.5 -42t43.5 -60.5t15.5 -84.5q0 -53 -21.5 -91.5t-57.5 -64t-84 -38t-101 -12.5q-90 0 -157.5 33.5t-105.5 84.5z" />
    <glyph glyph-name="uni0406" unicode="&#x406;" horiz-adv-x="303" 
d="M62 0v667h179v-667h-179z" />
    <glyph glyph-name="afii10056" unicode="&#x407;" horiz-adv-x="303" 
d="M62 0v667h179v-667h-179zM264 720q-38 0 -59.5 21.5t-21.5 53.5t21.5 54t59.5 22t59.5 -22t21.5 -54t-21.5 -53.5t-59.5 -21.5zM48 720q-38 0 -59.5 21.5t-21.5 53.5t21.5 54t59.5 22t59.5 -22t21.5 -54t-21.5 -53.5t-59.5 -21.5z" />
    <glyph glyph-name="afii10057" unicode="&#x408;" horiz-adv-x="310" 
d="M-34 -27q53 12 78 35.5t25 64.5v594h179v-608q0 -50 -18 -88t-50.5 -66.5t-78 -46.5t-99.5 -27z" />
    <glyph glyph-name="afii10058" unicode="&#x409;" horiz-adv-x="1003" 
d="M20 0v145h46q26 0 48.5 10.5t36.5 37.5q9 18 15 40.5t9 61t4.5 98t1.5 152.5v123h448v-216h78q63 0 112.5 -16t83.5 -45t52 -70.5t18 -92.5t-18 -93t-52 -72t-83.5 -46.5t-112.5 -16.5h-253v519h-101v-30q0 -84 -3.5 -146.5t-11.5 -109t-20 -80t-29 -59.5
q-33 -51 -84.5 -72.5t-116.5 -21.5h-68zM629 135h69q43 0 67 24t24 69q0 42 -23.5 65.5t-66.5 23.5h-70v-182z" />
    <glyph glyph-name="afii10059" unicode="&#x40a;" horiz-adv-x="973" 
d="M63 0v668h177v-235h183v235h178v-235h77q128 0 196.5 -55.5t68.5 -158.5t-68.5 -161t-196.5 -58h-255v297h-183v-297h-177zM601 135h68q43 0 68 19t25 63q0 42 -24.5 61t-67.5 19h-69v-162z" />
    <glyph glyph-name="afii10060" unicode="&#x40b;" horiz-adv-x="744" 
d="M168 0v521h-154v147h491v-147h-161v-88q21 8 47.5 14t60.5 6q51 0 93.5 -11.5t73 -37t47 -65t16.5 -94.5v-245h-176v233q0 38 -21 56.5t-60 18.5q-23 0 -44 -7t-37 -16v-285h-176z" />
    <glyph glyph-name="afii10061" unicode="&#x40c;" horiz-adv-x="659" 
d="M63 0v668h177v-244q38 0 59 21.5t41 65.5q14 31 29 59.5t37 50.5t53 34.5t78 12.5h75v-153h-43q-26 0 -43 -12.5t-31 -45.5q-18 -42 -37 -66t-36 -36l230 -355h-198l-174 263h-40v-263h-177zM251 702l-43 76l223 129l61 -106z" />
    <glyph glyph-name="afii10062" unicode="&#x40e;" horiz-adv-x="639" 
d="M270 883q5 -33 25 -49t43 -16t43 15t25 50h126q-1 -41 -17.5 -72.5t-43 -53t-61.5 -33t-74 -11.5q-41 0 -76 11.5t-60.5 33t-41 53t-17.5 72.5h129zM113 -6v142h46q19 0 33.5 2t25.5 8t19.5 17.5t16.5 31.5l-259 473h196l152 -297q5 12 14.5 35t20.5 51.5t22.5 60
t22 60.5t19 52.5t13.5 37.5h177q-27 -81 -52.5 -151.5t-51.5 -134.5t-54 -124t-60 -118q-19 -34 -39.5 -61t-47 -46t-61 -29t-82.5 -10h-71z" />
    <glyph glyph-name="afii10145" unicode="&#x40f;" horiz-adv-x="676" 
d="M65 0v668h177v-519h191v519h177v-668h-185v-130h-175v130h-185z" />
    <glyph glyph-name="afii10017" unicode="&#x410;" horiz-adv-x="677" 
d="M-5 0l259 668h167l261 -668h-192l-43 115h-224l-44 -115h-184zM262 251h144l-72 203z" />
    <glyph glyph-name="afii10018" unicode="&#x411;" horiz-adv-x="616" 
d="M63 0v668h455v-153h-278v-82h78q128 0 197 -56.5t69 -159.5t-69 -160t-197 -57h-255zM240 135h69q43 0 67 19t24 63q0 42 -23.5 61t-66.5 19h-70v-162z" />
    <glyph glyph-name="afii10019" unicode="&#x412;" horiz-adv-x="612" 
d="M62 0v667h265q51 0 93.5 -11.5t73 -34t47.5 -55.5t17 -76q0 -28 -7.5 -49.5t-19.5 -38.5t-27.5 -29.5t-31.5 -21.5q25 -7 47 -20.5t38.5 -33.5t26 -46.5t9.5 -59.5q0 -49 -17.5 -85t-48 -59.5t-72.5 -35t-91 -11.5h-302zM237 402h74q35 0 54 18t19 47q0 32 -22 47t-58 15
h-67v-127zM237 142h103q30 0 52 14.5t22 48.5q0 36 -23.5 52.5t-55.5 16.5h-98v-132z" />
    <glyph glyph-name="afii10020" unicode="&#x413;" horiz-adv-x="532" 
d="M63 0v668h459v-153h-282v-515h-177z" />
    <glyph glyph-name="afii10021" unicode="&#x414;" horiz-adv-x="725" 
d="M19 -130v282h62q34 53 56 113t34.5 125.5t17 135t4.5 142.5h445v-516h54v-282h-176v130h-322v-130h-175zM463 148v372h-101q-1 -47 -6.5 -96t-16.5 -97t-28 -93.5t-41 -85.5h193z" />
    <glyph glyph-name="afii10022" unicode="&#x415;" horiz-adv-x="583" 
d="M62 0v667h475v-153h-296v-110h241v-141h-241v-109h317v-154h-496z" />
    <glyph glyph-name="afii10024" unicode="&#x416;" horiz-adv-x="968" 
d="M14 0l206 342q-37 26 -69 93q-10 21 -17.5 36t-16.5 24.5t-21 14t-31 4.5h-31v153h87q44 0 74 -10.5t51 -29t35 -43.5t26 -54q8 -20 16.5 -39t18.5 -34t23 -25t31 -12v247h176v-246q30 3 48.5 27t32.5 56q14 34 28 63.5t34.5 51.5t51 35t78.5 13h87v-153h-37
q-20 0 -33 -5t-23 -14.5t-18.5 -24.5t-17.5 -36q-16 -36 -29.5 -55.5t-30.5 -32.5l207 -346h-205l-140 260h-33v-260h-176v260h-38l-141 -260h-203z" />
    <glyph glyph-name="afii10025" unicode="&#x417;" horiz-adv-x="612" 
d="M143 213q31 -50 69.5 -69t78.5 -19q45 0 72.5 18.5t27.5 56.5q0 29 -21.5 52t-74.5 23h-84v129h81q44 0 66 23t22 52q0 31 -22 48t-60 17q-44 0 -78.5 -19t-59.5 -74l-127 74q25 44 54 74t63.5 48.5t76 26.5t91.5 8q57 0 102 -13.5t76 -38t47.5 -59t16.5 -76.5
q0 -51 -21 -89t-57 -63q45 -22 69 -58t24 -87q0 -53 -19.5 -92.5t-56 -66t-87.5 -39.5t-114 -13q-43 0 -83 6.5t-75.5 22.5t-66.5 43t-56 68z" />
    <glyph glyph-name="afii10026" unicode="&#x418;" horiz-adv-x="689" 
d="M63 0v667h177v-342l208 240v102h177v-667h-177v342l-208 -240v-102h-177z" />
    <glyph glyph-name="afii10027" unicode="&#x419;" horiz-adv-x="689" 
d="M63 0v667h177v-342l208 240v102h177v-667h-177v342l-208 -240v-102h-177zM283 883q5 -33 25 -49t43 -16t42.5 15t24.5 50h126q-1 -41 -17.5 -72.5t-43 -53t-61.5 -33t-74 -11.5q-41 0 -76 11.5t-60.5 33t-41 53t-17.5 72.5h130z" />
    <glyph glyph-name="afii10028" unicode="&#x41a;" horiz-adv-x="659" 
d="M63 0v668h177v-244q38 0 59 21.5t41 65.5q14 31 29 59.5t37 50.5t53 34.5t78 12.5h75v-153h-43q-26 0 -43 -12.5t-31 -45.5q-18 -42 -37 -66t-36 -36l230 -355h-198l-174 263h-40v-263h-177z" />
    <glyph glyph-name="afii10029" unicode="&#x41b;" horiz-adv-x="714" 
d="M20 0v145h38q67 0 90 48q9 18 15 40.5t9.5 61t5 98t1.5 152.5v123h473v-668h-177v518h-125v-42q0 -81 -3.5 -141t-10.5 -104.5t-19 -76.5t-28 -58q-32 -51 -83.5 -73.5t-117.5 -22.5h-68z" />
    <glyph glyph-name="afii10030" unicode="&#x41c;" horiz-adv-x="818" 
d="M65 0v668h184l164 -398l156 398h184v-668h-172v326l-132 -330h-72l-140 332v-328h-172z" />
    <glyph glyph-name="afii10031" unicode="&#x41d;" horiz-adv-x="689" 
d="M66 0v667h177v-249h202v249h177v-667h-177v267h-202v-267h-177z" />
    <glyph glyph-name="afii10032" unicode="&#x41e;" horiz-adv-x="709" 
d="M216 14q-59 28 -99 75.5t-60 110.5t-20 134t20 134t60 110t99.5 74.5t137.5 27.5t137.5 -27.5t99.5 -74.5t60.5 -110t20.5 -134t-20.5 -134t-60.5 -110.5t-99.5 -75.5t-137.5 -28t-138 28zM253 192q18 -26 43 -41t58 -15t58 15t42.5 41.5t26 63t8.5 78.5t-8.5 78.5
t-26 62.5t-42.5 41t-58 15t-58 -15t-42.5 -41t-26 -62.5t-8.5 -78.5t8.5 -78.5t25.5 -63.5z" />
    <glyph glyph-name="afii10033" unicode="&#x41f;" horiz-adv-x="679" 
d="M64 0v668h551v-668h-177v517h-197v-517h-177z" />
    <glyph glyph-name="afii10034" unicode="&#x420;" horiz-adv-x="602" 
d="M62 0v667h211q54 0 109 -6t100 -30q50 -27 75 -75.5t25 -108.5q0 -64 -28 -116t-81 -79q-34 -17 -72.5 -25t-82.5 -8h-80v-219h-176zM238 364h84q36 0 59.5 21t23.5 58t-23.5 57t-61.5 20h-82v-156z" />
    <glyph glyph-name="afii10035" unicode="&#x421;" horiz-adv-x="637" 
d="M617 148q-37 -80 -100 -121t-170 -41q-71 0 -128.5 24t-98 69t-62.5 109t-22 144q0 86 24.5 151.5t66.5 109t97.5 65.5t118.5 22q52 0 93 -11t73.5 -33t57.5 -54t45 -75l-145 -77q-19 48 -45 74.5t-70 26.5q-33 0 -58 -15t-41.5 -41t-25 -63t-8.5 -80q0 -88 37 -139.5
t99 -51.5q45 0 72.5 23.5t44.5 62.5z" />
    <glyph glyph-name="afii10036" unicode="&#x422;" horiz-adv-x="584" 
d="M202 0v514h-186v154h552v-154h-186v-514h-180z" />
    <glyph glyph-name="afii10037" unicode="&#x423;" horiz-adv-x="640" 
d="M114 -6v142h46q19 0 33.5 2t25.5 8t19.5 17.5t16.5 31.5l-260 473h197l152 -297q10 21 24.5 57.5t30 79t31 85.5t26.5 75h177q-27 -81 -52.5 -151t-51.5 -134t-54 -123.5t-60 -117.5q-19 -34 -39.5 -61.5t-47 -46.5t-61 -29.5t-82.5 -10.5h-71z" />
    <glyph glyph-name="afii10038" unicode="&#x424;" horiz-adv-x="818" 
d="M324 -11v86q-69 2 -123.5 19.5t-92.5 50.5t-58 80t-20 108t21 107.5t60 79t93 50t120 21.5v90h171v-90q67 -4 121 -21t92.5 -48.5t59.5 -77.5t21 -107q0 -63 -22 -110.5t-61.5 -80t-93.5 -50t-117 -20.5v-87h-171zM495 204q52 2 84.5 36.5t32.5 94.5t-32.5 92t-84.5 34
v-257zM324 462q-53 -3 -84.5 -36.5t-31.5 -91.5q0 -57 32 -92.5t84 -37.5v258z" />
    <glyph glyph-name="afii10039" unicode="&#x425;" horiz-adv-x="635" 
d="M-5 0l222 343l-208 324h203l106 -178l106 178h200l-207 -321l223 -346h-205l-120 198l-119 -198h-201z" />
    <glyph glyph-name="afii10040" unicode="&#x426;" horiz-adv-x="695" 
d="M66 0v667h178v-518h184v518h178v-518h54v-279h-175v130h-419z" />
    <glyph glyph-name="afii10041" unicode="&#x427;" horiz-adv-x="662" 
d="M421 0v242q-26 -5 -60 -9.5t-66 -4.5q-118 0 -174.5 49t-69.5 138q-2 14 -3 29.5t-1 32.5v190h177v-178q0 -13 0.5 -24t1.5 -22q4 -37 28.5 -54.5t66.5 -17.5q25 0 52 3t48 9v284h177v-667h-177z" />
    <glyph glyph-name="afii10042" unicode="&#x428;" horiz-adv-x="922" 
d="M65 0v668h177v-519h133v519h172v-519h133v519h177v-668h-792z" />
    <glyph glyph-name="afii10043" unicode="&#x429;" horiz-adv-x="940" 
d="M67 0v668h177v-519h130v519h171v-519h129v519h178v-519h53v-279h-174v130h-664z" />
    <glyph glyph-name="afii10044" unicode="&#x42a;" horiz-adv-x="674" 
d="M110 0v521h-97v147h273v-216h92q63 0 112.5 -16t83.5 -45t52 -70.5t18 -92.5t-18 -93t-52 -72t-83.5 -46.5t-112.5 -16.5h-268zM286 135h83q43 0 67 24t24 69q0 42 -23.5 65.5t-66.5 23.5h-84v-182z" />
    <glyph glyph-name="afii10045" unicode="&#x42b;" horiz-adv-x="886" 
d="M63 0v668h175v-216h78q53 0 101 -13t85 -40.5t58.5 -70t21.5 -100.5q0 -57 -21 -100t-57.5 -71.5t-85 -42.5t-102.5 -14h-253zM645 0v668h177v-668h-177zM238 135h69q43 0 67 24t24 69q0 42 -23.5 65.5t-66.5 23.5h-70v-182z" />
    <glyph glyph-name="afii10046" unicode="&#x42c;" horiz-adv-x="631" 
d="M63 0v668h175v-216h97q63 0 112.5 -16t83.5 -45t52 -70.5t18 -92.5t-18 -93t-52 -72t-83.5 -46.5t-112.5 -16.5h-272zM238 135h83q43 0 69.5 24t26.5 69q0 42 -26 65.5t-69 23.5h-84v-182z" />
    <glyph glyph-name="afii10047" unicode="&#x42d;" horiz-adv-x="634" 
d="M159 215q26 -47 60 -67t75 -20q21 0 42.5 7.5t39 24t28.5 42.5t13 63h-203v143h199q-5 61 -39 94.5t-82 33.5q-26 0 -47 -7t-37.5 -19.5t-29.5 -28.5t-25 -34l-135 74q19 34 45.5 63t61 51t79 34.5t100.5 12.5q62 0 116 -19.5t93.5 -61.5t62.5 -107t23 -156
q0 -86 -21.5 -151.5t-61.5 -109.5t-95.5 -67t-124.5 -23q-97 0 -163 36t-114 115z" />
    <glyph glyph-name="afii10048" unicode="&#x42e;" horiz-adv-x="980" 
d="M63 0v668h177v-257h85q8 53 30.5 102t60.5 86.5t91 60t123 22.5q82 0 141.5 -30t98 -79t57 -111.5t18.5 -126.5t-19 -126.5t-58 -111.5t-98.5 -79.5t-139.5 -30.5q-71 0 -124.5 23t-91 61.5t-60 89t-30.5 104.5h-84v-265h-177zM525 190q18 -29 43.5 -46.5t59.5 -17.5
t60 17.5t43 46.5t25.5 66.5t8.5 78.5q0 40 -8.5 77.5t-25.5 66t-43 46t-60 17.5t-59.5 -17.5t-43 -46t-26 -66t-8.5 -77.5q0 -41 8.5 -78.5t25.5 -66.5z" />
    <glyph glyph-name="afii10049" unicode="&#x42f;" horiz-adv-x="630" 
d="M40 0v142h42q40 0 60 26t24 94q-120 58 -120 194q0 104 69 158t196 54h255v-668h-175v235h-58q-3 -24 -7 -44.5t-9 -37.5q-12 -47 -31 -77t-43 -47t-52.5 -23t-60.5 -6h-90zM391 372v160h-74q-35 0 -61.5 -18t-26.5 -58q0 -37 25 -60.5t68 -23.5h69z" />
    <glyph glyph-name="afii10065" unicode="&#x430;" horiz-adv-x="524" 
d="M329 0l-14 38q-20 -19 -54 -32.5t-79 -13.5q-34 0 -63 10t-50.5 29.5t-33.5 46.5t-12 62q0 36 13.5 63t37 46t54.5 31t66 17q32 5 59.5 7.5t50.5 3.5v12q0 36 -19 50t-45 14q-29 0 -54.5 -11t-49.5 -30l-78 87q40 35 89.5 55t118.5 20q96 0 153 -47t57 -150v-308h-147z
M304 221q-15 -1 -30 -2.5t-31 -4.5q-31 -5 -44 -21.5t-13 -36.5q0 -21 14.5 -34.5t40.5 -13.5q19 0 34.5 6t28.5 16v91z" />
    <glyph glyph-name="afii10066" unicode="&#x431;" horiz-adv-x="581" 
d="M515 629q-11 -25 -25 -41.5t-32 -26.5t-40.5 -15.5t-50.5 -7.5q-17 -2 -34 -3t-34 -5q-41 -8 -67.5 -36.5t-34.5 -72.5q18 20 53.5 33t73.5 13q54 0 95.5 -16.5t70 -46.5t43 -72t14.5 -93q0 -46 -16 -90.5t-48.5 -80t-80 -57t-110.5 -21.5q-67 0 -116 22t-81.5 61
t-48.5 93t-16 119q0 68 14.5 130t45 111t77.5 81.5t112 43.5q13 2 25.5 4t24.5 4q28 5 49.5 13.5t41.5 33.5zM225 152q21 -33 65 -33q43 0 65 33t22 81q0 47 -22 79t-65 32t-64.5 -32t-21.5 -79q0 -48 21 -81z" />
    <glyph glyph-name="afii10067" unicode="&#x432;" horiz-adv-x="574" 
d="M54 0v496h288q87 0 135.5 -33.5t48.5 -99.5q0 -34 -14 -61t-37 -42q34 -15 52 -41t18 -69q0 -38 -15.5 -66.5t-42 -47t-62 -27.5t-76.5 -9h-295zM220 113h89q26 0 41.5 10.5t15.5 36.5q0 23 -14.5 33.5t-38.5 10.5h-93v-91zM220 300h85q28 0 39 13t11 32q0 41 -51 41h-84
v-86z" />
    <glyph glyph-name="afii10068" unicode="&#x433;" horiz-adv-x="465" 
d="M54 0v496h389v-138h-217v-358h-172z" />
    <glyph glyph-name="afii10069" unicode="&#x434;" horiz-adv-x="620" 
d="M7 -101v233h52q42 54 63 131t21 165v68h405v-364h48v-233h-168v101h-253v-101h-168zM379 128v236h-87q-2 -72 -17 -129.5t-44 -106.5h148z" />
    <glyph glyph-name="afii10070" unicode="&#x435;" horiz-adv-x="541" 
d="M200 211q2 -44 28.5 -68.5t67.5 -24.5q33 0 56.5 12t43.5 37l107 -84q-16 -20 -36.5 -36.5t-47 -29.5t-61 -20t-77.5 -7q-52 0 -97.5 16t-79.5 47.5t-54 79t-20 110.5t19 112t52 82.5t78.5 50.5t98.5 17q54 0 98 -17t75.5 -53t48.5 -91.5t17 -132.5h-317zM353 304
q-2 48 -22 69t-51 21q-32 0 -54.5 -23t-24.5 -67h152z" />
    <glyph glyph-name="afii10072" unicode="&#x436;" horiz-adv-x="789" 
d="M19 0l146 252q-12 14 -23.5 32.5t-27.5 47.5q-13 23 -27 32.5t-33 9.5h-25v122h74q30 0 50.5 -5t35.5 -16.5t26.5 -29.5t24.5 -43q12 -23 20 -39.5t15.5 -27t16 -16.5t20.5 -7v184h168v-184q11 1 18.5 6t14.5 14.5t14.5 24.5t18.5 35q13 24 25.5 43t28.5 32.5t37 21
t51 7.5h71v-122h-29q-37 0 -60 -45q-12 -24 -23.5 -42t-23.5 -29l146 -258h-171l-90 182h-28v-182h-168v182h-27l-92 -182h-174z" />
    <glyph glyph-name="afii10073" unicode="&#x437;" horiz-adv-x="498" 
d="M111 179q18 -30 50.5 -49t70.5 -19q31 0 48 10t17 30q0 16 -13.5 28.5t-48.5 12.5h-50v111h46q32 0 43.5 14.5t11.5 29.5q0 22 -15.5 30t-39.5 8q-32 0 -58 -15t-47 -51l-109 69q14 24 34 45t47.5 37t64.5 25.5t85 9.5q101 0 155.5 -36.5t54.5 -103.5q0 -32 -15 -60
t-47 -47q74 -32 74 -112q0 -78 -61 -117t-173 -39q-90 0 -146 30t-85 77z" />
    <glyph glyph-name="afii10074" unicode="&#x438;" horiz-adv-x="593" 
d="M54 0v496h172v-218l140 132v86h172v-496h-172v222l-140 -132v-90h-172z" />
    <glyph glyph-name="afii10075" unicode="&#x439;" horiz-adv-x="593" 
d="M54 0v496h172v-218l140 132v86h172v-496h-172v222l-140 -132v-90h-172zM241 711q5 -33 25 -49t43 -16t42.5 15t24.5 50h126q-1 -41 -17.5 -72.5t-43 -53t-61.5 -33t-74 -11.5q-41 0 -76 11.5t-60.5 33t-41 53t-17.5 72.5h130z" />
    <glyph glyph-name="afii10076" unicode="&#x43a;" horiz-adv-x="560" 
d="M54 0v496h171v-181q31 0 49.5 26t42.5 70q21 39 51.5 62t84.5 23h70v-132h-32q-24 0 -40 -15t-28 -38q-8 -16 -17 -30t-22 -23l170 -258h-184l-108 181h-37v-181h-171z" />
    <glyph glyph-name="afii10077" unicode="&#x43b;" horiz-adv-x="609" 
d="M18 0v125h33q23 0 40.5 9t24.5 32q7 22 8.5 64.5t1.5 120.5v145h429v-496h-174v363h-92v-56q0 -34 -1 -60t-3 -47t-4.5 -38t-6.5 -32q-14 -56 -56.5 -93t-122.5 -37h-77z" />
    <glyph glyph-name="afii10078" unicode="&#x43c;" horiz-adv-x="680" 
d="M51 0v496h163l129 -254l123 254h163v-496h-163v230l-111 -235h-28l-113 234v-229h-163z" />
    <glyph glyph-name="afii10079" unicode="&#x43d;" horiz-adv-x="590" 
d="M55 0v496h172v-174h135v174h172v-496h-172v187h-135v-187h-172z" />
    <glyph glyph-name="afii10080" unicode="&#x43e;" horiz-adv-x="571" 
d="M177 10q-47 21 -80 56t-50 82.5t-17 100.5q0 54 17 100.5t50 81t80.5 54.5t108.5 20t108.5 -20t80.5 -54.5t50 -81t17 -100.5q0 -53 -17 -100.5t-50 -82.5t-80.5 -55.5t-108.5 -20.5t-109 20zM222 156q22 -38 64 -38q21 0 36.5 10t26 28t16 42t5.5 51q0 54 -21 90.5
t-63 36.5t-63.5 -36.5t-21.5 -90.5q0 -55 21 -93z" />
    <glyph glyph-name="afii10081" unicode="&#x43f;" horiz-adv-x="587" 
d="M57 0v496h474v-496h-173v362h-129v-362h-172z" />
    <glyph glyph-name="afii10082" unicode="&#x440;" horiz-adv-x="574" 
d="M51 -189v683h152l8 -38q7 7 18 15.5t26 16t34 12.5t44 5q49 0 88 -19.5t66.5 -53.5t42 -81t14.5 -101q0 -53 -15.5 -100.5t-45.5 -83t-74 -56.5t-100 -21q-50 0 -83 15v-193h-175zM226 131q10 -5 21 -8t28 -3q24 0 42 10.5t30.5 28t19 41t6.5 49.5q0 59 -22.5 94
t-63.5 35q-20 0 -36.5 -8.5t-24.5 -20.5v-218z" />
    <glyph glyph-name="afii10083" unicode="&#x441;" horiz-adv-x="525" 
d="M505 127q-29 -67 -83 -102t-144 -35q-52 0 -97.5 17t-79 49.5t-52.5 80t-19 108.5q0 62 18.5 110.5t51.5 81.5t78 50.5t98 17.5q48 0 85 -11t64.5 -31t45.5 -47t29 -58l-133 -59q-16 45 -35.5 61.5t-48.5 16.5q-34 0 -58 -30.5t-24 -99.5q0 -63 24 -96t61 -33q32 0 54 19
t33 54z" />
    <glyph glyph-name="afii10084" unicode="&#x442;" horiz-adv-x="496" 
d="M161 0v358h-148v138h470v-138h-148v-358h-174z" />
    <glyph glyph-name="afii10085" unicode="&#x443;" horiz-adv-x="568" 
d="M61 -59q16 -8 35 -12t34 -4q16 0 28.5 7.5t20.5 25.5l28 63l-207 475h191l99 -293l97 293h181l-244 -586q-26 -61 -66 -86t-97 -25q-47 0 -81 8.5t-63 21.5z" />
    <glyph glyph-name="afii10086" unicode="&#x444;" horiz-adv-x="786" 
d="M309 -189v189q-65 2 -116.5 20t-87.5 50t-55 77t-19 101t19.5 101.5t56 77.5t88 50.5t114.5 21.5v168h166v-169q64 -2 115.5 -19t88 -47.5t56 -75.5t19.5 -103q0 -60 -20 -106t-57 -78t-88 -49.5t-114 -19.5v-189h-166zM475 124q45 2 74.5 35t29.5 91q0 56 -29 87.5
t-75 33.5v-247zM309 371q-42 -2 -72 -32t-30 -90q0 -58 29.5 -90.5t72.5 -34.5v247z" />
    <glyph glyph-name="afii10087" unicode="&#x445;" horiz-adv-x="545" 
d="M-1 0l179 246l-182 250h193l88 -137l87 137h178l-174 -244l181 -252h-194l-86 138l-90 -138h-180z" />
    <glyph glyph-name="afii10088" unicode="&#x446;" horiz-adv-x="603" 
d="M59 0v496h173v-364h118v364h172v-364h48v-233h-167v101h-344z" />
    <glyph glyph-name="afii10089" unicode="&#x447;" horiz-adv-x="576" 
d="M348 0v135q-21 -4 -48 -6.5t-59 -2.5q-74 0 -119.5 24t-67.5 70q-10 21 -14 46.5t-4 54.5v175h174v-160q0 -16 3 -29.5t11.5 -23.5t23.5 -16t40 -6q17 0 32 1.5t28 5.5v228h173v-496h-173z" />
    <glyph glyph-name="afii10090" unicode="&#x448;" horiz-adv-x="861" 
d="M63 0v496h172v-364h111v364h169v-364h111v364h172v-496h-735z" />
    <glyph glyph-name="afii10091" unicode="&#x449;" horiz-adv-x="878" 
d="M64 0v496h173v-364h108v364h168v-364h108v364h173v-364h46v-233h-166v101h-610z" />
    <glyph glyph-name="afii10092" unicode="&#x44a;" horiz-adv-x="598" 
d="M96 0v359h-83v137h253v-115h74q62 0 105.5 -16t71 -42t40 -60.5t12.5 -71.5t-12.5 -71.5t-40 -61t-71 -42.5t-105.5 -16h-244zM266 117h61q32 0 48.5 21.5t16.5 53.5t-16.5 52t-48.5 20h-61v-147z" />
    <glyph glyph-name="afii10093" unicode="&#x44b;" horiz-adv-x="807" 
d="M54 0v496h170v-115h74q61 0 104 -15t69 -40.5t38 -59t12 -71.5t-11.5 -73t-38 -62t-69 -43.5t-104.5 -16.5h-244zM580 0v490h173v-490h-173zM224 117h55q32 0 49 21.5t17 55.5q0 32 -17 51.5t-49 19.5h-55v-148z" />
    <glyph glyph-name="afii10094" unicode="&#x44c;" horiz-adv-x="569" 
d="M54 0v496h171v-115h86q62 0 105.5 -15t71 -41t40 -60t12.5 -73q0 -37 -12.5 -71.5t-40 -61.5t-71 -43t-105.5 -16h-257zM225 117h66q35 0 53.5 21t18.5 54q0 32 -18 51t-53 19h-67v-145z" />
    <glyph glyph-name="afii10095" unicode="&#x44d;" horiz-adv-x="516" 
d="M112 174q20 -23 47 -42.5t65 -19.5q36 0 62 18.5t30 58.5h-142v116h141q-4 35 -29.5 54.5t-56.5 19.5q-37 0 -61.5 -17t-41.5 -38l-108 76q10 14 27.5 32t44.5 34.5t63.5 27.5t84.5 11q52 0 97 -15t78 -46t51.5 -79t18.5 -113q0 -66 -19.5 -115t-54 -82t-81 -49
t-99.5 -16q-80 0 -132.5 27t-86.5 70z" />
    <glyph glyph-name="afii10096" unicode="&#x44e;" horiz-adv-x="803" 
d="M54 0v496h172v-183h60q8 36 25.5 70.5t46.5 61.5t70 43.5t96 16.5q65 0 111.5 -21t76.5 -56t44 -80.5t14 -95.5t-14 -97t-44 -83.5t-76.5 -59t-111.5 -22.5q-56 0 -97.5 16.5t-70.5 44t-46.5 63t-24.5 74.5h-59v-188h-172zM463 157q9 -18 24 -28.5t36 -10.5t35.5 10.5
t23.5 28.5t13 42t4 51t-4 50.5t-13 41.5t-23.5 28t-35.5 10t-35.5 -10t-24 -28t-13.5 -41.5t-4 -50.5t4 -51t13 -42z" />
    <glyph glyph-name="afii10097" unicode="&#x44f;" horiz-adv-x="566" 
d="M32 0v122h37q22 0 35.5 14t18.5 49q-52 28 -71 65.5t-19 79.5q0 30 9.5 59.5t33.5 53t65 38.5t104 15h267v-496h-170v170h-60q-10 -53 -25.5 -86.5t-36 -52t-46.5 -25t-57 -6.5h-85zM342 276v110h-77q-34 0 -46.5 -17.5t-12.5 -38.5q0 -20 12.5 -37t46.5 -17h77z" />
    <glyph glyph-name="afii10071" unicode="&#x451;" horiz-adv-x="541" 
d="M200 211q2 -44 28.5 -68.5t67.5 -24.5q33 0 56.5 12t43.5 37l107 -84q-16 -20 -36.5 -36.5t-47 -29.5t-61 -20t-77.5 -7q-52 0 -97.5 16t-79.5 47.5t-54 79t-20 110.5t19 112t52 82.5t78.5 50.5t98.5 17q54 0 98 -17t75.5 -53t48.5 -91.5t17 -132.5h-317zM353 304
q-2 48 -22 69t-51 21q-32 0 -54.5 -23t-24.5 -67h152zM385 568q-38 0 -59.5 21.5t-21.5 53.5t21.5 54t59.5 22t59.5 -22t21.5 -54t-21.5 -53.5t-59.5 -21.5zM169 568q-38 0 -59.5 21.5t-21.5 53.5t21.5 54t59.5 22t59.5 -22t21.5 -54t-21.5 -53.5t-59.5 -21.5z" />
    <glyph glyph-name="afii10099" unicode="&#x452;" horiz-adv-x="590" 
d="M56 0v511h-61v99h61v58h174v-58h145v-99h-145v-90q21 11 48.5 20t69.5 9q75 0 124 -34t59 -97q5 -21 5.5 -46t0.5 -48v-171q0 -87 -38.5 -151.5t-130.5 -108.5l-77 121q40 20 56.5 47t16.5 78v200q0 38 -14 56t-47 18q-21 0 -41 -8.5t-32 -18.5v-287h-174z" />
    <glyph glyph-name="afii10100" unicode="&#x453;" horiz-adv-x="465" 
d="M54 0v496h389v-138h-217v-358h-172zM155 536l-43 76l223 129l61 -106z" />
    <glyph glyph-name="afii10101" unicode="&#x454;" horiz-adv-x="522" 
d="M204 189q4 -38 30 -57.5t61 -19.5q40 0 65.5 16t45.5 41l99 -81q-37 -45 -88 -71.5t-133 -26.5q-52 0 -98 16t-80 47.5t-54 79.5t-20 113q0 66 20 115t54 81t79 47.5t95 15.5q49 0 86 -11t63 -27t43 -34t26 -33l-106 -74q-20 24 -42 39t-58 15t-59 -20.5t-28 -55.5h137
v-115h-138z" />
    <glyph glyph-name="afii10102" unicode="&#x455;" horiz-adv-x="506" 
d="M120 159q18 -22 51.5 -39.5t77.5 -17.5q13 0 25.5 1t22.5 5t16 10.5t6 17.5q0 19 -17 29.5t-65 21.5q-44 10 -80 23t-61 32t-38.5 45.5t-13.5 62.5q0 37 16.5 66t46 48.5t70 30t88.5 10.5q45 0 79 -6.5t60.5 -17.5t45 -25t31.5 -30l-98 -79q-17 18 -46 32.5t-67 14.5
q-27 0 -44.5 -8t-17.5 -26q0 -9 3 -15.5t13 -12.5t28.5 -11.5t48.5 -12.5q45 -10 79 -23t57.5 -32t35 -45t11.5 -62q0 -42 -18.5 -71.5t-49.5 -48t-72.5 -27.5t-86.5 -9q-90 0 -148.5 26t-86.5 64z" />
    <glyph glyph-name="afii10103" unicode="&#x456;" horiz-adv-x="276" 
d="M69 554q-24 21 -24 55q0 33 24 53.5t69 20.5t69.5 -20.5t24.5 -53.5q0 -34 -24.5 -54.5t-69.5 -20.5t-69 20zM51 0v496h174v-496h-174z" />
    <glyph glyph-name="afii10104" unicode="&#x457;" horiz-adv-x="292" 
d="M61 0v496h174v-496h-174zM257 569q-38 0 -59.5 22t-21.5 54t21.5 54t59.5 22t59 -22t21 -54t-21 -54t-59 -22zM41 569q-38 0 -59.5 22t-21.5 54t21.5 54t59.5 22t59 -22t21 -54t-21 -54t-59 -22z" />
    <glyph glyph-name="afii10105" unicode="&#x458;" horiz-adv-x="279" 
d="M72 553q-24 21 -24 56q0 33 24.5 53.5t69.5 20.5q44 0 68 -20.5t24 -53.5q0 -35 -24 -55.5t-68 -20.5q-45 0 -70 20zM-18 -100q18 13 31.5 24t22.5 23.5t13.5 29t4.5 39.5v480h174v-486q0 -43 -11 -77t-32 -61.5t-50 -49t-65 -39.5z" />
    <glyph glyph-name="afii10106" unicode="&#x459;" horiz-adv-x="841" 
d="M9 0v122h36q25 0 40.5 9t23.5 33q3 8 5.5 23t4.5 41.5t3 66.5t1 98v103h404v-116h57q63 0 106.5 -15t70.5 -40.5t39.5 -59.5t12.5 -72t-12.5 -73t-39.5 -61.5t-70.5 -42.5t-106.5 -16h-226v364h-78v-81q0 -48 -5 -84t-13 -67q-6 -26 -19.5 -49.5t-35 -42t-53 -29.5
t-74.5 -11h-71zM527 117h44q33 0 49.5 21.5t16.5 55.5q0 32 -16.5 52t-49.5 20h-44v-149z" />
    <glyph glyph-name="afii10107" unicode="&#x45a;" horiz-adv-x="839" 
d="M54 0v496h170v-157h115v157h170v-154h93q63 0 104 -14.5t64.5 -38t32.5 -53.5t9 -61q0 -30 -9 -61.5t-32.5 -56.5t-64.5 -41t-104 -16h-263v206h-115v-206h-170zM509 117h72q32 0 45.5 15t13.5 38q0 22 -14 36.5t-44 14.5h-73v-104z" />
    <glyph glyph-name="afii10108" unicode="&#x45b;" horiz-adv-x="582" 
d="M48 0v511h-62v99h62v57h174v-57h145v-99h-145v-88q20 11 50 19t75 8q78 0 119.5 -34.5t55.5 -94.5q5 -18 6 -39t1 -42v-240h-173v242q0 38 -13 55t-46 17q-22 0 -42.5 -9t-32.5 -18v-287h-174z" />
    <glyph glyph-name="afii10109" unicode="&#x45c;" horiz-adv-x="560" 
d="M54 0v496h171v-181q31 0 49.5 26t42.5 70q21 39 51.5 62t84.5 23h70v-132h-32q-24 0 -40 -15t-28 -38q-8 -16 -17 -30t-22 -23l170 -258h-184l-108 181h-37v-181h-171zM191 536l-43 76l223 129l61 -106z" />
    <glyph glyph-name="afii10110" unicode="&#x45e;" horiz-adv-x="568" 
d="M61 -59q16 -8 35 -12t34 -4q16 0 28.5 7.5t20.5 25.5l28 63l-207 475h191l99 -293l97 293h181l-244 -586q-26 -61 -66 -86t-97 -25q-47 0 -81 8.5t-63 21.5zM231 719q5 -33 25 -49t43 -16t42.5 15t24.5 50h126q-1 -41 -17.5 -72.5t-43 -53t-61.5 -33t-74 -11.5
q-41 0 -76 11.5t-60.5 33t-41 53t-17.5 72.5h130z" />
    <glyph glyph-name="afii10193" unicode="&#x45f;" horiz-adv-x="585" 
d="M58 0v496h172v-367h124v367h172v-496h-150v-101h-166v101h-152z" />
    <glyph glyph-name="afii10050" unicode="&#x490;" horiz-adv-x="546" 
d="M63 0v667h288v104h171v-256h-282v-515h-177z" />
    <glyph glyph-name="afii10098" unicode="&#x491;" horiz-adv-x="465" 
d="M54 0v496h234v85h155v-224h-217v-357h-172z" />
    <glyph glyph-name="Wgrave" unicode="&#x1e80;" horiz-adv-x="834" 
d="M163 0l-168 667h180l77 -344l103 344h124l102 -344l79 344h180l-169 -667h-134l-121 385l-119 -385h-134zM275 801l61 106l223 -129l-43 -76z" />
    <glyph glyph-name="wgrave" unicode="&#x1e81;" horiz-adv-x="758" 
d="M169 0l-173 488h178l73 -259l75 259h114l75 -259l72 259h179l-173 -488h-134l-77 256l-76 -256h-133zM237 635l61 106l223 -129l-43 -76z" />
    <glyph glyph-name="Wacute" unicode="&#x1e82;" horiz-adv-x="834" 
d="M163 0l-168 667h180l77 -344l103 344h124l102 -344l79 344h180l-169 -667h-134l-121 385l-119 -385h-134zM339 702l-43 76l223 129l61 -106z" />
    <glyph glyph-name="wacute" unicode="&#x1e83;" horiz-adv-x="758" 
d="M169 0l-173 488h178l73 -259l75 259h114l75 -259l72 259h179l-173 -488h-134l-77 256l-76 -256h-133zM290 536l-43 76l223 129l61 -106z" />
    <glyph glyph-name="Wdieresis" unicode="&#x1e84;" horiz-adv-x="834" 
d="M163 0l-168 667h180l77 -344l103 344h124l102 -344l79 344h180l-169 -667h-134l-121 385l-119 -385h-134zM525 722q-38 0 -59.5 21.5t-21.5 53.5t21.5 54t59.5 22t59.5 -22t21.5 -54t-21.5 -53.5t-59.5 -21.5zM309 722q-38 0 -59.5 21.5t-21.5 53.5t21.5 54t59.5 22
t59.5 -22t21.5 -54t-21.5 -53.5t-59.5 -21.5z" />
    <glyph glyph-name="wdieresis" unicode="&#x1e85;" horiz-adv-x="758" 
d="M169 0l-173 488h178l73 -259l75 259h114l75 -259l72 259h179l-173 -488h-134l-77 256l-76 -256h-133zM487 556q-38 0 -59.5 21.5t-21.5 53.5t21.5 54t59.5 22t59.5 -22t21.5 -54t-21.5 -53.5t-59.5 -21.5zM271 556q-38 0 -59.5 21.5t-21.5 53.5t21.5 54t59.5 22t59.5 -22
t21.5 -54t-21.5 -53.5t-59.5 -21.5z" />
    <glyph glyph-name="Ygrave" unicode="&#x1ef2;" horiz-adv-x="639" 
d="M232 0v260l-237 407h202l126 -235l121 235h200l-233 -407v-260h-179zM177 801l61 106l223 -129l-43 -76z" />
    <glyph glyph-name="ygrave" unicode="&#x1ef3;" horiz-adv-x="559" 
d="M57 -54q14 -8 33 -14t35 -6q19 0 30.5 7t19.5 25l28 63l-207 467h190l99 -285l98 285h180l-244 -578q-26 -61 -70.5 -86t-104.5 -25q-38 0 -70 8t-61 21zM119 635l61 106l223 -129l-43 -76z" />
    <glyph glyph-name="endash" unicode="&#x2013;" horiz-adv-x="500" 
d="M0 196v117h500v-117h-500z" />
    <glyph glyph-name="emdash" unicode="&#x2014;" horiz-adv-x="1000" 
d="M0 196v117h1001v-117h-1001z" />
    <glyph glyph-name="afii00208" unicode="&#x2015;" horiz-adv-x="1000" 
d="M0 196v117h1001v-117h-1001z" />
    <glyph glyph-name="quoteleft" unicode="&#x2018;" horiz-adv-x="246" 
d="M220 399q-50 13 -86 32.5t-59.5 42.5t-35 49t-11.5 52q0 42 25 67.5t66 25.5q45 0 67 -26t22 -61q0 -32 -14.5 -50.5t-31.5 -27.5q11 -11 34.5 -23t45.5 -17z" />
    <glyph glyph-name="quoteright" unicode="&#x2019;" horiz-adv-x="246" 
d="M4 463q22 5 45 17t35 23q-17 9 -31.5 27.5t-14.5 50.5q0 35 22 61t67 26q41 0 66 -25.5t25 -67.5q0 -26 -11.5 -52t-35 -49t-59.5 -42.5t-86 -32.5z" />
    <glyph glyph-name="quotesinglbase" unicode="&#x201a;" horiz-adv-x="246" 
d="M4 -52q22 5 45 17t35 24q-17 8 -31.5 27t-14.5 50q0 35 22 61t67 26q41 0 66 -25t25 -67q0 -52 -46 -101t-146 -75z" />
    <glyph glyph-name="quotedblleft" unicode="&#x201c;" horiz-adv-x="468" 
d="M442 399q-50 13 -86 32.5t-59 42.5t-34.5 49t-11.5 52q0 42 24.5 67.5t65.5 25.5q45 0 67.5 -26t22.5 -61q0 -32 -14.5 -50.5t-31.5 -27.5q11 -11 34 -23t45 -17zM220 399q-50 13 -86 32.5t-59.5 42.5t-35 49t-11.5 52q0 42 25 67.5t66 25.5q45 0 67 -26t22 -61
q0 -32 -14.5 -50.5t-31.5 -27.5q11 -11 34.5 -23t45.5 -17z" />
    <glyph glyph-name="quotedblright" unicode="&#x201d;" horiz-adv-x="468" 
d="M227 463q22 5 45 17t34 23q-17 9 -31.5 27.5t-14.5 50.5q0 35 22.5 61t67.5 26q41 0 65.5 -25.5t24.5 -67.5q0 -26 -11.5 -52t-34.5 -49t-59.5 -42.5t-85.5 -32.5zM4 463q22 5 45 17t35 23q-17 9 -31.5 27.5t-14.5 50.5q0 35 22 61t67 26q41 0 66 -25.5t25 -67.5
q0 -26 -11.5 -52t-35 -49t-59.5 -42.5t-86 -32.5z" />
    <glyph glyph-name="quotedblbase" unicode="&#x201e;" horiz-adv-x="468" 
d="M227 -52q22 5 45 17t34 24q-17 8 -31.5 27t-14.5 50q0 35 22.5 61t67.5 26q41 0 65.5 -25t24.5 -67q0 -26 -11.5 -52t-34.5 -49t-59.5 -42.5t-85.5 -32.5zM4 -52q22 5 45 17t35 24q-17 8 -31.5 27t-14.5 50q0 35 22 61t67 26q41 0 66 -25t25 -67q0 -52 -46 -101t-146 -75
z" />
    <glyph glyph-name="dagger" unicode="&#x2020;" horiz-adv-x="503" 
d="M172 -146v468h-142v145h142v200h166v-200h140v-145h-140v-468h-166z" />
    <glyph glyph-name="daggerdbl" unicode="&#x2021;" horiz-adv-x="510" 
d="M172 -146v184h-142v142h142v160h-142v145h142v182h167v-182h140v-145h-140v-160h141v-142h-141v-184h-167z" />
    <glyph glyph-name="bullet" unicode="&#x2022;" horiz-adv-x="514" 
d="M177 195q-38 17 -66 45t-44.5 65.5t-16.5 79.5t16.5 79.5t44.5 65.5t66 44.5t80 16.5t80 -16.5t66 -44.5t44.5 -65.5t16.5 -79.5t-16.5 -79.5t-44.5 -65.5t-66 -44.5t-80 -16.5t-80 16z" />
    <glyph glyph-name="ellipsis" unicode="&#x2026;" horiz-adv-x="767" 
d="M581 13q-24 23 -24 58q0 36 24 59.5t66 23.5t66 -23.5t24 -59.5q0 -35 -24 -58t-66 -23t-66 23zM318 13q-24 23 -24 58q0 36 24 59.5t66 23.5t66 -23.5t24 -59.5q0 -35 -24 -58t-66 -23t-66 23zM55 13q-24 23 -24 58q0 36 24 59.5t66 23.5t66 -23.5t24 -59.5
q0 -35 -24 -58t-66 -23t-66 23z" />
    <glyph glyph-name="perthousand" unicode="&#x2030;" horiz-adv-x="1186" 
d="M864 40q-23 23 -34.5 53t-11.5 62t11.5 61.5t34.5 52.5t56 37t77 14q43 0 76.5 -13.5t56 -36.5t34 -53t11.5 -62t-11.5 -62t-34 -52.5t-56 -36t-76.5 -13.5q-44 0 -77 13.5t-56 35.5zM529 4q-33 14 -55.5 36.5t-34 52.5t-11.5 62t11.5 61.5t34 52.5t55.5 37t77 14
q43 0 76.5 -13.5t56.5 -36.5t34.5 -53t11.5 -62t-11.5 -62t-34.5 -52.5t-56.5 -36t-76.5 -13.5q-44 0 -77 13zM57 395q-23 23 -34.5 53t-11.5 62t11.5 62t34.5 53t56 36.5t77 13.5q43 0 76.5 -13.5t56 -36.5t34 -53t11.5 -62t-11.5 -62t-34 -52.5t-56 -36t-76.5 -13.5
q-44 0 -77 13.5t-56 35.5zM959 109q14 -17 37 -17t37.5 17.5t14.5 46.5t-14.5 47t-37.5 18t-37 -18t-14 -47t14 -47zM569 109q14 -17 37 -17t37 17.5t14 46.5t-14 47t-37 18t-37 -18t-14 -47t14 -47zM152 464q14 -17 37 -17t37.5 17.5t14.5 47.5q0 29 -14.5 46.5t-37.5 17.5
t-37 -17.5t-14 -46.5q0 -30 14 -48zM105 -13l-79 83l666 611l82 -80z" />
    <glyph glyph-name="guilsinglleft" unicode="&#x2039;" horiz-adv-x="332" 
d="M213 26l-203 224l180 229l111 -83l-114 -139l127 -136z" />
    <glyph glyph-name="guilsinglright" unicode="&#x203a;" horiz-adv-x="332" 
d="M18 123l127 136l-114 139l111 83l180 -229l-203 -224z" />
    <glyph glyph-name="fraction" unicode="&#x2044;" horiz-adv-x="244" 
d="M-173 -16l-79 82l666 611l81 -80z" />
    <glyph glyph-name="zerosuperior" unicode="&#x2070;" 
d="M172 324q-75 0 -113 48.5t-38 126.5q0 38 9.5 70t28 55.5t47 36.5t66.5 13t66.5 -13.5t47.5 -36.5t28.5 -55.5t9.5 -69.5q0 -39 -9.5 -71t-29 -55t-48 -36t-65.5 -13zM138 436q11 -24 34 -24t34 24t11 64q0 41 -11 63.5t-34 22.5t-34 -24t-11 -62q0 -40 11 -64z" />
    <glyph glyph-name="foursuperior" unicode="&#x2074;" 
d="M11 395v84l165 188h118v-193h40v-79h-40v-65h-126v65h-157zM96 474h72v86z" />
    <glyph glyph-name="fivesuperior" unicode="&#x2075;" 
d="M50 477v186h244v-83h-139v-30q35 0 65.5 -5t53 -17.5t35.5 -33t13 -51.5q0 -30 -12.5 -52.5t-33.5 -37t-48 -22t-57 -7.5q-52 0 -92.5 16.5t-57.5 45.5l83 59q9 -14 25 -24t36 -10q40 0 40 32q0 34 -92 34h-63z" />
    <glyph glyph-name="sixsuperior" unicode="&#x2076;" 
d="M153 545q11 5 26 8.5t35 3.5q51 0 81.5 -30.5t30.5 -78.5q0 -55 -41 -89.5t-111 -34.5q-39 0 -68.5 11t-49 30.5t-29.5 46t-10 56.5q0 53 24.5 92.5t69.5 67.5q29 18 68 29.5t79 14.5l23 -75q-40 -6 -74 -18.5t-54 -32.5v-1zM152 484q-8 -2 -16 -7q-2 -10 -2 -22
q0 -22 9.5 -36t30.5 -14q17 0 28 11t11 29q0 17 -10.5 29t-29.5 12q-12 0 -21 -2z" />
    <glyph glyph-name="sevensuperior" unicode="&#x2077;" 
d="M65 330l123 250h-143v84h275v-69l-131 -265h-124z" />
    <glyph glyph-name="eightsuperior" unicode="&#x2078;" 
d="M33 473q13 19 39 32q-20 12 -32.5 29t-12.5 46q0 42 36.5 67.5t109.5 25.5q72 0 109 -25.5t37 -66.5q0 -30 -12.5 -46.5t-32.5 -29.5q24 -12 37.5 -31.5t13.5 -45.5q0 -47 -38 -75t-114 -28q-78 0 -115.5 28t-37.5 74q0 28 13 46zM135 433q0 -15 10.5 -23t27.5 -8t27 8
t10 23q0 16 -10.5 24.5t-27.5 8.5q-16 0 -26.5 -9t-10.5 -24zM140 571q0 -14 9 -21.5t23 -7.5q34 0 34 29q0 14 -9 21.5t-24 7.5q-14 0 -23.5 -7.5t-9.5 -21.5z" />
    <glyph glyph-name="ninesuperior" unicode="&#x2079;" 
d="M60 397q39 8 75.5 20t54.5 32l-1 1q-10 -5 -22.5 -7.5t-29.5 -2.5q-51 0 -85 31t-34 81q0 52 40 86.5t112 34.5q39 0 68 -11t48.5 -30.5t29.5 -45.5t10 -56q0 -92 -67 -145q-30 -25 -78.5 -42t-99.5 -23zM175 512q20 0 34 7q1 5 1.5 10.5t0.5 11.5q0 20 -9 35t-32 15
q-17 0 -26.5 -10.5t-9.5 -27.5q0 -19 10.5 -30t30.5 -11z" />
    <glyph glyph-name="zeroinferior" unicode="&#x2080;" 
d="M172 -4q-75 0 -113 48.5t-38 126.5q0 38 9.5 70t28 55.5t47 36.5t66.5 13t66.5 -13.5t47.5 -36.5t28.5 -55.5t9.5 -69.5q0 -39 -9.5 -71t-29 -55t-48 -36t-65.5 -13zM138 108q11 -24 34 -24t34 24t11 64q0 41 -11 63.5t-34 22.5t-34 -24t-11 -62q0 -40 11 -64z" />
    <glyph glyph-name="oneinferior" unicode="&#x2081;" 
d="M144 2v214l-65 -34l-44 81l138 73h97v-334h-126z" />
    <glyph glyph-name="twoinferior" unicode="&#x2082;" 
d="M36 2v59q37 31 72.5 59t64.5 56q14 14 21 25t7 25q0 29 -30 29t-54 -47l-99 43q23 42 65.5 68.5t102.5 26.5q28 0 53.5 -7.5t44 -21.5t29.5 -34t11 -44t-10 -45t-25.5 -39t-35.5 -33.5t-40 -29.5h113v-90h-290z" />
    <glyph glyph-name="threeinferior" unicode="&#x2083;" 
d="M106 121q12 -20 27.5 -28t33.5 -8q42 0 42 28q0 11 -11 19t-51 9v66q38 2 47 9.5t9 17.5q0 23 -35 23q-14 0 -29 -7.5t-27 -26.5l-86 49q28 37 65 55.5t94 18.5q60 0 98 -24t38 -69q0 -32 -15.5 -49t-35.5 -26q22 -7 39.5 -25t17.5 -51q0 -26 -11.5 -46t-31.5 -33.5
t-47.5 -20t-59.5 -6.5q-54 0 -93.5 18t-65.5 57z" />
    <glyph glyph-name="fourinferior" unicode="&#x2084;" 
d="M11 67v84l165 188h118v-193h40v-79h-40v-65h-126v65h-157zM96 146h72v86z" />
    <glyph glyph-name="fiveinferior" unicode="&#x2085;" 
d="M51 149v186h244v-83h-139v-30q35 0 65.5 -5t53 -17.5t35.5 -33t13 -51.5q0 -30 -12.5 -52.5t-33.5 -37t-48 -22t-57 -7.5q-52 0 -92.5 16.5t-57.5 45.5l83 59q9 -14 25 -24t36 -10q40 0 40 32q0 34 -92 34h-63z" />
    <glyph glyph-name="sixinferior" unicode="&#x2086;" 
d="M154 217q11 5 26 8.5t35 3.5q51 0 81.5 -30.5t30.5 -78.5q0 -55 -41 -89.5t-111 -34.5q-39 0 -68.5 11t-49 30.5t-29.5 46t-10 56.5q0 53 24.5 92.5t69.5 67.5q29 18 68 29.5t79 14.5l23 -75q-40 -6 -74 -18.5t-54 -32.5v-1zM153 156q-8 -2 -16 -7q-2 -10 -2 -22
q0 -22 9.5 -36t30.5 -14q17 0 28 11t11 29q0 17 -10.5 29t-29.5 12q-12 0 -21 -2z" />
    <glyph glyph-name="seveninferior" unicode="&#x2087;" 
d="M57 2l123 250h-143v84h275v-69l-131 -265h-124z" />
    <glyph glyph-name="eightinferior" unicode="&#x2088;" 
d="M33 145q13 19 39 32q-20 12 -32.5 29t-12.5 46q0 42 36.5 67.5t109.5 25.5q72 0 109 -25.5t37 -66.5q0 -30 -12.5 -46.5t-32.5 -29.5q24 -12 37.5 -31.5t13.5 -45.5q0 -47 -38 -75t-114 -28q-78 0 -115.5 28t-37.5 74q0 28 13 46zM135 105q0 -15 10.5 -23t27.5 -8t27 8
t10 23q0 16 -10.5 24.5t-27.5 8.5q-16 0 -26.5 -9t-10.5 -24zM140 243q0 -14 9 -21.5t23 -7.5q34 0 34 29q0 14 -9 21.5t-24 7.5q-14 0 -23.5 -7.5t-9.5 -21.5z" />
    <glyph glyph-name="nineinferior" unicode="&#x2089;" 
d="M60 69q39 8 75.5 20t54.5 32l-1 1q-10 -5 -22.5 -7.5t-29.5 -2.5q-51 0 -85 31t-34 81q0 52 40 86.5t112 34.5q39 0 68 -11t48.5 -30.5t29.5 -45.5t10 -56q0 -92 -67 -145q-30 -25 -78.5 -42t-99.5 -23zM175 184q20 0 34 7q1 5 1.5 10.5t0.5 11.5q0 20 -9 35t-32 15
q-17 0 -26.5 -10.5t-9.5 -27.5q0 -19 10.5 -30t30.5 -11z" />
    <glyph glyph-name="Euro" unicode="&#x20ac;" horiz-adv-x="573" 
d="M10 269v133h53q4 56 22 105.5t51 86.5t81 58.5t111 21.5q97 0 151 -38.5t82 -116.5l-145 -55q-14 37 -31.5 53t-47.5 16q-38 0 -59.5 -35.5t-25.5 -95.5h127v-133h-128q3 -66 26 -102t61 -36q29 0 47.5 16t35.5 52l141 -64q-13 -32 -33 -59t-48 -46.5t-65 -30t-85 -10.5
q-67 0 -116 21.5t-82 59.5t-50.5 89t-20.5 110h-52z" />
    <glyph glyph-name="afii61289" unicode="&#x2113;" horiz-adv-x="456" 
d="M180 289q54 60 85.5 123.5t31.5 132.5q0 48 -16 67.5t-38 19.5q-26 0 -44.5 -33t-18.5 -109v-201zM180 190q0 -41 6 -66.5t16.5 -39.5t25 -19.5t31.5 -5.5q32 0 61.5 16.5t45.5 39.5l19.5 -19.5t20.5 -18.5q-27 -40 -65.5 -63t-90.5 -23q-70 0 -108 39.5t-38 127.5
q-13 -10 -24.5 -18t-24.5 -17q-5 11 -11.5 22t-13.5 22q19 13 37 27.5t36 30.5v212q0 71 9.5 119.5t28 78t45 42.5t61.5 13q51 0 84 -37.5t33 -106.5q0 -91 -48 -172.5t-136 -163.5v-20z" />
    <glyph glyph-name="afii61352" unicode="&#x2116;" horiz-adv-x="1126" 
d="M67 0v668h173q55 -88 110 -174t110 -174v348h176v-668h-154l-240 372v-372h-175zM742 310q-28 27 -44.5 65t-16.5 87q0 50 17.5 88.5t47 64.5t67.5 39.5t80 13.5q54 0 94 -18t66.5 -47t39 -66t12.5 -75t-12.5 -74.5t-39 -65.5t-66.5 -47t-94 -18q-44 0 -83 13.5t-68 39.5
zM854 395q16 -23 39 -23t38 23.5t15 66.5q0 44 -15 67.5t-38 23.5t-38.5 -23.5t-15.5 -67.5q0 -43 15 -67z" />
    <glyph glyph-name="trademark" unicode="&#x2122;" horiz-adv-x="641" 
d="M293 380v287h94l64 -144l59 144h93v-287h-77v163l-67 -165h-15l-74 162v-160h-77zM97 380v208h-78v79h237v-79h-78v-208h-81z" />
    <glyph glyph-name="uni2126" unicode="&#x2126;" horiz-adv-x="733" 
d="M49 0v154h87q-18 15 -35.5 38.5t-31 52.5t-21.5 63.5t-8 71.5q0 69 24 124.5t67.5 94.5t104 60t132.5 21q73 0 133 -21t102.5 -60t66 -94t23.5 -123q0 -37 -9 -72t-23 -65t-32 -53.5t-36 -37.5h91v-154h-268v140q15 12 31.5 29.5t30.5 42.5t23 59t9 80q0 93 -39.5 136.5
t-103.5 43.5q-65 0 -104.5 -43.5t-39.5 -136.5q0 -45 9.5 -79t23.5 -59.5t30.5 -43t30.5 -29.5v-140h-268z" />
    <glyph glyph-name="estimated" unicode="&#x212e;" horiz-adv-x="647" 
d="M137 118q0 -10 4 -18.5t10 -15.5q0 -2 2 -2q33 -32 76 -49t92 -17q57 0 104.5 23t82.5 63h42q-39 -47 -98.5 -74.5t-130.5 -27.5q-60 0 -113 20.5t-93 56t-63 83.5t-23 102t23 101.5t63 83t93 56t113 20.5q61 0 114.5 -21t92.5 -57.5t61.5 -85.5t22.5 -104h-469
q-6 0 -6 -8v-129zM137 275q0 -7 6 -7h354q7 0 7 7v131q0 9 -3.5 18t-8.5 16q-35 34 -79 51.5t-92 17.5q-99 0 -170 -69q-6 -7 -10 -16t-4 -18v-131z" />
    <glyph glyph-name="onethird" unicode="&#x2153;" horiz-adv-x="890" 
d="M137 330v214l-65 -34l-44 81l138 73h97v-334h-126zM140 -16l-79 82l666 611l81 -80zM623 113q12 -20 27.5 -28t33.5 -8q42 0 42 28q0 11 -11 19t-51 9v66q38 2 47 9.5t9 17.5q0 23 -35 23q-14 0 -29 -7.5t-27 -26.5l-86 49q28 37 65 55.5t94 18.5q60 0 98 -24t38 -69
q0 -32 -15.5 -49t-35.5 -26q22 -7 39.5 -25t17.5 -51q0 -26 -11.5 -46t-31.5 -33.5t-47.5 -20t-59.5 -6.5q-54 0 -93.5 18t-65.5 57z" />
    <glyph glyph-name="twothirds" unicode="&#x2154;" horiz-adv-x="890" 
d="M167 -16l-79 82l666 611l81 -80zM650 113q12 -20 27.5 -28t33.5 -8q42 0 42 28q0 11 -11 19t-51 9v66q38 2 47 9.5t9 17.5q0 23 -35 23q-14 0 -29 -7.5t-27 -26.5l-86 49q28 37 65 55.5t94 18.5q60 0 98 -24t38 -69q0 -32 -15.5 -49t-35.5 -26q22 -7 39.5 -25t17.5 -51
q0 -26 -11.5 -46t-31.5 -33.5t-47.5 -20t-59.5 -6.5q-54 0 -93.5 18t-65.5 57zM36 330v59q37 31 72.5 59t64.5 56q14 14 21 25t7 25q0 29 -30 29t-54 -47l-99 43q23 42 65.5 68.5t102.5 26.5q28 0 53.5 -7.5t44 -21.5t29.5 -34t11 -44t-10 -45t-25.5 -39t-35.5 -33.5
t-40 -29.5h113v-90h-290z" />
    <glyph glyph-name="onefifth" unicode="&#x2155;" horiz-adv-x="890" 
d="M142 -16l-79 82l666 611l81 -80zM594 149v186h244v-83h-139v-30q35 0 65.5 -5t53 -17.5t35.5 -33t13 -51.5q0 -30 -12.5 -52.5t-33.5 -37t-48 -22t-57 -7.5q-52 0 -92.5 16.5t-57.5 45.5l83 59q9 -14 25 -24t36 -10q40 0 40 32q0 34 -92 34h-63zM134 331v214l-65 -34
l-44 81l138 73h97v-334h-126z" />
    <glyph glyph-name="twofifths" unicode="&#x2156;" horiz-adv-x="890" 
d="M165 -16l-79 82l666 611l81 -80zM34 330v59q37 31 72.5 59t64.5 56q14 14 21 25t7 25q0 29 -30 29t-54 -47l-99 43q23 42 65.5 68.5t102.5 26.5q28 0 53.5 -7.5t44 -21.5t29.5 -34t11 -44t-10 -45t-25.5 -39t-35.5 -33.5t-40 -29.5h113v-90h-290zM602 149v186h244v-83
h-139v-30q35 0 65.5 -5t53 -17.5t35.5 -33t13 -51.5q0 -30 -12.5 -52.5t-33.5 -37t-48 -22t-57 -7.5q-52 0 -92.5 16.5t-57.5 45.5l83 59q9 -14 25 -24t36 -10q40 0 40 32q0 34 -92 34h-63z" />
    <glyph glyph-name="threefifths" unicode="&#x2157;" horiz-adv-x="890" 
d="M145 -16l-79 82l666 611l81 -80zM590 149v186h244v-83h-139v-30q35 0 65.5 -5t53 -17.5t35.5 -33t13 -51.5q0 -30 -12.5 -52.5t-33.5 -37t-48 -22t-57 -7.5q-52 0 -92.5 16.5t-57.5 45.5l83 59q9 -14 25 -24t36 -10q40 0 40 32q0 34 -92 34h-63zM116 449q12 -20 27.5 -28
t33.5 -8q42 0 42 28q0 11 -11 19t-51 9v66q38 2 47 9.5t9 17.5q0 23 -35 23q-14 0 -29 -7.5t-27 -26.5l-86 49q28 37 65 55.5t94 18.5q60 0 98 -24t38 -69q0 -32 -15.5 -49t-35.5 -26q22 -7 39.5 -25t17.5 -51q0 -26 -11.5 -46t-31.5 -33.5t-47.5 -20t-59.5 -6.5
q-54 0 -93.5 18t-65.5 57z" />
    <glyph glyph-name="fourfifths" unicode="&#x2158;" horiz-adv-x="890" 
d="M156 -16l-79 82l666 611l81 -80zM596 149v186h244v-83h-139v-30q35 0 65.5 -5t53 -17.5t35.5 -33t13 -51.5q0 -30 -12.5 -52.5t-33.5 -37t-48 -22t-57 -7.5q-52 0 -92.5 16.5t-57.5 45.5l83 59q9 -14 25 -24t36 -10q40 0 40 32q0 34 -92 34h-63zM21 395v84l165 188h118
v-193h40v-79h-40v-65h-126v65h-157zM106 474h72v86z" />
    <glyph glyph-name="onesixth" unicode="&#x2159;" horiz-adv-x="890" 
d="M178 -16l-79 82l666 611l81 -80zM676 214q11 5 26 8.5t35 3.5q51 0 81.5 -30.5t30.5 -78.5q0 -55 -41 -89.5t-111 -34.5q-39 0 -68.5 11t-49 30.5t-29.5 46t-10 56.5q0 53 24.5 92.5t69.5 67.5q29 18 68 29.5t79 14.5l23 -75q-40 -6 -74 -18.5t-54 -32.5v-1zM675 153
q-8 -2 -16 -7q-2 -10 -2 -22q0 -22 9.5 -36t30.5 -14q17 0 28 11t11 29q0 17 -10.5 29t-29.5 12q-12 0 -21 -2zM149 330v214l-65 -34l-44 81l138 73h97v-334h-126z" />
    <glyph glyph-name="fivesixths" unicode="&#x215a;" horiz-adv-x="890" 
d="M167 -16l-79 82l666 611l81 -80zM71 477v186h244v-83h-139v-30q35 0 65.5 -5t53 -17.5t35.5 -33t13 -51.5q0 -30 -12.5 -52.5t-33.5 -37t-48 -22t-57 -7.5q-52 0 -92.5 16.5t-57.5 45.5l83 59q9 -14 25 -24t36 -10q40 0 40 32q0 34 -92 34h-63zM674 214q11 5 26 8.5
t35 3.5q51 0 81.5 -30.5t30.5 -78.5q0 -55 -41 -89.5t-111 -34.5q-39 0 -68.5 11t-49 30.5t-29.5 46t-10 56.5q0 53 24.5 92.5t69.5 67.5q29 18 68 29.5t79 14.5l23 -75q-40 -6 -74 -18.5t-54 -32.5v-1zM673 153q-8 -2 -16 -7q-2 -10 -2 -22q0 -22 9.5 -36t30.5 -14
q17 0 28 11t11 29q0 17 -10.5 29t-29.5 12q-12 0 -21 -2z" />
    <glyph glyph-name="oneeighth" unicode="&#x215b;" horiz-adv-x="890" 
d="M133 330v214l-65 -34l-44 81l138 73h97v-334h-126zM134 -16l-79 82l666 611l81 -80zM554 137q13 19 39 32q-20 12 -32.5 29t-12.5 46q0 42 36.5 67.5t109.5 25.5q72 0 109 -25.5t37 -66.5q0 -30 -12.5 -46.5t-32.5 -29.5q24 -12 37.5 -31.5t13.5 -45.5q0 -47 -38 -75
t-114 -28q-78 0 -115.5 28t-37.5 74q0 28 13 46zM656 97q0 -15 10.5 -23t27.5 -8t27 8t10 23q0 16 -10.5 24.5t-27.5 8.5q-16 0 -26.5 -9t-10.5 -24zM661 235q0 -14 9 -21.5t23 -7.5q34 0 34 29q0 14 -9 21.5t-24 7.5q-14 0 -23.5 -7.5t-9.5 -21.5z" />
    <glyph glyph-name="threeeighths" unicode="&#x215c;" horiz-adv-x="890" 
d="M145 -16l-79 82l666 611l81 -80zM566 137q13 19 39 32q-20 12 -32.5 29t-12.5 46q0 42 36.5 67.5t109.5 25.5q72 0 109 -25.5t37 -66.5q0 -30 -12.5 -46.5t-32.5 -29.5q24 -12 37.5 -31.5t13.5 -45.5q0 -47 -38 -75t-114 -28q-78 0 -115.5 28t-37.5 74q0 28 13 46z
M668 97q0 -15 10.5 -23t27.5 -8t27 8t10 23q0 16 -10.5 24.5t-27.5 8.5q-16 0 -26.5 -9t-10.5 -24zM673 235q0 -14 9 -21.5t23 -7.5q34 0 34 29q0 14 -9 21.5t-24 7.5q-14 0 -23.5 -7.5t-9.5 -21.5zM110 449q12 -20 27.5 -28t33.5 -8q42 0 42 28q0 11 -11 19t-51 9v66
q38 2 47 9.5t9 17.5q0 23 -35 23q-14 0 -29 -7.5t-27 -26.5l-86 49q28 37 65 55.5t94 18.5q60 0 98 -24t38 -69q0 -32 -15.5 -49t-35.5 -26q22 -7 39.5 -25t17.5 -51q0 -26 -11.5 -46t-31.5 -33.5t-47.5 -20t-59.5 -6.5q-54 0 -93.5 18t-65.5 57z" />
    <glyph glyph-name="fiveeighths" unicode="&#x215d;" horiz-adv-x="890" 
d="M147 -16l-79 82l666 611l81 -80zM560 137q13 19 39 32q-20 12 -32.5 29t-12.5 46q0 42 36.5 67.5t109.5 25.5q72 0 109 -25.5t37 -66.5q0 -30 -12.5 -46.5t-32.5 -29.5q24 -12 37.5 -31.5t13.5 -45.5q0 -47 -38 -75t-114 -28q-78 0 -115.5 28t-37.5 74q0 28 13 46z
M662 97q0 -15 10.5 -23t27.5 -8t27 8t10 23q0 16 -10.5 24.5t-27.5 8.5q-16 0 -26.5 -9t-10.5 -24zM667 235q0 -14 9 -21.5t23 -7.5q34 0 34 29q0 14 -9 21.5t-24 7.5q-14 0 -23.5 -7.5t-9.5 -21.5zM67 477v186h244v-83h-139v-30q35 0 65.5 -5t53 -17.5t35.5 -33t13 -51.5
q0 -30 -12.5 -52.5t-33.5 -37t-48 -22t-57 -7.5q-52 0 -92.5 16.5t-57.5 45.5l83 59q9 -14 25 -24t36 -10q40 0 40 32q0 34 -92 34h-63z" />
    <glyph glyph-name="seveneighths" unicode="&#x215e;" horiz-adv-x="890" 
d="M113 -16l-79 82l666 611l81 -80zM551 137q13 19 39 32q-20 12 -32.5 29t-12.5 46q0 42 36.5 67.5t109.5 25.5q72 0 109 -25.5t37 -66.5q0 -30 -12.5 -46.5t-32.5 -29.5q24 -12 37.5 -31.5t13.5 -45.5q0 -47 -38 -75t-114 -28q-78 0 -115.5 28t-37.5 74q0 28 13 46z
M653 97q0 -15 10.5 -23t27.5 -8t27 8t10 23q0 16 -10.5 24.5t-27.5 8.5q-16 0 -26.5 -9t-10.5 -24zM658 235q0 -14 9 -21.5t23 -7.5q34 0 34 29q0 14 -9 21.5t-24 7.5q-14 0 -23.5 -7.5t-9.5 -21.5zM74 330l123 250h-143v84h275v-69l-131 -265h-124z" />
    <glyph glyph-name="partialdiff" unicode="&#x2202;" horiz-adv-x="586" 
d="M125 678q86 -8 168.5 -36.5t144.5 -83.5q54 -48 84.5 -117.5t30.5 -171.5q0 -61 -18.5 -112t-52.5 -88t-82 -58t-108 -21q-57 0 -104 16.5t-80.5 47.5t-52 76t-18.5 102q0 52 17 96.5t48.5 77t74.5 50.5t96 18q27 0 57 -6q-16 18 -41 33.5t-55.5 28t-64.5 21t-68 13.5z
M373 306q-4 22 -10 39q-10 3 -20 4t-21 1q-49 0 -80.5 -28t-31.5 -90q0 -58 22 -86t60 -28q41 0 63.5 36t22.5 105q0 25 -5 47z" />
    <glyph glyph-name="Delta" unicode="&#x2206;" horiz-adv-x="673" 
d="M8 0l34 121l213 546h161q54 -137 107.5 -273t107.5 -273q8 -31 16.5 -61t17.5 -60h-657zM217 136h234q-29 85 -59 168t-59 168z" />
    <glyph glyph-name="product" unicode="&#x220f;" horiz-adv-x="700" 
d="M89 -125v637h-68v156h658v-156h-68v-637h-179v637h-164v-637h-179z" />
    <glyph glyph-name="summation" unicode="&#x2211;" horiz-adv-x="548" 
d="M39 -125v144l178 244l-179 260v145h484v-154h-268l170 -251l-171 -234h276v-154h-490z" />
    <glyph glyph-name="minus" unicode="&#x2212;" horiz-adv-x="574" 
d="M35 262v138h504v-138h-504z" />
    <glyph glyph-name="uni2215" unicode="&#x2215;" horiz-adv-x="534" 
d="M0 29l408 738l126 -65l-407 -739z" />
    <glyph glyph-name="uni2219" unicode="&#x2219;" horiz-adv-x="319" 
d="M164 281q-42 0 -66 25.5t-24 61.5t24 62t66 26t66 -26t24 -62t-24 -61.5t-66 -25.5z" />
    <glyph glyph-name="radical" unicode="&#x221a;" horiz-adv-x="573" 
d="M234 0l-134 248h-81v135h163l84 -155l168 522l136 -40l-234 -710h-102z" />
    <glyph glyph-name="infinity" unicode="&#x221e;" horiz-adv-x="618" 
d="M343 242q-17 21 -34 54q-15 -33 -32 -53.5t-35 -32t-35.5 -15.5t-34.5 -4q-37 0 -63.5 14t-44 37t-26 53.5t-8.5 63.5q0 83 39.5 125.5t102.5 42.5q21 0 39.5 -4.5t35 -16t32 -32t30.5 -53.5q14 30 28.5 50.5t31.5 32.5t36.5 17t43.5 5q61 0 100 -43.5t39 -123.5
q0 -29 -7.5 -59t-24 -54t-43 -39.5t-64.5 -15.5q-19 0 -37 4t-35 15.5t-34 31.5zM410 402q-12 -17 -23 -43q11 -24 23.5 -42t31.5 -18q12 0 20 6t12.5 15.5t6.5 20t2 19.5q0 29 -12 44.5t-30 15.5q-19 0 -31 -18zM146 315q12 -16 32 -16q11 0 19.5 6.5t15 15.5t11.5 19.5
t8 18.5q-14 30 -25.5 45t-28.5 15q-23 0 -33 -19.5t-10 -40.5q0 -28 11 -44z" />
    <glyph glyph-name="integral" unicode="&#x222b;" horiz-adv-x="449" 
d="M24 -55q58 4 84 27t26 77v392q0 117 72.5 174t218.5 60v-135q-29 -2 -50 -8.5t-34.5 -18.5t-19.5 -31t-6 -46v-392q0 -117 -72.5 -174t-218.5 -59v134z" />
    <glyph glyph-name="approxequal" unicode="&#x2248;" horiz-adv-x="573" 
d="M17 243q29 20 68.5 37t79.5 17q30 0 62 -6.5t64 -14.5q29 -7 58 -12.5t60 -5.5h6.5t6.5 2q20 2 40 10.5t37 20.5q17 -29 32.5 -58.5t31.5 -58.5q-13 -11 -30 -21t-36.5 -17.5t-40.5 -12.5t-41 -5h-8.5t-8.5 1q-26 1 -54 6t-54 12q-32 8 -60 14t-55 6q-24 0 -47.5 -9
t-46.5 -23zM127 376q-23 -9 -46 -23q-16 30 -31.5 59t-32.5 59q29 20 68.5 37t79.5 17q30 0 61.5 -6.5t64.5 -14.5q29 -7 58 -12.5t60 -5.5q5 0 13 2q20 2 40 11t37 20q17 -29 32.5 -58.5t31.5 -58.5q-13 -11 -30 -21t-36.5 -17.5t-40.5 -12.5t-41 -5h-8.5t-8.5 1
q-26 2 -54 7t-54 11q-32 8 -60 14.5t-55 6.5q-24 0 -48 -10z" />
    <glyph glyph-name="notequal" unicode="&#x2260;" horiz-adv-x="573" 
d="M60 91l32 49h-58v137h146l64 91h-210v137h298l75 114l104 -65l-31 -49h59v-137h-149l-63 -91h212v-137h-302l-73 -113z" />
    <glyph glyph-name="lessequal" unicode="&#x2264;" horiz-adv-x="573" 
d="M34 0v137h505v-137h-505zM26 310v128l478 155l46 -138l-293 -80l299 -84l-42 -140z" />
    <glyph glyph-name="greaterequal" unicode="&#x2265;" horiz-adv-x="573" 
d="M34 0v137h504v-137h-504zM58 151l-42 140l299 84l-293 80l46 138l478 -155v-128z" />
    <glyph glyph-name="lozenge" unicode="&#x25ca;" horiz-adv-x="532" 
d="M265 -16l-210 373l210 363l212 -363zM267 195l84 160l-86 151l-84 -150z" />
    <glyph glyph-name="fi" unicode="&#xf001;" horiz-adv-x="618" 
d="M393 0v488h174v-488h-174zM78 0v366h-67v122h67v16q0 42 16 75t45 55.5t70 34t91 11.5q70 0 110.5 -11t65.5 -25l-54 -112q-18 11 -41.5 18t-54.5 7q-34 0 -54.5 -14.5t-20.5 -45.5v-9h88v-122h-87v-366h-174z" />
    <glyph glyph-name="fl" unicode="&#xf002;" horiz-adv-x="618" 
d="M78 0v366h-67v122h67v15q0 46 20.5 79t56.5 55t85.5 32.5t106.5 10.5q31 0 63 -2.5t61 -6t53.5 -8t42.5 -8.5v-655h-174v552q-10 2 -27 2.5t-28 0.5q-41 0 -64 -14t-23 -41v-12h84v-122h-83v-366h-174z" />
    <glyph glyph-name="oneseventh" unicode="&#xf506;" horiz-adv-x="890" 
d="M136 -16l-79 82l666 611l81 -80zM602 2l123 250h-143v84h275v-69l-131 -265h-124zM125 330v214l-65 -34l-44 81l138 73h97v-334h-126z" />
    <glyph glyph-name="twosevenths" unicode="&#xf507;" horiz-adv-x="890" 
d="M171 -16l-79 82l666 611l81 -80zM59 330v59q37 31 72.5 59t64.5 56q14 14 21 25t7 25q0 29 -30 29t-54 -47l-99 43q23 42 65.5 68.5t102.5 26.5q28 0 53.5 -7.5t44 -21.5t29.5 -34t11 -44t-10 -45t-25.5 -39t-35.5 -33.5t-40 -29.5h113v-90h-290zM594 -6l123 250h-143v84
h275v-69l-131 -265h-124z" />
    <glyph glyph-name="threesevenths" unicode="&#xf508;" horiz-adv-x="890" 
d="M149 -16l-79 82l666 611l81 -80zM603 2l123 250h-143v84h275v-69l-131 -265h-124zM119 449q12 -20 27.5 -28t33.5 -8q42 0 42 28q0 11 -11 19t-51 9v66q38 2 47 9.5t9 17.5q0 23 -35 23q-14 0 -29 -7.5t-27 -26.5l-86 49q28 37 65 55.5t94 18.5q60 0 98 -24t38 -69
q0 -32 -15.5 -49t-35.5 -26q22 -7 39.5 -25t17.5 -51q0 -26 -11.5 -46t-31.5 -33.5t-47.5 -20t-59.5 -6.5q-54 0 -93.5 18t-65.5 57z" />
    <glyph glyph-name="foursevenths" unicode="&#xf509;" horiz-adv-x="890" 
d="M164 -16l-79 82l666 611l81 -80zM617 2l123 250h-143v84h275v-69l-131 -265h-124zM18 395v84l165 188h118v-193h40v-79h-40v-65h-126v65h-157zM103 474h72v86z" />
    <glyph glyph-name="fivesevenths" unicode="&#xf50a;" horiz-adv-x="890" 
d="M149 -16l-79 82l666 611l81 -80zM602 2l123 250h-143v84h275v-69l-131 -265h-124zM61 477v186h244v-83h-139v-30q35 0 65.5 -5t53 -17.5t35.5 -33t13 -51.5q0 -30 -12.5 -52.5t-33.5 -37t-48 -22t-57 -7.5q-52 0 -92.5 16.5t-57.5 45.5l83 59q9 -14 25 -24t36 -10
q40 0 40 32q0 34 -92 34h-63z" />
    <glyph glyph-name="sixsevenths" unicode="&#xf50b;" horiz-adv-x="890" 
d="M146 -16l-79 82l666 611l81 -80zM165 545q11 5 26 8.5t35 3.5q51 0 81.5 -30.5t30.5 -78.5q0 -55 -41 -89.5t-111 -34.5q-39 0 -68.5 11t-49 30.5t-29.5 46t-10 56.5q0 53 24.5 92.5t69.5 67.5q29 18 68 29.5t79 14.5l23 -75q-40 -6 -74 -18.5t-54 -32.5v-1zM164 484
q-8 -2 -16 -7q-2 -10 -2 -22q0 -22 9.5 -36t30.5 -14q17 0 28 11t11 29q0 17 -10.5 29t-29.5 12q-12 0 -21 -2zM605 2l123 250h-143v84h275v-69l-131 -265h-124z" />
    <glyph glyph-name="oneninth" unicode="&#xf50c;" horiz-adv-x="890" 
d="M137 -16l-79 82l666 611l81 -80zM587 69q39 8 75.5 20t54.5 32l-1 1q-10 -5 -22.5 -7.5t-29.5 -2.5q-51 0 -85 31t-34 81q0 52 40 86.5t112 34.5q39 0 68 -11t48.5 -30.5t29.5 -45.5t10 -56q0 -92 -67 -145q-30 -25 -78.5 -42t-99.5 -23zM702 184q20 0 34 7q1 5 1.5 10.5
t0.5 11.5q0 20 -9 35t-32 15q-17 0 -26.5 -10.5t-9.5 -27.5q0 -19 10.5 -30t30.5 -11zM128 330v214l-65 -34l-44 81l138 73h97v-334h-126z" />
    <glyph glyph-name="twoninths" unicode="&#xf50d;" horiz-adv-x="890" 
d="M170 -16l-79 82l666 611l81 -80zM40 330v59q37 31 72.5 59t64.5 56q14 14 21 25t7 25q0 29 -30 29t-54 -47l-99 43q23 42 65.5 68.5t102.5 26.5q28 0 53.5 -7.5t44 -21.5t29.5 -34t11 -44t-10 -45t-25.5 -39t-35.5 -33.5t-40 -29.5h113v-90h-290zM601 69q39 8 75.5 20
t54.5 32l-1 1q-10 -5 -22.5 -7.5t-29.5 -2.5q-51 0 -85 31t-34 81q0 52 40 86.5t112 34.5q39 0 68 -11t48.5 -30.5t29.5 -45.5t10 -56q0 -92 -67 -145q-30 -25 -78.5 -42t-99.5 -23zM716 184q20 0 34 7q1 5 1.5 10.5t0.5 11.5q0 20 -9 35t-32 15q-17 0 -26.5 -10.5
t-9.5 -27.5q0 -19 10.5 -30t30.5 -11z" />
    <glyph glyph-name="fourninths" unicode="&#xf50e;" horiz-adv-x="890" 
d="M157 -16l-79 82l666 611l81 -80zM602 69q39 8 75.5 20t54.5 32l-1 1q-10 -5 -22.5 -7.5t-29.5 -2.5q-51 0 -85 31t-34 81q0 52 40 86.5t112 34.5q39 0 68 -11t48.5 -30.5t29.5 -45.5t10 -56q0 -92 -67 -145q-30 -25 -78.5 -42t-99.5 -23zM717 184q20 0 34 7q1 5 1.5 10.5
t0.5 11.5q0 20 -9 35t-32 15q-17 0 -26.5 -10.5t-9.5 -27.5q0 -19 10.5 -30t30.5 -11zM22 395v84l165 188h118v-193h40v-79h-40v-65h-126v65h-157zM107 474h72v86z" />
    <glyph glyph-name="fiveninths" unicode="&#xf50f;" horiz-adv-x="890" 
d="M154 -16l-79 82l666 611l81 -80zM594 69q39 8 75.5 20t54.5 32l-1 1q-10 -5 -22.5 -7.5t-29.5 -2.5q-51 0 -85 31t-34 81q0 52 40 86.5t112 34.5q39 0 68 -11t48.5 -30.5t29.5 -45.5t10 -56q0 -92 -67 -145q-30 -25 -78.5 -42t-99.5 -23zM709 184q20 0 34 7q1 5 1.5 10.5
t0.5 11.5q0 20 -9 35t-32 15q-17 0 -26.5 -10.5t-9.5 -27.5q0 -19 10.5 -30t30.5 -11zM59 477v186h244v-83h-139v-30q35 0 65.5 -5t53 -17.5t35.5 -33t13 -51.5q0 -30 -12.5 -52.5t-33.5 -37t-48 -22t-57 -7.5q-52 0 -92.5 16.5t-57.5 45.5l83 59q9 -14 25 -24t36 -10
q40 0 40 32q0 34 -92 34h-63z" />
    <glyph glyph-name="sevenninths" unicode="&#xf510;" horiz-adv-x="890" 
d="M122 -16l-79 82l666 611l81 -80zM581 69q39 8 75.5 20t54.5 32l-1 1q-10 -5 -22.5 -7.5t-29.5 -2.5q-51 0 -85 31t-34 81q0 52 40 86.5t112 34.5q39 0 68 -11t48.5 -30.5t29.5 -45.5t10 -56q0 -92 -67 -145q-30 -25 -78.5 -42t-99.5 -23zM696 184q20 0 34 7q1 5 1.5 10.5
t0.5 11.5q0 20 -9 35t-32 15q-17 0 -26.5 -10.5t-9.5 -27.5q0 -19 10.5 -30t30.5 -11zM77 330l123 250h-143v84h275v-69l-131 -265h-124z" />
    <glyph glyph-name="eightninths" unicode="&#xf511;" horiz-adv-x="890" 
d="M152 -16l-79 82l666 611l81 -80zM50 473q13 19 39 32q-20 12 -32.5 29t-12.5 46q0 42 36.5 67.5t109.5 25.5q72 0 109 -25.5t37 -66.5q0 -30 -12.5 -46.5t-32.5 -29.5q24 -12 37.5 -31.5t13.5 -45.5q0 -47 -38 -75t-114 -28q-78 0 -115.5 28t-37.5 74q0 28 13 46z
M152 433q0 -15 10.5 -23t27.5 -8t27 8t10 23q0 16 -10.5 24.5t-27.5 8.5q-16 0 -26.5 -9t-10.5 -24zM157 571q0 -14 9 -21.5t23 -7.5q34 0 34 29q0 14 -9 21.5t-24 7.5q-14 0 -23.5 -7.5t-9.5 -21.5zM589 61q39 8 75.5 20t54.5 32l-1 1q-10 -5 -22.5 -7.5t-29.5 -2.5
q-51 0 -85 31t-34 81q0 52 40 86.5t112 34.5q39 0 68 -11t48.5 -30.5t29.5 -45.5t10 -56q0 -92 -67 -145q-30 -25 -78.5 -42t-99.5 -23zM704 176q20 0 34 7q1 5 1.5 10.5t0.5 11.5q0 20 -9 35t-32 15q-17 0 -26.5 -10.5t-9.5 -27.5q0 -19 10.5 -30t30.5 -11z" />
    <glyph glyph-name="a.smcp" unicode="&#xf605;" horiz-adv-x="587" 
d="M2 0l212 522h158l214 -522h-168l-34 87h-183l-32 -87h-167zM233 202h114l-56 162z" />
    <glyph glyph-name="b.smcp" unicode="&#xf606;" horiz-adv-x="533" 
d="M51 0v522h234q95 0 145.5 -33t50.5 -101q0 -45 -20 -70.5t-48 -40.5q41 -11 70.5 -41t29.5 -85q0 -72 -51 -111.5t-144 -39.5h-267zM207 321h55q33 0 49.5 9.5t16.5 38.5q0 25 -17.5 34t-47.5 9h-56v-91zM207 116h74q32 0 52.5 9.5t20.5 38.5t-19 39.5t-51 10.5h-77v-98z
" />
    <glyph glyph-name="c.smcp" unicode="&#xf607;" horiz-adv-x="554" 
d="M529 117q-32 -61 -85.5 -94.5t-145.5 -33.5q-62 0 -111 19.5t-83 55t-52 85.5t-18 111q0 68 21 119t57 85t84.5 51t102.5 17q171 0 225 -137l-127 -62q-14 31 -36.5 51t-58.5 20q-43 0 -74 -33.5t-31 -110.5q0 -66 30 -104.5t78 -38.5q32 0 56.5 15t41.5 51z" />
    <glyph glyph-name="d.smcp" unicode="&#xf608;" horiz-adv-x="576" 
d="M51 0v522h185q60 0 103.5 -8.5t79.5 -26.5q63 -32 95 -91t32 -131q0 -85 -44 -151.5t-129 -94.5q-35 -12 -77.5 -15.5t-85.5 -3.5h-159zM209 125h37q45 0 76 16q32 16 48.5 47.5t16.5 73.5q0 66 -37 100t-103 34h-38v-271z" />
    <glyph glyph-name="e.smcp" unicode="&#xf609;" horiz-adv-x="502" 
d="M51 0v522h408v-127h-248v-76h202v-114h-202v-78h266v-127h-426z" />
    <glyph glyph-name="f.smcp" unicode="&#xf60a;" horiz-adv-x="471" 
d="M51 0v522h401v-127h-243v-86h194v-125h-194v-184h-158z" />
    <glyph glyph-name="g.smcp" unicode="&#xf60b;" horiz-adv-x="566" 
d="M306 181v110h222v-269q-43 -14 -94.5 -23.5t-125.5 -9.5q-64 0 -114.5 19t-86 54t-54.5 86t-19 114q0 66 20 116.5t56 84.5t85 51.5t106 17.5q89 0 142 -32.5t79 -86.5l-129 -62q-30 55 -88 55q-23 0 -42.5 -8t-34 -25t-23 -45t-8.5 -67q0 -67 33.5 -109t94.5 -42
q18 0 32.5 1.5t28.5 3.5v66h-80z" />
    <glyph glyph-name="h.smcp" unicode="&#xf60c;" horiz-adv-x="590" 
d="M51 0v522h158v-190h171v190h159v-522h-159v203h-171v-203h-158z" />
    <glyph glyph-name="i.smcp" unicode="&#xf60d;" horiz-adv-x="261" 
d="M51 0v522h159v-522h-159z" />
    <glyph glyph-name="j.smcp" unicode="&#xf60e;" horiz-adv-x="265" 
d="M-30 -21q45 10 65.5 28t20.5 50v465h158v-475q0 -78 -55 -125.5t-147 -61.5z" />
    <glyph glyph-name="k.smcp" unicode="&#xf60f;" horiz-adv-x="575" 
d="M51 0v522h158v-181l170 181h181l-199 -211l216 -311h-187l-141 210l-40 -41v-169h-158z" />
    <glyph glyph-name="l.smcp" unicode="&#xf610;" horiz-adv-x="486" 
d="M51 0v522h159v-395h249v-127h-408z" />
    <glyph glyph-name="m.smcp" unicode="&#xf611;" horiz-adv-x="693" 
d="M51 0v522h161l137 -305l132 305h161v-522h-150v251l-111 -254h-63l-117 256v-253h-150z" />
    <glyph glyph-name="n.smcp" unicode="&#xf612;" horiz-adv-x="594" 
d="M51 0v521h159l179 -266v266h154v-521h-138l-200 285v-285h-154z" />
    <glyph glyph-name="o.smcp" unicode="&#xf613;" horiz-adv-x="607" 
d="M184 10q-50 21 -83.5 58t-50 86t-16.5 105q0 58 18 107.5t52.5 86.5t85 58t116.5 21q68 0 118.5 -21t84.5 -57.5t50.5 -86t16.5 -105.5t-17.5 -105.5t-52.5 -87t-86.5 -59t-118.5 -21.5t-117 21zM223 155q27 -40 81 -40t81 40.5t27 106.5t-26.5 105t-80.5 39t-81 -39
t-27 -107q0 -65 26 -105z" />
    <glyph glyph-name="p.smcp" unicode="&#xf614;" horiz-adv-x="521" 
d="M51 0v522h221q49 0 90.5 -9.5t71.5 -29.5t47 -52t17 -78t-16 -80t-45 -56.5t-69 -33.5t-88 -11h-75v-172h-154zM205 289h71q32 0 48 15.5t16 44.5q0 26 -17 38.5t-45 14.5h-73v-113z" />
    <glyph glyph-name="q.smcp" unicode="&#xf615;" horiz-adv-x="607" 
d="M471 -132q-100 2 -160 35t-77 95q-50 10 -87.5 34t-62.5 58.5t-37.5 78t-12.5 93.5q0 57 18 106.5t52.5 85.5t85.5 57t116 21q67 0 117.5 -21t84 -57t50.5 -84.5t17 -104.5q0 -48 -12.5 -90.5t-36.5 -76.5t-59.5 -59t-81.5 -38q4 -8 15 -13.5t25 -9t30 -5t32 -1.5z
M222 156q27 -41 81 -41t81.5 41t27.5 107q0 65 -27 104t-81 39t-81 -39t-27 -106q0 -64 26 -105z" />
    <glyph glyph-name="r.smcp" unicode="&#xf616;" horiz-adv-x="544" 
d="M51 0v522h241q43 0 82.5 -9t68.5 -28t46.5 -49.5t17.5 -73.5q0 -112 -95 -156l124 -206h-176l-98 179h-56v-179h-155zM206 295h62q46 0 63 15.5t17 40.5q0 30 -19.5 41t-60.5 11h-62v-108z" />
    <glyph glyph-name="s.smcp" unicode="&#xf617;" horiz-adv-x="504" 
d="M140 159q18 -25 49 -39.5t66 -14.5q27 0 47.5 8.5t20.5 28.5q0 10 -3.5 17.5t-15.5 14.5t-34 14.5t-58 17.5q-44 12 -77 25.5t-55 32.5t-33 45t-11 62q0 35 15.5 64.5t44 51t68 33.5t88.5 12q87 0 139 -26t79 -68l-113 -71q-16 20 -44 35t-63 15q-29 0 -45.5 -8
t-16.5 -25q0 -9 4.5 -16t17 -14t33.5 -14t54 -16q40 -12 73 -25.5t56.5 -32.5t36 -46t12.5 -65q0 -41 -18.5 -72t-49.5 -52t-71.5 -31.5t-84.5 -10.5q-87 0 -142 24.5t-88 75.5z" />
    <glyph glyph-name="t.smcp" unicode="&#xf618;" horiz-adv-x="512" 
d="M177 0v395h-155v127h467v-127h-154v-395h-158z" />
    <glyph glyph-name="u.smcp" unicode="&#xf619;" horiz-adv-x="592" 
d="M209 204q0 -42 23 -65.5t67 -23.5t65.5 23.5t21.5 65.5v318h157v-333q0 -48 -18 -85.5t-50.5 -63t-78.5 -38.5t-103 -13q-115 0 -178.5 51t-63.5 149v333h158v-318z" />
    <glyph glyph-name="v.smcp" unicode="&#xf61a;" horiz-adv-x="588" 
d="M237 0l-232 522h181l118 -310l115 310h166l-216 -522h-132z" />
    <glyph glyph-name="w.smcp" unicode="&#xf61b;" horiz-adv-x="749" 
d="M156 0l-141 521h158l66 -262l81 262h112l79 -264l68 264h158l-142 -521h-124l-98 304l-94 -304h-123z" />
    <glyph glyph-name="x.smcp" unicode="&#xf61c;" horiz-adv-x="568" 
d="M7 0l187 264l-175 258h177l88 -140l87 140h175l-174 -256l188 -266h-180l-98 148l-98 -148h-177z" />
    <glyph glyph-name="y.smcp" unicode="&#xf61d;" horiz-adv-x="565" 
d="M206 0v205l-199 316h176l104 -173l100 173h173l-196 -315v-206h-158z" />
    <glyph glyph-name="z.smcp" unicode="&#xf61e;" horiz-adv-x="544" 
d="M42 0v108l258 287h-241v127h438v-111l-254 -284h259v-127h-460z" />
    <glyph glyph-name="ae.smcp" unicode="&#xf61f;" horiz-adv-x="790" 
d="M-10 0l310 522h444v-127h-214v-76h153v-114h-153v-78h233v-127h-392v113h-145l-65 -113h-171zM279 226h92v165z" />
    <glyph glyph-name="eng.smcp" unicode="&#xf620;" horiz-adv-x="594" 
d="M51 0v521h158l180 -266v266h153v-521q0 -80 -50 -131t-132 -74l-55 121q40 17 57.5 38t17.5 56v23l-176 252v-285h-153z" />
    <glyph glyph-name="oe.smcp" unicode="&#xf621;" horiz-adv-x="803" 
d="M334 0q-77 0 -133.5 18.5t-93.5 52t-55 81t-18 106.5q0 64 20.5 113.5t58.5 83t92 50.5t121 17h431v-127h-224v-76h164v-114h-164v-78h243v-127h-442zM374 118v289h-48q-25 0 -49.5 -7.5t-44 -24t-31.5 -43.5t-12 -66q0 -69 39 -108.5t100 -39.5h46z" />
    <glyph glyph-name="eth.smcp" unicode="&#xf622;" horiz-adv-x="583" 
d="M57 0v215h-57v101h57v206h198l22 -1q38 -2 72 -8t63 -20q70 -31 105.5 -91t35.5 -137q0 -38 -9 -73.5t-27 -66t-44.5 -55t-60.5 -40.5q-32 -15 -71.5 -22.5t-83.5 -7.5h-200zM216 125h36q42 0 73 14q33 15 51 47t18 76q0 79 -55 113q-17 11 -39.5 16t-45.5 5h-38v-80h93
v-101h-93v-90z" />
    <glyph glyph-name="hbar.smcp" unicode="&#xf623;" horiz-adv-x="590" 
d="M51 0v383h-52v95h52v44h158v-44h171v44h159v-44h51v-95h-51v-383h-159v203h-171v-203h-158zM209 332h171v51h-171v-51z" />
    <glyph glyph-name="ij.smcp" unicode="&#xf624;" horiz-adv-x="524" 
d="M51 0v522h159v-522h-159zM229 -21q45 10 65.5 28t20.5 50v465h158v-475q0 -78 -55 -125.5t-147 -61.5z" />
    <glyph glyph-name="idotaccent.smcp" unicode="&#xf625;" horiz-adv-x="261" 
d="M51 0v522h159v-522h-159zM70 575q-24 23 -24 56t24 56t62 23q39 0 62.5 -23t23.5 -56t-23.5 -55.5t-62.5 -22.5q-38 0 -62 22z" />
    <glyph glyph-name="dotlessi.smcp" unicode="&#xf626;" horiz-adv-x="261" 
d="M51 0v522h159v-522h-159z" />
    <glyph glyph-name="oslash.smcp" unicode="&#xf627;" horiz-adv-x="607" 
d="M30 16l58 70q-54 70 -54 173q0 58 18 107.5t52.5 86.5t85 58t116.5 21q38 0 70 -7.5t59 -21.5l55 67l80 -63l-54 -66q31 -36 45.5 -81t14.5 -98q0 -56 -17.5 -105.5t-52.5 -87t-86.5 -59t-118.5 -21.5q-41 0 -72.5 9t-58.5 24l-61 -71zM223 155q27 -40 81 -40t81 40.5
t27 106.5t-26.5 105t-80.5 39t-81 -39t-27 -107q0 -65 26 -105z" />
    <glyph glyph-name="thorn.smcp" unicode="&#xf628;" horiz-adv-x="532" 
d="M51 0v522h155v-71h69q48 0 89 -10t71 -31.5t47 -54.5t17 -79q0 -44 -16 -78t-45 -57t-69 -34.5t-89 -11.5h-74v-95h-155zM206 213h61q32 0 53.5 14t21.5 46t-22.5 46t-54.5 14h-59v-120z" />
    <glyph glyph-name="tbar.smcp" unicode="&#xf629;" horiz-adv-x="512" 
d="M177 0v200h-108v96h108v99h-155v127h467v-127h-154v-99h110v-96h-110v-200h-158z" />
    <glyph glyph-name="kgreenlandic.smcp" unicode="&#xf62a;" horiz-adv-x="575" 
d="M51 0v522h158v-181l170 181h181l-199 -211l216 -311h-187l-141 210l-40 -41v-169h-158z" />
    <glyph glyph-name="lslash.smcp" unicode="&#xf62b;" horiz-adv-x="492" 
d="M58 0v185l-33 -18l-40 90l73 39v226h158v-165l95 49l41 -92l-136 -68v-120h249v-126h-407z" />
    <glyph glyph-name="ampersand.smcp" unicode="&#xf62c;" horiz-adv-x="601" 
d="M404 0l-45 51q-15 -13 -30 -24t-33 -18.5t-41 -12t-53 -4.5q-44 0 -77.5 12t-56.5 34t-35 51.5t-12 64.5q0 59 32.5 101t91.5 67q-17 19 -29 40t-12 48q0 54 45 88t128 34q72 0 114.5 -25.5t65.5 -69.5l-104 -61q-11 20 -24 33t-33 13q-26 0 -26 -24q0 -11 7.5 -21.5
t17.5 -21.5l85 -101q25 36 55 64.5t68 48.5l72 -98q-38 -26 -64.5 -55t-49.5 -64l120 -150h-177zM222 229q-24 -15 -38 -32t-14 -40q0 -22 14.5 -36t37.5 -14q36 0 66 39z" />
    <glyph glyph-name="f_i.smcp" unicode="&#xf62d;" horiz-adv-x="701" 
d="M51 0v522h401v-127h-243v-86h194v-125h-194v-184h-158zM491 0v522h159v-522h-159z" />
    <glyph glyph-name="f_l.smcp" unicode="&#xf62e;" horiz-adv-x="925" 
d="M51 0v522h401v-127h-243v-86h194v-125h-194v-184h-158zM490 0v522h159v-395h249v-127h-408z" />
    <glyph glyph-name="f_f.smcp" unicode="&#xf62f;" horiz-adv-x="908" 
d="M488 0v522h401v-127h-243v-86h194v-125h-194v-184h-158zM51 0v522h401v-127h-243v-86h194v-125h-194v-184h-158z" />
    <glyph glyph-name="f_f_i.smcp" unicode="&#xf630;" horiz-adv-x="1136" 
d="M488 0v522h401v-127h-243v-86h194v-125h-194v-184h-158zM51 0v522h401v-127h-243v-86h194v-125h-194v-184h-158zM926 0v522h159v-522h-159z" />
    <glyph glyph-name="f_f_l.smcp" unicode="&#xf631;" horiz-adv-x="1357" 
d="M488 0v522h401v-127h-243v-86h194v-125h-194v-184h-158zM51 0v522h401v-127h-243v-86h194v-125h-194v-184h-158zM922 0v522h159v-395h249v-127h-408z" />
    <glyph glyph-name="f_b.smcp" unicode="&#xf632;" horiz-adv-x="969" 
d="M51 0v522h401v-127h-243v-86h194v-125h-194v-184h-158zM487 0v522h234q95 0 145.5 -33t50.5 -101q0 -45 -20 -70.5t-48 -40.5q41 -11 70.5 -41t29.5 -85q0 -72 -51 -111.5t-144 -39.5h-267zM643 321h55q33 0 49.5 9.5t16.5 38.5q0 25 -17.5 34t-47.5 9h-56v-91zM643 116
h74q32 0 52.5 9.5t20.5 38.5t-19 39.5t-51 10.5h-77v-98z" />
    <glyph glyph-name="f_j.smcp" unicode="&#xf633;" horiz-adv-x="698" 
d="M51 0v522h401v-127h-243v-86h194v-125h-194v-184h-158zM403 -21q45 10 65.5 28t20.5 50v465h158v-475q0 -78 -55 -125.5t-147 -61.5z" />
    <glyph glyph-name="f_k.smcp" unicode="&#xf634;" horiz-adv-x="1011" 
d="M51 0v522h401v-127h-243v-86h194v-125h-194v-184h-158zM487 0v522h158v-181l170 181h181l-199 -211l216 -311h-187l-141 210l-40 -41v-169h-158z" />
    <glyph glyph-name="f_t.smcp" unicode="&#xf635;" horiz-adv-x="975" 
d="M51 0v522h401v-127h-243v-86h194v-125h-194v-184h-158zM640 0v395h-155v127h467v-127h-154v-395h-158z" />
    <glyph glyph-name="f_h.smcp" unicode="&#xf636;" horiz-adv-x="1025" 
d="M51 0v522h401v-127h-243v-86h194v-125h-194v-184h-158zM486 0v522h158v-190h171v190h159v-522h-159v203h-171v-203h-158z" />
    <glyph glyph-name="germandbls.smcp" unicode="&#xf637;" horiz-adv-x="995" 
d="M631 159q18 -25 49 -39.5t66 -14.5q27 0 47.5 8.5t20.5 28.5q0 10 -3.5 17.5t-15.5 14.5t-34 14.5t-58 17.5q-44 12 -77 25.5t-55 32.5t-33 45t-11 62q0 35 15.5 64.5t44 51t68 33.5t88.5 12q87 0 139 -26t79 -68l-113 -71q-16 20 -44 35t-63 15q-29 0 -45.5 -8
t-16.5 -25q0 -9 4.5 -16t17 -14t33.5 -14t54 -16q40 -12 73 -25.5t56.5 -32.5t36 -46t12.5 -65q0 -41 -18.5 -72t-49.5 -52t-71.5 -31.5t-84.5 -10.5q-87 0 -142 24.5t-88 75.5zM140 159q18 -25 49 -39.5t66 -14.5q27 0 47.5 8.5t20.5 28.5q0 10 -3.5 17.5t-15.5 14.5
t-34 14.5t-58 17.5q-44 12 -77 25.5t-55 32.5t-33 45t-11 62q0 35 15.5 64.5t44 51t68 33.5t88.5 12q87 0 139 -26t79 -68l-113 -71q-16 20 -44 35t-63 15q-29 0 -45.5 -8t-16.5 -25q0 -9 4.5 -16t17 -14t33.5 -14t54 -16q40 -12 73 -25.5t56.5 -32.5t36 -46t12.5 -65
q0 -41 -18.5 -72t-49.5 -52t-71.5 -31.5t-84.5 -10.5q-87 0 -142 24.5t-88 75.5z" />
    <glyph glyph-name="euro.smcp" unicode="&#xf638;" horiz-adv-x="495" 
d="M11 208v107h45q4 43 19.5 81.5t43.5 67.5t68.5 45.5t94.5 16.5q83 0 129.5 -32t69.5 -95l-128 -37q-11 29 -27 39.5t-39 10.5q-62 0 -71 -97h111v-107h-112q8 -101 76 -101q23 0 40.5 11.5t31.5 40.5l121 -47q-23 -57 -70.5 -89t-128.5 -32q-56 0 -97.5 16.5t-70 46
t-44 69t-18.5 85.5h-44z" />
    <glyph glyph-name="dollar.smcp" unicode="&#xf639;" horiz-adv-x="495" 
d="M200 -123v116q-50 4 -96 26t-81 65l109 77q22 -25 53.5 -40t67.5 -15q27 0 46 8.5t19 27.5q0 21 -21.5 32t-75.5 27q-43 13 -77 26.5t-57 31.5t-35.5 43.5t-12.5 62.5q0 32 12 58.5t34 47t51 33.5t64 18v132h108v-130q52 -6 91 -28t64 -57l-109 -69q-36 44 -95 44
q-30 0 -46.5 -9t-16.5 -26q0 -21 22 -30.5t64 -21.5q38 -11 72.5 -23.5t60.5 -31.5t41 -47.5t15 -70.5q0 -35 -13 -62.5t-35 -47.5t-51.5 -32.5t-63.5 -17.5v-117h-108z" />
    <glyph glyph-name="cent.smcp" unicode="&#xf63a;" horiz-adv-x="495" 
d="M207 -80v125q-81 17 -130 73t-49 144q0 89 47.5 145t131.5 71v120h128v-118q20 -2 40 -7.5t38 -13t33 -16t25 -16.5l-70 -115q-22 16 -48.5 28t-63.5 12q-47 0 -70.5 -27t-23.5 -64q0 -41 25.5 -66t68.5 -25q36 0 59 9t53 27l59 -116q-31 -21 -64.5 -32t-60.5 -16v-122
h-128z" />
    <glyph glyph-name="sterling.smcp" unicode="&#xf63b;" horiz-adv-x="495" 
d="M84 0v190h-61v109h61v47q0 88 51.5 134t151.5 46q79 0 122 -31t63 -80l-129 -47q-11 22 -24 32t-31 10q-23 0 -37.5 -13.5t-14.5 -43.5v-54h171v-109h-171v-72h229v-118h-381z" />
    <glyph glyph-name="yen.smcp" unicode="&#xf63c;" horiz-adv-x="495" 
d="M173 0v161h-128v108h88l-136 246h168l86 -189l82 189h165l-135 -246h85v-108h-123v-161h-152z" />
    <glyph glyph-name="florin.smcp" unicode="&#xf63d;" horiz-adv-x="495" 
d="M-37 1q61 2 97 23.5t47 71.5l16 69h-91v132h116l10 41q13 54 36 86.5t53 54.5q35 25 77 36t92 11h47v-139q-66 0 -97.5 -20.5t-42.5 -69.5h140v-132h-162l-18 -89q-22 -107 -98.5 -159t-221.5 -53v137z" />
    <glyph glyph-name="exclam.smcp" unicode="&#xf63e;" horiz-adv-x="269" 
d="M49 183v339h171v-339h-171zM74 11q-23 21 -23 53t23 53t60 21q36 0 59 -21t23 -53t-23 -52.5t-59 -20.5q-37 0 -60 20z" />
    <glyph glyph-name="question.smcp" unicode="&#xf63f;" horiz-adv-x="484" 
d="M127 178v27q0 32 18.5 55.5t44.5 42.5q19 13 34.5 23t27 19t18 18t6.5 20q0 34 -46 34q-31 0 -56 -17.5t-45 -42.5l-113 68q33 47 88 78t138 31q106 0 159.5 -38t53.5 -96q0 -25 -7.5 -44.5t-20.5 -35.5t-29.5 -29t-34.5 -24q-35 -22 -47.5 -39t-12.5 -39v-11h-176z
M154 11q-22 21 -22 53t22.5 52.5t59.5 20.5q38 0 60.5 -20.5t22.5 -52.5t-23 -52.5t-60 -20.5t-60 20z" />
    <glyph glyph-name="ordfeminine.smcp" unicode="&#xf640;" horiz-adv-x="423" 
d="M8 253l136 356h139l133 -356h-122l-23 64h-117l-23 -64h-123zM174 403h74l-38 113z" />
    </font>
</defs>
</svg>
