<?xml version="1.0" standalone="no"?>
<!DOCTYPE svg PUBLIC "-//W3C//DTD SVG 1.1//EN" "http://www.w3.org/Graphics/SVG/1.1/DTD/svg11.dtd" >
<svg>
<metadata>
Created by FontForge 20090622 at Fri Sep 20 07:18:34 2019
 By deploy user
Copyright 2000-2007 Dalton Maag Ltd. All rights reserved. No modification without the prior permission of Dalton Maag Ltd.
</metadata>
<defs>
<font id="InterFaceCorp-Light" horiz-adv-x="288" >
  <font-face 
    font-family="InterFace Corp Light"
    font-weight="400"
    font-stretch="normal"
    units-per-em="1000"
    panose-1="2 11 3 3 3 2 3 2 2 4"
    ascent="800"
    descent="-200"
    x-height="476"
    cap-height="667"
    bbox="-229 -223 1142 898"
    underline-thickness="20"
    underline-position="-113"
    unicode-range="U+0008-U+FB04"
  />
<missing-glyph horiz-adv-x="500" 
d="M50 0v750h400v-750h-400zM400 50v650h-300v-650h300z" />
    <glyph glyph-name="f_b" unicode="fb" horiz-adv-x="776" 
d="M88 0v432h-71v44h71v46q0 39 13 68.5t36 49t54.5 29t68.5 9.5q49 0 79 -9.5t50 -18.5v-196q26 15 57 25t70 10q44 0 83 -15.5t68 -46.5t46 -77.5t17 -107.5q0 -58 -18 -105t-49.5 -80t-73.5 -50.5t-91 -17.5q-51 0 -92 9.5t-69 21.5v597q-11 6 -31 10.5t-43 4.5
q-56 0 -89.5 -25.5t-33.5 -89.5v-41h111v-44h-111v-432h-52zM389 52q23 -9 50.5 -14.5t50.5 -5.5q42 0 77 15t59.5 43t38 66.5t13.5 85.5q0 48 -13 85.5t-36.5 63.5t-55 40t-67.5 14q-32 0 -61.5 -10.5t-55.5 -29.5v-353z" />
    <glyph glyph-name="f_j" unicode="fj" horiz-adv-x="436" 
d="M236 -157q43 27 60.5 63t17.5 91v479h53v-479q0 -74 -26.5 -118.5t-79.5 -74.5zM88 0v432h-71v44h71v55q0 38 12 66t32 46.5t47 27.5t56 9q46 0 75 -13.5t45 -26.5l-26 -38q-14 11 -37 22.5t-56 11.5q-41 0 -69 -24t-28 -85v-51h112v-44h-111v-432h-52z" />
    <glyph glyph-name="f_k" unicode="fk" horiz-adv-x="723" 
d="M88 0v432h-71v44h71v46q0 39 13 68.5t36 49t54.5 29t68.5 9.5q49 0 79 -9.5t50 -18.5v-379l218 205h67l-161 -154l211 -322h-62l-188 286l-85 -79v-207h-52v617q-11 6 -31 10.5t-43 4.5q-56 0 -89.5 -25.5t-33.5 -89.5v-41h111v-44h-111v-432h-52z" />
    <glyph glyph-name="f_t" unicode="ft" horiz-adv-x="563" 
d="M88 0v432h-71v44h71v56q0 76 34 112t92 36q35 0 57 -7t37 -15l-18 -43q-14 8 -32 14t-42 6q-35 0 -55.5 -22.5t-20.5 -84.5v-52h224v128h52v-128h125v-44h-126v-331q0 -38 15.5 -53t42.5 -15q19 0 33 5.5t28 16.5l22 -38q-20 -14 -39.5 -21t-54.5 -7q-45 0 -71.5 26.5
t-26.5 77.5v339h-224v-432h-52z" />
    <glyph glyph-name="f_h" unicode="fh" horiz-adv-x="787" 
d="M88 0v432h-71v44h71v46q0 39 13 68.5t36 49t54.5 29t68.5 9.5q49 0 79 -9.5t50 -18.5v-215q29 23 66.5 38.5t88.5 15.5q93 0 135 -47t42 -138v-304h-53v303q0 75 -33.5 108t-98.5 33q-44 0 -80.5 -17.5t-66.5 -40.5v-386h-52v617q-11 6 -31 10.5t-43 4.5
q-56 0 -89.5 -25.5t-33.5 -89.5v-41h111v-44h-111v-432h-52z" />
    <glyph glyph-name="f_f" unicode="ff" horiz-adv-x="525" 
d="M88 0v432h-71v44h71v56q0 76 34 112t92 36q35 0 57 -7t37 -15l-18 -43q-14 8 -32 14t-42 6q-35 0 -55.5 -22.5t-20.5 -84.5v-52h210v56q0 76 34 112t92 36q35 0 57 -7t37 -15l-18 -43q-14 8 -32 14t-42 6q-35 0 -55.5 -22.5t-20.5 -84.5v-52h111v-44h-111v-432h-52v432
h-210v-432h-52z" />
    <glyph glyph-name="f_i" unicode="fi" horiz-adv-x="447" 
d="M337 0v476h52v-476h-52zM88 0v432h-71v44h71v55q0 38 12 66t32 46.5t47 27.5t56 9q46 0 75 -13.5t45 -26.5l-26 -38q-14 11 -37 22.5t-56 11.5q-41 0 -69 -24t-28 -85v-51h112v-44h-111v-432h-52z" />
    <glyph glyph-name="f_l" unicode="fl" horiz-adv-x="458" 
d="M88 0v432h-71v44h71v46q0 39 13 68.5t36 49t54.5 29t68.5 9.5q49 0 79 -9.5t50 -18.5v-650h-52v617q-11 6 -31 10.5t-43 4.5q-56 0 -90 -25.5t-34 -89.5v-41h107v-44h-106v-432h-52z" />
    <glyph glyph-name="f_f_i" unicode="ffi" horiz-adv-x="709" 
d="M88 0v432h-71v44h71v56q0 76 34 112t92 36q35 0 57 -7t37 -15l-18 -43q-14 8 -32 14t-42 6q-35 0 -55.5 -22.5t-20.5 -84.5v-52h210v55q0 38 12 66t32 46.5t47 27.5t56 9q46 0 75 -13.5t45 -26.5l-26 -38q-14 11 -37 22.5t-56 11.5q-41 0 -69 -24t-28 -85v-51h112v-44
h-111v-432h-52v432h-210v-432h-52zM599 0v476h52v-476h-52z" />
    <glyph glyph-name="f_f_l" unicode="ffl" horiz-adv-x="721" 
d="M88 0v432h-71v44h71v56q0 76 34 112t92 36q35 0 57 -7t37 -15l-18 -43q-14 8 -32 14t-42 6q-35 0 -55.5 -22.5t-20.5 -84.5v-52h211v46q0 39 13 68.5t36 49t54.5 29t68.5 9.5q49 0 79 -9.5t50 -18.5v-650h-52v617q-11 6 -31 10.5t-43 4.5q-56 0 -90 -25.5t-34 -89.5v-41
h107v-44h-106v-432h-52v432h-211v-432h-52z" />
    <glyph glyph-name=".notdef" horiz-adv-x="500" 
d="M50 0v750h400v-750h-400zM400 50v650h-300v-650h300z" />
    <glyph glyph-name=".null" horiz-adv-x="0" 
 />
    <glyph glyph-name=".null" horiz-adv-x="0" 
 />
    <glyph glyph-name=".null" horiz-adv-x="0" 
 />
    <glyph glyph-name="nonmarkingreturn" unicode="&#x9;" horiz-adv-x="200" 
 />
    <glyph glyph-name="nonmarkingreturn" unicode="&#xd;" horiz-adv-x="200" 
 />
    <glyph glyph-name="space" unicode=" " horiz-adv-x="200" 
 />
    <glyph glyph-name="exclam" unicode="!" horiz-adv-x="200" 
d="M75 207v460h52v-460h-52zM100 -11q-17 0 -28.5 14t-11.5 34t11.5 34t28.5 14t28.5 -14.5t11.5 -33.5t-11.5 -33.5t-28.5 -14.5z" />
    <glyph glyph-name="quotedbl" unicode="&#x22;" horiz-adv-x="286" 
d="M184 371v296h50v-296h-50zM52 371v296h50v-296h-50z" />
    <glyph glyph-name="numbersign" unicode="#" horiz-adv-x="578" 
d="M171 74v173h-169v47h169v149h-169v46h169v178h48v-178h140v178h48v-178h168v-46h-168v-149h168v-47h-168v-173h-48v173h-140v-173h-48zM219 294h140v149h-140v-149z" />
    <glyph glyph-name="dollar" unicode="$" horiz-adv-x="517" 
d="M234 -134v124q-62 2 -112 27t-77 70l42 28q21 -35 59.5 -55.5t87.5 -21.5v297q-37 15 -67.5 32t-53 38.5t-35 50t-12.5 66.5q0 35 12.5 63t35 47.5t53.5 30.5t67 13v123h45v-123q63 -4 104 -30t64 -64l-42 -26q-21 31 -51.5 50t-74.5 23v-256q45 -20 78.5 -39.5
t55.5 -42.5t33 -52t11 -68q0 -76 -47 -124.5t-131 -56.5v-124h-45zM234 629q-54 -2 -84.5 -30.5t-30.5 -71.5q0 -29 8 -49.5t23 -36.5t36 -28.5t48 -24.5v241zM279 37q56 6 90 40t34 91q0 28 -7.5 49.5t-22.5 39t-38.5 32.5t-55.5 30v-282z" />
    <glyph glyph-name="percent" unicode="%" horiz-adv-x="725" 
d="M117 391q-25 12 -44 31.5t-30 46.5t-11 57t11 57t30 47t44.5 31.5t55.5 11.5t56.5 -11.5t45.5 -31.5t30 -47t11 -57t-11 -57t-30 -46.5t-45.5 -31t-56.5 -11.5t-56 11zM67 -2l-35 37l617 635l33 -32zM495 5q-26 12 -45 32t-30 47t-11 57t11 57t30 47t45 31.5t56 11.5
t56 -11.5t45 -31.5t30 -47t11 -57t-11 -57t-30 -47t-45 -31.5t-56 -11.5t-56 11zM104 455q13 -14 30.5 -23t38.5 -9t38.5 9t30 23.5t20 33t7.5 38.5q0 21 -7.5 40t-20 33.5t-30 22.5t-38.5 8t-38.5 -8t-30 -22.5t-20 -33.5t-7.5 -40q0 -20 7.5 -38.5t19.5 -33.5zM482 69
q13 -14 30.5 -23t37.5 -9q21 0 38.5 9t30.5 23.5t20.5 33.5t7.5 39q0 21 -7.5 40t-20.5 33t-30.5 22t-38.5 8q-41 0 -68.5 -30t-27.5 -73q0 -20 7.5 -39t20.5 -34z" />
    <glyph glyph-name="ampersand" unicode="&#x26;" horiz-adv-x="586" 
d="M494 0l-87 123q-38 -65 -82.5 -100t-109.5 -35q-41 0 -74 15.5t-56 41.5t-35 59.5t-12 69.5q0 78 41 133.5t122 95.5l-26 39q-17 25 -29 50t-12 56q0 28 10.5 51t29 39.5t43.5 25.5t53 9q27 0 50.5 -8.5t41.5 -24.5t28.5 -39t10.5 -52q0 -57 -33 -94.5t-95 -67.5
l128 -179l27 54.5t31.5 58.5t34.5 54.5t36 42.5l29 -36q-39 -41 -68 -96.5l-60 -116.5l122 -169h-59zM248 424q51 23 77.5 52t26.5 73q0 37 -24 59t-59 22q-37 0 -60 -22.5t-23 -57.5q0 -21 10 -42t23 -41zM228 366q-69 -34 -103 -80.5t-34 -112.5q0 -28 9 -53t25.5 -44.5
t39.5 -31t52 -11.5t52 10.5t41.5 27.5t34.5 40t30 49z" />
    <glyph glyph-name="quotesingle" unicode="'" horiz-adv-x="154" 
d="M52 371v296h50v-296h-50z" />
    <glyph glyph-name="parenleft" unicode="(" horiz-adv-x="251" 
d="M236 -47q-86 54 -138 153.5t-52 235.5t52 236t138 153l20 -35q-73 -55 -114.5 -145.5t-41.5 -208.5t41.5 -208t114.5 -146z" />
    <glyph glyph-name="parenright" unicode=")" horiz-adv-x="251" 
d="M-4 -12q73 57 114.5 146.5t41.5 207.5t-41.5 208.5t-114.5 145.5l20 35q86 -53 138 -153t52 -236t-52 -235.5t-138 -153.5z" />
    <glyph glyph-name="asterisk" unicode="*" horiz-adv-x="405" 
d="M57 389l-22 36l133 87l-132 90l22 35l123 -85v145h41v-145l125 84l23 -33l-134 -90l133 -89l-21 -35l-126 84v-152h-41v152z" />
    <glyph glyph-name="plus" unicode="+" horiz-adv-x="517" 
d="M234 85v222h-201v49h201v222h49v-222h200v-49h-200v-222h-49z" />
    <glyph glyph-name="comma" unicode="," horiz-adv-x="150" 
d="M6 -60q16 6 35 19.5t26 28.5q-11 6 -19 18t-8 31q0 20 11 35t28 15q18 0 29.5 -14.5t11.5 -39.5q0 -20 -9.5 -38.5t-24.5 -33.5t-34.5 -26.5t-38.5 -17.5z" />
    <glyph glyph-name="hyphen" unicode="-" horiz-adv-x="302" 
d="M45 239v52h212v-52h-212z" />
    <glyph glyph-name="period" unicode="." horiz-adv-x="170" 
d="M85 -11q-17 0 -28.5 14t-11.5 34t11.5 34t28.5 14t28.5 -14.5t11.5 -33.5t-11.5 -33.5t-28.5 -14.5z" />
    <glyph glyph-name="slash" unicode="/" horiz-adv-x="460" 
d="M0 8l419 746l41 -24l-417 -749z" />
    <glyph glyph-name="zero" unicode="0" horiz-adv-x="517" 
d="M157 17q-42 31 -69.5 80t-40.5 110t-13 123t13 123.5t40.5 110t70 79t101.5 30.5t101.5 -30.5t69.5 -79t40 -110t13 -123.5t-13 -123t-40 -110t-69.5 -79.5t-101.5 -30.5t-102 30zM130 134q20 -43 52 -71t77 -28t76.5 28t51.5 71t29.5 95.5t9.5 101.5q0 51 -9.5 103.5
t-29.5 94.5t-51.5 68.5t-76.5 26.5t-77 -26.5t-52 -68.5t-29.5 -94.5t-9.5 -103.5q0 -49 9.5 -101.5t29.5 -95.5z" />
    <glyph glyph-name="one" unicode="1" horiz-adv-x="517" 
d="M272 0v600l-156 -107l-29 40l185 127h55v-660h-55z" />
    <glyph glyph-name="two" unicode="2" horiz-adv-x="517" 
d="M74 0v34l101 116.5l95 115.5q24 29 45 57.5t36.5 56.5t25 56t9.5 57q0 63 -36.5 97.5t-93.5 34.5q-53 0 -92 -28t-65 -74l-43 24q30 57 81 91.5t123 34.5q43 0 77 -13t57.5 -36t36 -54t12.5 -67q0 -37 -10.5 -71t-28 -65.5t-40 -62l-46.5 -60.5l-41 -50.5l-46.5 -55
l-44.5 -51.5l-35 -39h308v-48h-385z" />
    <glyph glyph-name="three" unicode="3" horiz-adv-x="517" 
d="M87 119q25 -42 64 -63t86 -21q31 0 60 9.5t51 27.5t35 44.5t13 60.5q0 35 -13.5 61.5t-35.5 44.5t-50 28t-57 13v41q22 3 47.5 12.5t47.5 26t36.5 40t14.5 54.5q0 30 -12 53.5t-31.5 40t-45.5 25t-53 8.5q-54 0 -89 -25t-55 -61l-42 25q26 46 73.5 77.5t121.5 31.5
q40 0 74.5 -13t60 -35.5t40 -53t14.5 -66.5q0 -60 -34.5 -100t-87.5 -58q27 -7 51 -21t42 -35t28.5 -49t10.5 -64q0 -45 -17.5 -80t-46.5 -60t-67.5 -38t-81.5 -13q-63 0 -114.5 26t-81.5 77z" />
    <glyph glyph-name="four" unicode="4" horiz-adv-x="517" 
d="M40 204v56l326 400h38v-408h73v-48h-73v-204h-51v204h-313zM94 252h259v318z" />
    <glyph glyph-name="five" unicode="5" horiz-adv-x="517" 
d="M98 108q21 -32 57.5 -52.5t90.5 -20.5q72 0 117 45t45 123q0 49 -21 84t-58.5 57t-88.5 32t-110 10h-21.5t-20.5 -1v274h339v-48h-288v-178h10q65 0 122 -13t99 -40.5t66 -71.5t24 -106q0 -51 -16 -90.5t-44.5 -67.5t-68 -42.5t-85.5 -14.5q-70 0 -117.5 25.5t-73.5 66.5
z" />
    <glyph glyph-name="six" unicode="6" horiz-adv-x="517" 
d="M402 625q-44 -9 -87.5 -31t-81 -55t-66 -75.5t-42.5 -93.5q29 20 65.5 33.5t81.5 13.5t81.5 -17t62 -46t39 -68t13.5 -83q0 -45 -14 -84.5t-39.5 -68.5t-62.5 -46t-83 -17q-53 0 -93 20.5t-67 56t-40.5 83.5t-13.5 102q0 80 24.5 150t69 124.5t106 92.5t135.5 53z
M181 355q-37 -16 -64 -39q-2 -15 -4 -33.5t-2 -38.5q0 -38 8.5 -76t27.5 -68t49.5 -49t73.5 -19q35 0 62 14t45.5 37.5t28 54t9.5 63.5q0 34 -10 65t-29.5 54.5t-48.5 37t-66 13.5q-43 0 -80 -16z" />
    <glyph glyph-name="seven" unicode="7" horiz-adv-x="517" 
d="M165 0l244 611h-369v49h430v-39l-248 -621h-57z" />
    <glyph glyph-name="eight" unicode="8" horiz-adv-x="517" 
d="M85 282q36 45 90 63q-47 18 -80.5 56.5t-33.5 97.5q0 40 15 72.5t41 55t62.5 34.5t79.5 12t79 -12t62 -34.5t40.5 -54t14.5 -71.5q0 -61 -32.5 -98.5t-79.5 -57.5q54 -17 88.5 -62t34.5 -108q0 -45 -16.5 -80t-44.5 -59t-65.5 -36.5t-80.5 -12.5t-81 12.5t-66.5 36
t-45 58.5t-16.5 80q0 64 35 108zM124 443q12 -24 32 -41t46.5 -25.5t55.5 -8.5t55.5 9t46.5 25.5t32 41t12 56.5t-12 56t-32 40t-46 24t-55 8t-55.5 -8t-46.5 -24t-32 -40t-12 -56t11 -57zM115 113q13 -26 34.5 -44t50 -27t59.5 -9t59 9t49.5 27t34 44.5t12.5 61.5
q0 32 -12.5 59t-34 46.5t-50 30.5t-59.5 11t-59 -11t-49.5 -30.5t-34 -46.5t-12.5 -59q0 -35 12 -62z" />
    <glyph glyph-name="nine" unicode="9" horiz-adv-x="517" 
d="M118 35q49 12 93.5 34.5t81.5 55.5t64 75.5t42 93.5q-26 -20 -62.5 -33.5t-85.5 -13.5q-45 0 -81.5 16.5t-62 45.5t-39 68t-13.5 84q0 44 14 82.5t40 67.5t63 45.5t83 16.5q52 0 91.5 -20.5t66.5 -56t41 -83.5t14 -102q0 -81 -25 -151t-70 -125t-107 -92t-136 -52z
M343 310q40 17 65 38q2 16 3 33t1 35q0 38 -8.5 76t-27.5 68t-49 48.5t-73 18.5q-36 0 -63 -14t-46 -36.5t-28.5 -52.5t-9.5 -61q0 -37 10 -68.5t29.5 -54t49 -35t67.5 -12.5q41 0 80 17z" />
    <glyph glyph-name="colon" unicode=":" horiz-adv-x="170" 
d="M85 358q-17 0 -28.5 14.5t-11.5 34.5t11.5 34t28.5 14t28.5 -14.5t11.5 -33.5q0 -20 -11.5 -34.5t-28.5 -14.5zM85 -11q-17 0 -28.5 14t-11.5 34t11.5 34t28.5 14t28.5 -14.5t11.5 -33.5t-11.5 -33.5t-28.5 -14.5z" />
    <glyph glyph-name="semicolon" unicode=";" horiz-adv-x="150" 
d="M79 358q-17 0 -28.5 14.5t-11.5 34.5t11.5 34t28.5 14t28 -14.5t11 -33.5q0 -20 -11 -34.5t-28 -14.5zM6 -60q16 6 35 19.5t26 28.5q-11 6 -19 18t-8 31q0 20 11 35t28 15q18 0 29.5 -14.5t11.5 -39.5q0 -20 -9.5 -38.5t-24.5 -33.5t-34.5 -26.5t-38.5 -17.5z" />
    <glyph glyph-name="less" unicode="&#x3c;" horiz-adv-x="517" 
d="M54 311v44l393 155l19 -48l-331 -128l338 -133l-19 -50z" />
    <glyph glyph-name="equal" unicode="=" horiz-adv-x="517" 
d="M33 378v48h451v-48h-451zM33 197v49h451v-49h-451z" />
    <glyph glyph-name="greater" unicode="&#x3e;" horiz-adv-x="517" 
d="M73 151l-18 50l338 133l-332 128l20 48l393 -155v-44z" />
    <glyph glyph-name="question" unicode="?" horiz-adv-x="352" 
d="M140 192v30q0 45 21.5 77t48.5 63q17 19 31.5 37t25.5 37t17 39.5t6 45.5q0 51 -31 79t-85 28q-24 0 -44.5 -7.5t-38 -19.5t-31 -27t-24.5 -31l-37 26q11 18 27.5 36.5t38 33.5t49 24.5t61.5 9.5q83 0 126 -42t43 -113q0 -27 -7.5 -50t-19.5 -44.5t-28 -41.5l-33 -40
q-17 -19 -29 -34.5t-20 -30t-12 -28.5t-4 -31v-26h-51zM165 -11q-17 0 -28.5 14t-11.5 34t11.5 34t28.5 14q18 0 29 -14.5t11 -33.5t-11 -33.5t-29 -14.5z" />
    <glyph glyph-name="at" unicode="@" horiz-adv-x="770" 
d="M156 -42q-16 20 -33 51.5t-31 70.5t-23 84.5t-9 93.5q0 97 22.5 175.5t67 133t111 84t154.5 29.5q69 0 118 -17.5t80.5 -47t46 -68t14.5 -80.5v-485q0 -42 20 -61.5t54 -19.5q18 0 32 4t25 9l15 -42q-14 -7 -36 -12t-47 -5q-23 0 -44 7.5t-37 23t-25.5 39.5t-9.5 57v96
q-24 -20 -58.5 -35t-79.5 -15q-38 0 -70.5 14.5t-56.5 41.5t-37.5 65.5t-13.5 86.5q0 45 13.5 82.5t37 63.5t56.5 40.5t72 14.5q46 0 78.5 -12.5t58.5 -30.5v64q0 85 -56.5 130.5t-149.5 45.5q-78 0 -134.5 -27.5t-93 -77t-54.5 -119.5t-18 -155q0 -39 7 -77t18.5 -72.5
t26.5 -64.5t31 -53zM620 346q-25 17 -56.5 30t-74.5 13q-62 0 -95.5 -42.5t-33.5 -111.5q0 -32 8 -61t24 -51t40 -35t55 -13q42 0 76 16t57 37v218z" />
    <glyph glyph-name="A" unicode="A" horiz-adv-x="550" 
d="M0 0l253 667h41l256 -667h-57l-82 214h-275l-80 -214h-56zM154 264h239l-122 322z" />
    <glyph glyph-name="B" unicode="B" horiz-adv-x="520" 
d="M81 0v667h182q94 0 143.5 -42t49.5 -127q0 -60 -32.5 -96t-95.5 -48q72 -5 117 -46.5t45 -122.5q0 -43 -14 -77.5t-39 -58.5t-60 -36.5t-77 -12.5h-219zM136 376h120q71 0 107.5 34t36.5 91q0 61 -35 89t-101 28h-128v-242zM136 49h160q66 0 101.5 37t35.5 101
q0 75 -46.5 107t-127.5 32h-123v-277z" />
    <glyph glyph-name="C" unicode="C" horiz-adv-x="555" 
d="M531 118q-15 -28 -34.5 -52t-45 -41.5t-58 -27.5t-73.5 -10q-63 0 -113.5 24t-85.5 69t-53.5 108.5t-18.5 142.5q0 85 20.5 150t56 109t82.5 67t101 23q82 0 135 -37.5t82 -97.5l-46 -25q-11 21 -26 41t-36 35.5t-47 24.5t-58 9q-44 0 -82 -19.5t-66 -57.5t-43.5 -94
t-15.5 -129q0 -65 15.5 -119t43.5 -92.5t68 -60t88 -21.5q32 0 57.5 8.5t45.5 23t36 34t28 41.5z" />
    <glyph glyph-name="D" unicode="D" horiz-adv-x="602" 
d="M81 0v667h164q71 0 130 -20.5t101 -61t65 -101t23 -141.5q0 -87 -23 -151.5t-65 -107t-100.5 -63.5t-130.5 -21h-164zM135 49h100q60 0 110 16.5t86 52t56 90t20 131.5q0 71 -19 123t-54 86.5t-84.5 51.5t-110.5 17h-104v-568z" />
    <glyph glyph-name="E" unicode="E" horiz-adv-x="488" 
d="M81 0v667h374v-49h-319v-239h231v-50h-232v-280h340v-49h-394z" />
    <glyph glyph-name="F" unicode="F" horiz-adv-x="450" 
d="M81 0v667h368v-49h-313v-250h230v-49h-231v-319h-54z" />
    <glyph glyph-name="G" unicode="G" horiz-adv-x="587" 
d="M537 24q-34 -14 -88 -25.5t-117 -11.5t-115 22.5t-89.5 66t-58 107.5t-20.5 148t21.5 149t58 109.5t85.5 67.5t105 23q45 0 79 -10t60 -27t44 -40t32 -49l-45 -27q-11 21 -26.5 39.5t-36 33t-47.5 23t-60 8.5q-42 0 -80.5 -19t-68 -56.5t-47 -94t-17.5 -131.5
q0 -67 16.5 -121.5t46.5 -93.5t72 -60t92 -21q45 0 86 9t64 17v207h-126v50h180v-293z" />
    <glyph glyph-name="H" unicode="H" horiz-adv-x="635" 
d="M81 0v667h55v-297h363v297h55v-667h-55v320h-363v-320h-55z" />
    <glyph glyph-name="I" unicode="I" horiz-adv-x="217" 
d="M81 0v667h55v-667h-55z" />
    <glyph glyph-name="J" unicode="J" horiz-adv-x="220" 
d="M-39 -80q26 6 49 15t40 24t26.5 36.5t9.5 50.5v621h55v-622q0 -41 -13.5 -71t-36.5 -50.5t-54 -32.5t-66 -18z" />
    <glyph glyph-name="K" unicode="K" horiz-adv-x="541" 
d="M81 0v667h55v-324l317 324h66l-256 -263l276 -404h-65l-249 364l-89 -88v-276h-55z" />
    <glyph glyph-name="L" unicode="L" horiz-adv-x="466" 
d="M81 0v667h55v-618h322v-49h-377z" />
    <glyph glyph-name="M" unicode="M" horiz-adv-x="723" 
d="M81 0v667h70l217 -560l206 560h68v-667h-53v568l-214 -579h-12l-229 578v-567h-53z" />
    <glyph glyph-name="N" unicode="N" horiz-adv-x="647" 
d="M81 0v667h58l373 -561v561h54v-667h-48l-383 575v-575h-54z" />
    <glyph glyph-name="O" unicode="O" horiz-adv-x="643" 
d="M201 16q-51 30 -85 78.5t-50.5 111t-16.5 128.5q0 67 17.5 129.5t52 110.5t85.5 77t119 29q69 0 120 -29.5t84.5 -78t50 -111t16.5 -127.5t-16.5 -127.5t-50 -111t-84.5 -78.5t-120 -30q-70 0 -122 29zM159 130q27 -42 68 -68t96 -26t95 26.5t66.5 68.5t39.5 95.5
t13 107.5t-12.5 107t-39 95t-67 68.5t-95.5 26.5q-57 0 -98 -26t-67.5 -68.5t-39 -95.5t-12.5 -107t13 -107.5t40 -96.5z" />
    <glyph glyph-name="P" unicode="P" horiz-adv-x="518" 
d="M81 0v667h209q100 0 154.5 -49.5t54.5 -145.5q0 -48 -15.5 -84t-43 -60t-66 -36t-83.5 -12h-155v-280h-55zM136 330h155q70 0 110.5 37.5t40.5 103.5q0 69 -37.5 108t-114.5 39h-154v-288z" />
    <glyph glyph-name="Q" unicode="Q" horiz-adv-x="643" 
d="M499 -133q-38 3 -69.5 9.5t-58 20t-46.5 36t-33 56.5q-62 7 -107.5 38.5t-75.5 79t-45 106.5t-15 122q0 67 17.5 129.5t52 110.5t85.5 76.5t119 28.5q69 0 120 -29.5t84.5 -78t50 -110.5t16.5 -127q0 -61 -14.5 -120t-44 -106.5t-75 -79.5t-107.5 -40q14 -38 54 -54.5
t97 -19.5zM159 131q27 -42 68 -68.5t96 -26.5t95 26.5t66.5 69t39.5 96t13 107.5q0 53 -12.5 106t-39 95t-67 68.5t-95.5 26.5q-57 0 -98 -26t-67.5 -68t-39 -95t-12.5 -107t13 -107.5t40 -96.5z" />
    <glyph glyph-name="R" unicode="R" horiz-adv-x="537" 
d="M81 0v667h210q101 0 153.5 -47.5t52.5 -133.5t-48 -130t-128 -52l186 -304h-62l-186 302h-123v-302h-55zM136 351h152q75 0 114 33t39 102q0 64 -38 98t-113 34h-154v-267z" />
    <glyph glyph-name="S" unicode="S" horiz-adv-x="503" 
d="M77 130q29 -45 75 -69.5t101 -24.5q67 0 111 32t44 100q0 34 -13.5 59.5t-37.5 45t-56.5 34.5t-69.5 28q-31 11 -63 25.5t-58 36t-42.5 50.5t-16.5 69t16.5 71t44 51.5t65 31t79.5 10.5q76 0 126 -28.5t82 -73.5l-43 -33q-27 37 -68 61.5t-99 24.5q-30 0 -56.5 -7
t-46 -21t-31 -35t-11.5 -49q0 -29 14 -49.5t36 -36.5t50 -28t55 -22q39 -15 75 -32.5t64 -41.5t45 -57.5t17 -80.5q0 -93 -57.5 -138.5t-156.5 -45.5q-72 0 -128.5 28.5t-91.5 82.5z" />
    <glyph glyph-name="T" unicode="T" horiz-adv-x="476" 
d="M210 0v618h-206v49h468v-49h-207v-618h-55z" />
    <glyph glyph-name="U" unicode="U" horiz-adv-x="631" 
d="M131 237q0 -92 47.5 -146t136.5 -54q90 0 137.5 52.5t47.5 147.5v430h55v-445q0 -57 -19 -101t-51.5 -73.5t-76.5 -45t-94 -15.5q-51 0 -94.5 15.5t-75.5 45t-50 73.5t-18 101v445h55v-430z" />
    <glyph glyph-name="V" unicode="V" horiz-adv-x="550" 
d="M259 0l-253 667h58l212 -564l210 564h58l-251 -667h-34z" />
    <glyph glyph-name="W" unicode="W" horiz-adv-x="747" 
d="M175 0l-169 667h54l140 -544l158 544h31l160 -544l137 544h55l-168 -667h-37l-163 546l-162 -546h-36z" />
    <glyph glyph-name="X" unicode="X" horiz-adv-x="491" 
d="M6 0l207 340l-189 327h64l158 -281l157 281h62l-188 -321l208 -346h-66l-174 300l-178 -300h-61z" />
    <glyph glyph-name="Y" unicode="Y" horiz-adv-x="515" 
d="M226 0v321l-226 346h62l193 -295l200 295h60l-234 -345v-322h-55z" />
    <glyph glyph-name="Z" unicode="Z" horiz-adv-x="534" 
d="M39 0v51l392 567h-375v49h429v-55l-388 -563h403v-49h-461z" />
    <glyph glyph-name="bracketleft" unicode="[" horiz-adv-x="200" 
d="M72 -143v879h127v-44h-76v-790h76v-45h-127z" />
    <glyph glyph-name="backslash" unicode="\" horiz-adv-x="456" 
d="M412 -14l-412 744l43 26l413 -741z" />
    <glyph glyph-name="bracketright" unicode="]" horiz-adv-x="200" 
d="M2 -143v45h76v790h-76v44h126v-879h-126z" />
    <glyph glyph-name="asciicircum" unicode="^" horiz-adv-x="502" 
d="M64 317l163 352h46l165 -345l-46 -20l-143 301l-139 -307z" />
    <glyph glyph-name="underscore" unicode="_" horiz-adv-x="502" 
d="M0 -209v43h502v-43h-502z" />
    <glyph glyph-name="grave" unicode="`" horiz-adv-x="292" 
d="M45 674l37 40l165 -140l-24 -27z" />
    <glyph glyph-name="a" unicode="a" horiz-adv-x="454" 
d="M341 0l-4 41q-24 -24 -57.5 -38t-81.5 -14q-34 0 -63 9.5t-50.5 28t-33.5 46t-12 62.5q0 52 26.5 86.5t68.5 54.5t95 28t107 9v21q0 55 -28 83t-80 28q-38 0 -67.5 -16.5t-48.5 -38.5l-36 28q25 31 61 51t93 20q158 0 158 -160v-329h-47zM336 268q-41 -1 -84.5 -6
t-79 -19.5t-58 -40.5t-22.5 -68q0 -26 9.5 -45t25.5 -31.5t36.5 -18.5t41.5 -6q40 0 74 17t57 40v178z" />
    <glyph glyph-name="b" unicode="b" horiz-adv-x="508" 
d="M121 454q26 15 57 25t70 10q44 0 83 -15.5t68 -46.5t46 -77.5t17 -107.5q0 -58 -18 -105t-49.5 -80t-73.5 -50.5t-91 -17.5q-51 0 -92 9.5t-69 21.5v647h52v-213zM121 52q23 -9 50.5 -14.5t50.5 -5.5q42 0 77 15t59.5 43t38 66.5t13.5 85.5q0 48 -13 85.5t-36.5 63.5
t-55 40t-67.5 14q-32 0 -61.5 -10.5t-55.5 -29.5v-353z" />
    <glyph glyph-name="c" unicode="c" horiz-adv-x="455" 
d="M430 88q-25 -45 -68 -72t-104 -27q-45 0 -83.5 16.5t-67 48.5t-44.5 78t-16 106q0 63 17 110t45.5 78.5t66 47t79.5 15.5q37 0 64.5 -9.5t47 -24.5t33 -33t21.5 -36l-41 -24q-18 36 -47.5 59.5t-77.5 23.5q-35 0 -63.5 -15.5t-49 -43t-32 -65t-11.5 -82.5
q0 -47 11.5 -84.5t33 -64.5t51.5 -41.5t66 -14.5q84 0 130 79z" />
    <glyph glyph-name="d" unicode="d" horiz-adv-x="508" 
d="M394 0l-6 42q-23 -25 -56 -39t-78 -14q-48 0 -86.5 18t-65.5 51t-41.5 79.5t-14.5 103.5q0 54 16 99.5t45 78.5t69.5 51.5t90.5 18.5q45 0 73.5 -9.5t47.5 -21.5v209h52v-667h-46zM388 406q-17 16 -48.5 27.5t-66.5 11.5q-40 0 -72 -15.5t-55 -43t-35.5 -65t-12.5 -82.5
q0 -93 42.5 -149.5t119.5 -56.5q41 0 73.5 17t54.5 45v311z" />
    <glyph glyph-name="e" unicode="e" horiz-adv-x="486" 
d="M97 247q0 -101 43 -157.5t125 -56.5q51 0 84 24.5t54 61.5l38 -24q-12 -21 -27.5 -40t-37 -34t-49.5 -23.5t-64 -8.5q-102 0 -159 65.5t-57 184.5q0 58 15 104.5t42 78.5t64.5 49.5t82.5 17.5q48 0 84.5 -17.5t61.5 -49t38 -76.5t15 -99h-353zM391 291q-2 40 -15 69.5
t-32.5 48t-43.5 27.5t-49 9q-57 0 -98 -36.5t-52 -117.5h290z" />
    <glyph glyph-name="f" unicode="f" horiz-adv-x="263" 
d="M88 0v432h-71v44h71v56q0 76 34 112t92 36q35 0 57 -7t37 -15l-18 -43q-14 8 -32 14t-42 6q-35 0 -55.5 -22.5t-20.5 -84.5v-52h111v-44h-111v-432h-52z" />
    <glyph glyph-name="g" unicode="g" horiz-adv-x="502" 
d="M406 433q17 -17 29.5 -43.5t12.5 -61.5q0 -39 -16 -69.5t-43 -52t-63 -33t-76 -11.5q-20 0 -39 2.5t-31 5.5q-20 -5 -36.5 -15t-16.5 -27q0 -23 30 -33t102 -14q41 -2 78 -7t60 -12q48 -14 70 -42.5t22 -73.5q0 -72 -57.5 -109t-157.5 -37q-114 0 -174 35t-60 109
q0 45 22 73t55 44q-17 8 -30 22t-13 38q0 26 19 43t46 25q-14 8 -28.5 20t-26.5 28.5t-19.5 38.5t-7.5 51q0 38 15.5 68t42.5 51t62 32t74 11q38 0 66 -7.5t51 -19.5l59 64l35 -31zM108 327q0 -55 39 -88t101 -33q27 0 53.5 6.5t48 21.5t34.5 39t13 58q0 30 -13.5 52
t-34.5 35.5t-46.5 20t-50.5 6.5q-28 0 -54 -8t-46 -23t-32 -37t-12 -50zM204 41q-28 3 -43 6q-30 -11 -51.5 -35.5t-21.5 -62.5q0 -29 13.5 -49.5t38 -33t58.5 -18.5t75 -6q77 0 122.5 25t45.5 75q0 49 -37 68q-17 11 -52.5 16.5t-93.5 9.5q-26 2 -54 5z" />
    <glyph glyph-name="h" unicode="h" horiz-adv-x="519" 
d="M69 0v667h52v-232q29 23 66.5 38.5t88.5 15.5q93 0 135 -47t42 -138v-304h-53v303q0 75 -33.5 108t-98.5 33q-44 0 -80.5 -17.5t-66.5 -40.5v-386h-52z" />
    <glyph glyph-name="i" unicode="i" horiz-adv-x="191" 
d="M95 578q-15 0 -25.5 13t-10.5 32t10.5 31.5t25.5 12.5q16 0 27 -12.5t11 -31.5q0 -20 -11 -32.5t-27 -12.5zM69 0v476h53v-476h-53z" />
    <glyph glyph-name="j" unicode="j" horiz-adv-x="189" 
d="M93 578q-16 0 -26.5 13t-10.5 32t10.5 31.5t26.5 12.5q15 0 26 -12.5t11 -31.5q0 -20 -11 -32.5t-26 -12.5zM-11 -157q43 27 60.5 63t17.5 91v479h53v-479q0 -74 -26.5 -118.5t-78.5 -74.5z" />
    <glyph glyph-name="k" unicode="k" horiz-adv-x="455" 
d="M69 0v667h52v-396l218 205h67l-161 -154l211 -322h-62l-188 286l-85 -79v-207h-52z" />
    <glyph glyph-name="l" unicode="l" horiz-adv-x="190" 
d="M69 0v667h52v-667h-52z" />
    <glyph glyph-name="m" unicode="m" horiz-adv-x="794" 
d="M69 0v476h48l3 -44q24 20 62 38.5t88 18.5q45 0 76.5 -14.5t51.5 -42.5q27 23 66.5 40t93.5 17q88 0 129.5 -48.5t41.5 -138.5v-302h-53v306q0 68 -32.5 102.5t-91.5 34.5q-43 0 -77 -16t-58 -36q6 -15 10 -36.5t4 -47.5v-307h-53v311q0 28 -6.5 52t-20.5 42t-36.5 28
t-53.5 10q-41 0 -77.5 -20t-62.5 -42v-381h-52z" />
    <glyph glyph-name="n" unicode="n" horiz-adv-x="521" 
d="M69 0v476h48l4 -44q30 23 67.5 40t91.5 17q175 0 175 -190v-299h-52v304q0 66 -32 103t-98 37q-48 0 -85.5 -19t-66.5 -43v-382h-52z" />
    <glyph glyph-name="o" unicode="o" horiz-adv-x="519" 
d="M167 10q-39 22 -66 57t-40.5 81t-13.5 94t13.5 92.5t40 79t66 55t92.5 20.5q52 0 92 -21t67 -55.5t40.5 -79.5t13.5 -93q0 -49 -13.5 -94.5t-40.5 -80t-67 -55.5t-92 -21t-92 21zM139 98q20 -29 50 -47t70 -18q41 0 71 18.5t50 48t30 66.5t10 75t-10 74.5t-30 65.5
t-50 46.5t-71 17.5t-71 -17.5t-50 -46t-29.5 -65t-9.5 -74.5q0 -39 10 -76.5t30 -67.5z" />
    <glyph glyph-name="p" unicode="p" horiz-adv-x="507" 
d="M69 -189v665h47l5 -40q24 21 57.5 37t81.5 16q50 0 88 -18t63 -50.5t37.5 -77.5t12.5 -100q0 -57 -16 -104t-46 -80.5t-72 -51.5t-93 -18q-38 0 -65.5 8.5t-47.5 20.5v-207h-52zM121 68q19 -14 46 -24t62 -10q40 0 73.5 14.5t57 41t36.5 65t13 86.5q0 42 -9 79
t-28.5 64.5t-49.5 44t-73 16.5q-39 0 -71 -17.5t-57 -41.5v-318z" />
    <glyph glyph-name="q" unicode="q" horiz-adv-x="509" 
d="M388 -189v214q-21 -14 -53.5 -25t-77.5 -11t-83.5 17t-67 49t-44.5 78t-16 105q0 57 18 103t50 79t76 51t97 18q47 0 87 -6t66 -12v-660h-52zM388 432q-19 5 -44 9t-54 4q-38 0 -73 -14t-61 -40.5t-41.5 -65.5t-15.5 -89t14 -87.5t37.5 -63.5t54.5 -39t65 -13
q37 0 68.5 14t49.5 30v355z" />
    <glyph glyph-name="r" unicode="r" horiz-adv-x="300" 
d="M69 0v476h47l4 -48q21 25 51.5 42.5t66.5 17.5q20 0 35.5 -2t25.5 -5l-9 -49q-22 8 -56 8q-32 0 -62.5 -20t-50.5 -44v-376h-52z" />
    <glyph glyph-name="s" unicode="s" horiz-adv-x="388" 
d="M76 99q19 -30 48.5 -48t74.5 -18q51 0 80.5 22t29.5 66q0 46 -30 71.5t-97 48.5q-69 23 -98 52t-29 79q0 52 39 84.5t108 32.5q56 0 92 -20.5t57 -53.5l-39 -28q-17 25 -44.5 42t-65.5 17q-48 0 -71.5 -20.5t-23.5 -51.5q0 -18 5.5 -31t19 -24t37 -21.5t58.5 -22.5
q67 -23 99.5 -57t32.5 -94q0 -66 -45.5 -100.5t-114.5 -34.5q-66 0 -104.5 24.5t-59.5 59.5z" />
    <glyph glyph-name="t" unicode="t" horiz-adv-x="298" 
d="M150 101q0 -38 15.5 -53t42.5 -15q19 0 33 5.5t28 16.5l22 -38q-20 -14 -39.5 -21t-54.5 -7q-45 0 -71.5 26.5t-26.5 77.5v339h-82v44h82v128h52v-128h125v-44h-126v-331z" />
    <glyph glyph-name="u" unicode="u" horiz-adv-x="518" 
d="M118 169q0 -72 35.5 -103.5t95.5 -31.5q45 0 83 18.5t64 47.5v376h53v-476h-47l-4 47q-27 -23 -63 -40.5t-93 -17.5q-84 0 -130.5 43.5t-46.5 136.5v307h53v-307z" />
    <glyph glyph-name="v" unicode="v" horiz-adv-x="424" 
d="M185 0l-185 476h57l157 -413l156 413h54l-183 -476h-56z" />
    <glyph glyph-name="w" unicode="w" horiz-adv-x="650" 
d="M157 0l-157 476h55l124 -392l126 392h36l126 -392l127 392h56l-161 -476h-42l-124 384l-125 -384h-41z" />
    <glyph glyph-name="x" unicode="x" horiz-adv-x="381" 
d="M0 0l163 243l-155 233h57l127 -191l124 191h56l-152 -233l160 -243h-56l-132 202l-134 -202h-58z" />
    <glyph glyph-name="y" unicode="y" horiz-adv-x="436" 
d="M20 -141q13 -5 31 -10.5t34 -5.5q25 0 39 11t26 41l42 105l-192 476h59l161 -407l160 407h56l-243 -605q-17 -41 -43 -57t-63 -16q-23 0 -45.5 4.5t-37.5 11.5z" />
    <glyph glyph-name="z" unicode="z" horiz-adv-x="451" 
d="M41 0v52l303 380h-292v44h347v-53l-303 -379h310v-44h-365z" />
    <glyph glyph-name="braceleft" unicode="{" horiz-adv-x="234" 
d="M219 -63q-51 1 -81.5 28t-30.5 92v150q0 56 -20.5 79t-63.5 29v37q43 7 63.5 29.5t20.5 79.5v150q0 65 30.5 91.5t81.5 28.5l4 -38q-45 -2 -57.5 -25.5t-12.5 -65.5v-141q0 -55 -17 -85t-66 -43q49 -13 66 -42t17 -84v-141q0 -41 12.5 -65t57.5 -27z" />
    <glyph glyph-name="bar" unicode="|" horiz-adv-x="204" 
d="M77 -74v812h50v-812h-50z" />
    <glyph glyph-name="braceright" unicode="}" horiz-adv-x="235" 
d="M12 -26q43 3 56 27t13 65v141q0 27 4 48t13.5 36t25.5 25.5t41 16.5q-50 13 -67 43t-17 85v141q0 41 -13 65t-56 26l4 38q51 -2 81.5 -28.5t30.5 -91.5v-150q0 -29 5 -48t15.5 -31.5t26 -19.5t37.5 -10v-37q-44 -6 -64 -29t-20 -79v-150q0 -65 -30.5 -92t-81.5 -28z" />
    <glyph glyph-name="asciitilde" unicode="~" horiz-adv-x="435" 
d="M5 525q8 60 42.5 91.5t85.5 31.5q42 0 69.5 -17.5t51.5 -36.5q15 -11 29 -19t31 -8q35 0 50 23.5t20 58.5h45q-2 -33 -12.5 -56.5t-26.5 -39.5t-36 -23.5t-41 -7.5q-32 0 -56 14.5t-46 31.5q-19 14 -38 24.5t-42 10.5q-32 0 -54.5 -20t-27.5 -58h-44z" />
    <glyph glyph-name="uni00A0" unicode="&#xa0;" horiz-adv-x="200" 
 />
    <glyph glyph-name="exclamdown" unicode="&#xa1;" horiz-adv-x="176" 
d="M88 393q-18 0 -29 14t-11 34q0 19 11 33.5t29 14.5q17 0 28.5 -14t11.5 -34t-11.5 -34t-28.5 -14zM60 -194v457h53v-457h-53z" />
    <glyph glyph-name="cent" unicode="&#xa2;" horiz-adv-x="517" 
d="M250 -4v145q-70 12 -112.5 61.5t-42.5 134.5q0 41 12.5 74t33.5 56.5t49 37.5t60 19v143h41v-143q36 -1 64.5 -14.5t46.5 -30.5l-27 -35q-37 34 -84 35v-293q48 3 82 34l24 -37q-20 -18 -47 -29.5t-59 -13.5v-144h-41zM250 478q-43 -5 -72.5 -40.5t-29.5 -100.5
q0 -67 28 -102.5t74 -46.5v290z" />
    <glyph glyph-name="sterling" unicode="&#xa3;" horiz-adv-x="517" 
d="M105 0v258h-70v47h69v169q0 99 46 149t130 50q33 0 58.5 -8t45 -21.5t34.5 -33t26 -41.5l-51 -24q-14 31 -41 54.5t-73 23.5q-61 0 -92 -37.5t-31 -115.5v-165h221v-47h-221v-210h295v-48h-346z" />
    <glyph glyph-name="currency" unicode="&#xa4;" horiz-adv-x="668" 
d="M17 67l156 164q-48 67 -48 139q0 68 44 135l-152 157l39 35l147 -156q67 51 136 51q35 0 66.5 -11t63.5 -36l143 152l39 -35l-146 -151q25 -35 36.5 -69t11.5 -72t-12.5 -74t-39.5 -71l150 -159l-34 -32l-150 158q-33 -23 -64 -33.5t-64 -10.5q-68 0 -132 48l-156 -162z
M221 246q23 -23 53 -36.5t65 -13.5q34 0 64.5 13.5t53 37t35.5 55t13 67.5t-13 67.5t-35.5 55.5t-53 37.5t-64.5 13.5q-35 0 -65 -13.5t-52.5 -37.5t-35.5 -55.5t-13 -67.5t13 -67.5t35 -55.5z" />
    <glyph glyph-name="yen" unicode="&#xa5;" horiz-adv-x="517" 
d="M222 0v217h-153v47h153v51l-28 48h-125v47h98l-146 249h61l169 -295l178 295h58l-153 -249h95v-47h-123l-29 -47v-52h151v-47h-151v-217h-55z" />
    <glyph glyph-name="brokenbar" unicode="&#xa6;" horiz-adv-x="204" 
d="M77 462v276h50v-276h-50zM77 -74v275h50v-275h-50z" />
    <glyph glyph-name="section" unicode="&#xa7;" horiz-adv-x="421" 
d="M92 -52q20 -23 46.5 -37t58.5 -14q47 0 73.5 20.5t26.5 58.5q0 19 -5.5 35t-20 33t-39 37.5t-63.5 47.5q-54 39 -79.5 74t-25.5 83q0 57 35 89.5t89 47.5l-34.5 32t-29.5 33.5t-20.5 38t-7.5 45.5q0 49 36.5 78.5t96.5 29.5q45 0 75 -16t47 -36l-29 -31q-16 18 -39 30
t-56 12q-39 0 -61 -17.5t-22 -50.5q0 -18 7.5 -34.5t21.5 -33.5t34 -35.5t46 -40.5q34 -30 56.5 -52.5t35 -42t17.5 -39.5t5 -44q0 -52 -32 -83t-77 -47q24 -19 41 -35t27.5 -32t15.5 -33.5t5 -38.5q0 -28 -11.5 -51t-32 -39t-47 -25t-56.5 -9q-47 0 -79 15.5t-58 41.5z
M178 179l46 -35q42 13 68.5 37.5t26.5 65.5q0 20 -5 37t-17 34.5t-31 36t-46 40.5q-46 -11 -77 -36t-31 -72q0 -22 8 -40t23 -34.5t35 -33.5z" />
    <glyph glyph-name="dieresis" unicode="&#xa8;" horiz-adv-x="236" 
d="M198 601q-16 0 -27.5 12.5t-11.5 31.5q0 18 11.5 31t27.5 13t27 -13t11 -31q0 -19 -11 -31.5t-27 -12.5zM39 601q-16 0 -27.5 12.5t-11.5 31.5q0 18 11.5 31t27.5 13t27 -13t11 -31q0 -19 -11 -31.5t-27 -12.5z" />
    <glyph glyph-name="copyright" unicode="&#xa9;" horiz-adv-x="776" 
d="M242 -47q-64 30 -109 81.5t-68.5 119.5t-23.5 143t23.5 142.5t68.5 118.5t109.5 81t145.5 30t145.5 -30t109.5 -81t68.5 -118.5t23.5 -142.5t-23.5 -143t-68.5 -119.5t-109.5 -81.5t-145.5 -30t-146 30zM166 67q39 -46 95 -74t127 -28t127 28t94.5 74t59 106t20.5 124
t-20.5 124t-59 106t-94.5 73.5t-127 27.5t-127 -27.5t-94.5 -73.5t-59 -106t-20.5 -124t20.5 -124t58.5 -106zM530 148q-22 -34 -53.5 -54.5t-82.5 -20.5q-36 0 -68 13t-56 40t-38 69t-14 100t14 101t38.5 71t56.5 41.5t68 13.5q51 0 83.5 -23.5t49.5 -53.5l-36 -21
q-16 26 -37.5 42t-61.5 16q-57 0 -93 -48t-36 -139q0 -88 37.5 -135t93.5 -47q35 0 59.5 16.5t41.5 43.5z" />
    <glyph glyph-name="ordfeminine" unicode="&#xaa;" horiz-adv-x="319" 
d="M243 373l-2 29q-14 -13 -38.5 -25.5t-56.5 -12.5q-23 0 -44.5 7t-37.5 20.5t-25.5 33.5t-9.5 47q0 36 17.5 61.5t47 41.5t67 23.5t78.5 7.5v18q0 37 -21.5 55t-53.5 18q-51 0 -83 -40l-31 22q17 24 46 40.5t71 16.5q57 0 87.5 -30.5t30.5 -93.5v-239h-42zM239 567
q-31 0 -60.5 -5t-52.5 -16.5t-37 -29.5t-14 -44q0 -35 21.5 -51.5t52.5 -16.5q29 0 51.5 12t38.5 29v122z" />
    <glyph glyph-name="guillemotleft" unicode="&#xab;" horiz-adv-x="464" 
d="M209 251l180 195l34 -30l-144 -162l156 -159l-32 -31zM30 251l178 199l35 -30l-146 -166l162 -164l-34 -31z" />
    <glyph glyph-name="logicalnot" unicode="&#xac;" horiz-adv-x="517" 
d="M31 366v49h450v-302h-50v253h-400z" />
    <glyph glyph-name="uni00AD" unicode="&#xad;" horiz-adv-x="302" 
d="M45 239v52h212v-52h-212z" />
    <glyph glyph-name="registered" unicode="&#xae;" horiz-adv-x="776" 
d="M242 -47q-64 30 -109 81.5t-68.5 119.5t-23.5 143t23.5 142.5t68.5 118.5t109.5 81t145.5 30t145.5 -30t109.5 -81t68.5 -118.5t23.5 -142.5t-23.5 -143t-68.5 -119.5t-109.5 -81.5t-145.5 -30t-146 30zM166 67q39 -46 95 -74t127 -28t127 28t94.5 74t59 106t20.5 124
t-20.5 124t-59 106t-94.5 73.5t-127 27.5t-127 -27.5t-94.5 -73.5t-59 -106t-20.5 -124t20.5 -124t58.5 -106zM264 84v433h135q65 0 101 -31t36 -86q0 -29 -8 -50t-22.5 -35t-33.5 -22.5t-40 -12.5l112 -196h-51l-109 193h-77v-193h-43zM307 317h89q45 0 70 19t25 64
q0 39 -24 59t-67 20h-93v-162z" />
    <glyph glyph-name="macron" unicode="&#xaf;" horiz-adv-x="346" 
d="M30 612v45h286v-45h-286z" />
    <glyph glyph-name="degree" unicode="&#xb0;" horiz-adv-x="356" 
d="M125 398q-25 11 -43.5 30.5t-29.5 44.5t-11 54q0 28 11 53t29.5 44.5t43.5 31t53 11.5t53 -11t44 -30.5t29.5 -45t10.5 -53.5q0 -29 -10.5 -54t-29.5 -44.5t-44 -30.5t-53 -11t-53 11zM91 489q8 -17 21 -30t30 -20.5t36 -7.5q21 0 38 8t30 21t20 30.5t7 36.5t-7 36.5
t-19.5 31t-30 21.5t-38.5 8q-40 0 -67 -28t-27 -69q0 -20 7 -38z" />
    <glyph glyph-name="plusminus" unicode="&#xb1;" horiz-adv-x="517" 
d="M235 117v221h-201v49h201v222h49v-222h200v-49h-200v-221h-49zM32 0v48h452v-48h-452z" />
    <glyph glyph-name="twosuperior" unicode="&#xb2;" 
d="M39 337v27l56 54.5t51 53.5t40.5 55t14.5 52q0 25 -15 40t-43 15q-26 0 -43.5 -12t-32.5 -37l-36 20q18 29 43.5 48.5t71.5 19.5q51 0 76.5 -24t25.5 -65q0 -38 -19 -68.5t-46 -61.5q-16 -18 -39 -40.5l-40 -38.5h153v-38h-218z" />
    <glyph glyph-name="threesuperior" unicode="&#xb3;" 
d="M63 412q14 -20 32 -31t45 -11q32 0 51 15.5t19 41.5q0 32 -23.5 47.5t-58.5 16.5v33q32 3 54 17.5t22 40.5q0 23 -17.5 38t-47.5 15q-43 0 -70 -41l-33 22q18 27 45.5 42t63.5 15q45 0 75.5 -24t30.5 -64q0 -28 -17 -47t-43 -29q29 -8 47 -27t18 -54q0 -46 -33.5 -71
t-81.5 -25q-77 0 -114 59z" />
    <glyph glyph-name="acute" unicode="&#xb4;" horiz-adv-x="292" 
d="M70 547l-24 29l165 140l36 -42z" />
    <glyph glyph-name="mu" unicode="&#xb5;" horiz-adv-x="556" 
d="M80 -189v665h53v-300q0 -33 10.5 -59.5t28.5 -45t42.5 -28.5t53.5 -10q28 0 51.5 7t41.5 19t30 27t18 31q5 14 6 31.5t1 34.5v293h53v-372q0 -34 6.5 -52.5t32.5 -18.5q8 0 15 2l14 4l8 -41q-9 -4 -21.5 -6.5t-23.5 -2.5q-35 0 -55 18t-25 51q-26 -31 -62.5 -50
t-90.5 -19q-46 0 -81.5 18t-54.5 52v-248h-51z" />
    <glyph glyph-name="paragraph" unicode="&#xb6;" horiz-adv-x="478" 
d="M363 -145v812h50v-812h-50zM227 -145v434q-42 0 -78 15t-62 40.5t-40.5 60t-14.5 73.5t14.5 73.5t39 60t58 40.5t71.5 15h61v-812h-49z" />
    <glyph glyph-name="periodcentered" unicode="&#xb7;" horiz-adv-x="273" 
d="M136 317q-20 0 -33 15.5t-13 36.5t13 36.5t33 15.5t33.5 -15.5t13.5 -36.5t-13.5 -36.5t-33.5 -15.5z" />
    <glyph glyph-name="cedilla" unicode="&#xb8;" horiz-adv-x="239" 
d="M2 -174l51 130h61l-71 -130h-41z" />
    <glyph glyph-name="onesuperior" unicode="&#xb9;" 
d="M139 337v281l-80 -46l-20 34l104 61h42v-330h-46z" />
    <glyph glyph-name="ordmasculine" unicode="&#xba;" horiz-adv-x="371" 
d="M117 382q-29 16 -48.5 42.5t-29.5 60.5t-10 69t9.5 68.5t29 59t49 41t68.5 15.5t68.5 -15.5t49 -41.5t29.5 -59t10 -69q0 -35 -10 -68.5t-29.5 -60t-49 -42.5t-68.5 -16q-38 0 -68 16zM102 452q14 -21 34.5 -34t48.5 -13t49 13t34.5 34t20.5 47.5t7 54.5q0 27 -7 53.5
t-20.5 46.5t-34.5 32.5t-49 12.5t-49 -12.5t-34.5 -32.5t-20 -46.5t-6.5 -53.5q0 -28 7 -54.5t20 -47.5z" />
    <glyph glyph-name="guillemotright" unicode="&#xbb;" horiz-adv-x="464" 
d="M216 90l151 164l-156 166l35 30l188 -195l-185 -196zM68 62l-33 33l151 159l-152 161l34 29l186 -189z" />
    <glyph glyph-name="onequarter" unicode="&#xbc;" horiz-adv-x="725" 
d="M67 -5l-30 34l618 641l32 -32zM140 337v281l-80 -46l-20 34l104 61h42v-330h-46zM428 93v37l176 201h37v-203h43v-35h-43v-90h-45v90h-168zM475 128h121v139z" />
    <glyph glyph-name="onehalf" unicode="&#xbd;" horiz-adv-x="725" 
d="M56 -5l-30 34l618 641l32 -32zM142 337v281l-80 -46l-20 34l104 61h42v-330h-46zM460 3v27l56 54.5t51 53.5t40.5 55t14.5 52q0 25 -15 40t-43 15q-26 0 -43.5 -12t-32.5 -37l-36 20q18 29 43.5 48.5t71.5 19.5q51 0 76.5 -24t25.5 -65q0 -38 -19 -68.5t-46 -61.5
q-16 -18 -39 -40.5l-40 -38.5h153v-38h-218z" />
    <glyph glyph-name="threequarters" unicode="&#xbe;" horiz-adv-x="725" 
d="M90 -5l-30 34l618 641l32 -32zM79 412q14 -20 32 -31t45 -11q32 0 51 15.5t19 41.5q0 32 -23.5 47.5t-58.5 16.5v33q32 3 54 17.5t22 40.5q0 23 -17.5 38t-47.5 15q-43 0 -70 -41l-33 22q18 27 45.5 42t63.5 15q45 0 75.5 -24t30.5 -64q0 -28 -17 -47t-43 -29
q29 -8 47 -27t18 -54q0 -46 -33.5 -71t-81.5 -25q-77 0 -114 59zM422 93v37l176 201h37v-203h43v-35h-43v-90h-45v90h-168zM469 128h121v139z" />
    <glyph glyph-name="questiondown" unicode="&#xbf;" horiz-adv-x="352" 
d="M187 393q-18 0 -29 14t-11 34q0 19 11 33.5t29 14.5q17 0 28.5 -14t11.5 -34t-11.5 -34t-28.5 -14zM353 -99q-11 -18 -27.5 -36t-38 -33t-49.5 -24.5t-62 -9.5q-81 0 -124.5 42t-43.5 113q0 53 25.5 96.5t62.5 82.5q18 19 30.5 34.5t20 29t11 27t3.5 30.5v26h51v-30
q0 -45 -21 -78t-49 -62q-20 -21 -34.5 -39t-25 -36.5t-15.5 -38.5t-5 -45q0 -51 31 -79t85 -28q24 0 44.5 7.5t37.5 19.5t30.5 27t24.5 31z" />
    <glyph glyph-name="Agrave" unicode="&#xc0;" horiz-adv-x="550" 
d="M0 0l253 667h41l256 -667h-57l-82 214h-275l-80 -214h-56zM154 264h239l-122 322zM155 838l37 40l165 -140l-24 -27z" />
    <glyph glyph-name="Aacute" unicode="&#xc1;" horiz-adv-x="550" 
d="M0 0l253 667h41l256 -667h-57l-82 214h-275l-80 -214h-56zM154 264h239l-122 322zM204 711l-24 29l165 140l36 -42z" />
    <glyph glyph-name="Acircumflex" unicode="&#xc2;" horiz-adv-x="550" 
d="M0 0l253 667h41l256 -667h-57l-82 214h-275l-80 -214h-56zM154 264h239l-122 322zM130 732l125 150h40l123 -150l-33 -23l-110 130l-111 -130z" />
    <glyph glyph-name="Atilde" unicode="&#xc3;" horiz-adv-x="550" 
d="M0 0l253 667h41l256 -667h-57l-82 214h-275l-80 -214h-56zM154 264h239l-122 322zM103 765q14 35 38.5 57.5t57.5 22.5q20 0 40 -9.5t39 -20.5l25.5 -15.5t28.5 -8.5q35 0 61 53l36 -17q-15 -38 -39 -58.5t-58 -20.5q-16 0 -33.5 8.5t-36.5 19.5l-32.5 18.5t-29.5 7.5
q-34 0 -61 -55z" />
    <glyph glyph-name="Adieresis" unicode="&#xc4;" horiz-adv-x="550" 
d="M0 0l253 667h41l256 -667h-57l-82 214h-275l-80 -214h-56zM154 264h239l-122 322zM351 766q-16 0 -27.5 12.5t-11.5 31.5q0 18 11.5 31t27.5 13t27 -13t11 -31q0 -19 -11 -31.5t-27 -12.5zM192 766q-16 0 -27.5 12.5t-11.5 31.5q0 18 11.5 31t27.5 13t27 -13t11 -31
q0 -19 -11 -31.5t-27 -12.5z" />
    <glyph glyph-name="Aring" unicode="&#xc5;" horiz-adv-x="551" 
d="M1 0l251 663q-27 6 -45 27q-25 30 -25 69q0 40 25 69.5t69 29.5q43 0 68 -29.5t25 -68.5q0 -20 -6.5 -37.5t-18.5 -31.5t-30 -22q-8 -4 -18 -6l255 -663h-57l-82 214h-275l-80 -214h-56zM155 264h239l-122 322zM335 760q0 26 -16.5 46t-42.5 20q-27 0 -43.5 -20
t-16.5 -46t16.5 -46.5t43.5 -20.5q26 0 42.5 20t16.5 46v1z" />
    <glyph glyph-name="AE" unicode="&#xc6;" horiz-adv-x="828" 
d="M0 0l403 667h393v-49h-312v-239h223v-50h-223v-280h331v-49h-386v217h-237l-132 -217h-60zM221 267h208v347z" />
    <glyph glyph-name="Ccedilla" unicode="&#xc7;" horiz-adv-x="555" 
d="M531 118q-15 -28 -34.5 -52t-45 -41.5t-58 -27.5t-73.5 -10q-63 0 -113.5 24t-85.5 69t-53.5 108.5t-18.5 142.5q0 85 20.5 150t56 109t82.5 67t101 23q82 0 135 -37.5t82 -97.5l-46 -25q-11 21 -26 41t-36 35.5t-47 24.5t-58 9q-44 0 -82 -19.5t-66 -57.5t-43.5 -94
t-15.5 -129q0 -65 15.5 -119t43.5 -92.5t68 -60t88 -21.5q32 0 57.5 8.5t45.5 23t36 34t28 41.5zM243 -174l51 130h61l-71 -130h-41z" />
    <glyph glyph-name="Egrave" unicode="&#xc8;" horiz-adv-x="488" 
d="M81 0v667h374v-49h-319v-239h231v-50h-232v-280h340v-49h-394zM151 838l37 40l165 -140l-24 -27z" />
    <glyph glyph-name="Eacute" unicode="&#xc9;" horiz-adv-x="488" 
d="M81 0v667h374v-49h-319v-239h231v-50h-232v-280h340v-49h-394zM203 711l-24 29l165 140l36 -42z" />
    <glyph glyph-name="Ecircumflex" unicode="&#xca;" horiz-adv-x="488" 
d="M81 0v667h374v-49h-319v-239h231v-50h-232v-280h340v-49h-394zM121 732l125 150h40l123 -150l-33 -23l-110 130l-111 -130z" />
    <glyph glyph-name="Edieresis" unicode="&#xcb;" horiz-adv-x="488" 
d="M81 0v667h374v-49h-319v-239h231v-50h-232v-280h340v-49h-394zM348 774q-16 0 -27.5 12.5t-11.5 31.5q0 18 11.5 31t27.5 13t27 -13t11 -31q0 -19 -11 -31.5t-27 -12.5zM189 774q-16 0 -27.5 12.5t-11.5 31.5q0 18 11.5 31t27.5 13t27 -13t11 -31q0 -19 -11 -31.5
t-27 -12.5z" />
    <glyph glyph-name="Igrave" unicode="&#xcc;" horiz-adv-x="217" 
d="M81 0v667h55v-667h-55zM3 838l37 40l165 -140l-24 -27z" />
    <glyph glyph-name="Iacute" unicode="&#xcd;" horiz-adv-x="217" 
d="M81 0v667h55v-667h-55zM44 711l-24 29l165 140l36 -42z" />
    <glyph glyph-name="Icircumflex" unicode="&#xce;" horiz-adv-x="217" 
d="M81 0v667h55v-667h-55zM-31 732l125 150h40l123 -150l-33 -23l-110 130l-111 -130z" />
    <glyph glyph-name="Idieresis" unicode="&#xcf;" horiz-adv-x="217" 
d="M81 0v667h55v-667h-55zM192 765q-16 0 -27.5 12.5t-11.5 31.5q0 18 11.5 31t27.5 13t27 -13t11 -31q0 -19 -11 -31.5t-27 -12.5zM33 765q-16 0 -27.5 12.5t-11.5 31.5q0 18 11.5 31t27.5 13t27 -13t11 -31q0 -19 -11 -31.5t-27 -12.5z" />
    <glyph glyph-name="Eth" unicode="&#xd0;" horiz-adv-x="606" 
d="M81 0v331h-79v47h79v289h164q45 0 88 -8.5t78 -26.5q72 -36 112.5 -108.5t40.5 -180.5q0 -134 -53.5 -216t-147.5 -111q-26 -8 -56.5 -12t-61.5 -4h-164zM135 49h113q26 2 49 4.5t44 9.5q76 26 121 93t45 183q0 88 -28.5 146.5t-80.5 91.5q-32 20 -73 30t-86 10h-104
v-239h166v-47h-166v-282z" />
    <glyph glyph-name="Ntilde" unicode="&#xd1;" horiz-adv-x="647" 
d="M81 0v667h58l373 -561v561h54v-667h-48l-383 575v-575h-54zM167 765q14 35 38.5 57.5t57.5 22.5q20 0 40 -9.5t39 -20.5l25.5 -15.5t28.5 -8.5q35 0 61 53l36 -17q-15 -38 -39 -58.5t-58 -20.5q-16 0 -33.5 8.5t-36.5 19.5l-32.5 18.5t-29.5 7.5q-34 0 -61 -55z" />
    <glyph glyph-name="Ograve" unicode="&#xd2;" horiz-adv-x="643" 
d="M201 16q-51 30 -85 78.5t-50.5 111t-16.5 128.5q0 67 17.5 129.5t52 110.5t85.5 77t119 29q69 0 120 -29.5t84.5 -78t50 -111t16.5 -127.5t-16.5 -127.5t-50 -111t-84.5 -78.5t-120 -30q-70 0 -122 29zM159 130q27 -42 68 -68t96 -26t95 26.5t66.5 68.5t39.5 95.5
t13 107.5t-12.5 107t-39 95t-67 68.5t-95.5 26.5q-57 0 -98 -26t-67.5 -68.5t-39 -95.5t-12.5 -107t13 -107.5t40 -96.5zM218 838l37 40l165 -140l-24 -27z" />
    <glyph glyph-name="Oacute" unicode="&#xd3;" horiz-adv-x="643" 
d="M201 16q-51 30 -85 78.5t-50.5 111t-16.5 128.5q0 67 17.5 129.5t52 110.5t85.5 77t119 29q69 0 120 -29.5t84.5 -78t50 -111t16.5 -127.5t-16.5 -127.5t-50 -111t-84.5 -78.5t-120 -30q-70 0 -122 29zM159 130q27 -42 68 -68t96 -26t95 26.5t66.5 68.5t39.5 95.5
t13 107.5t-12.5 107t-39 95t-67 68.5t-95.5 26.5q-57 0 -98 -26t-67.5 -68.5t-39 -95.5t-12.5 -107t13 -107.5t40 -96.5zM249 711l-24 29l165 140l36 -42z" />
    <glyph glyph-name="Ocircumflex" unicode="&#xd4;" horiz-adv-x="643" 
d="M201 16q-51 30 -85 78.5t-50.5 111t-16.5 128.5q0 67 17.5 129.5t52 110.5t85.5 77t119 29q69 0 120 -29.5t84.5 -78t50 -111t16.5 -127.5t-16.5 -127.5t-50 -111t-84.5 -78.5t-120 -30q-70 0 -122 29zM159 130q27 -42 68 -68t96 -26t95 26.5t66.5 68.5t39.5 95.5
t13 107.5t-12.5 107t-39 95t-67 68.5t-95.5 26.5q-57 0 -98 -26t-67.5 -68.5t-39 -95.5t-12.5 -107t13 -107.5t40 -96.5zM178 732l125 150h40l123 -150l-33 -23l-110 130l-111 -130z" />
    <glyph glyph-name="Otilde" unicode="&#xd5;" horiz-adv-x="643" 
d="M201 16q-51 30 -85 78.5t-50.5 111t-16.5 128.5q0 67 17.5 129.5t52 110.5t85.5 77t119 29q69 0 120 -29.5t84.5 -78t50 -111t16.5 -127.5t-16.5 -127.5t-50 -111t-84.5 -78.5t-120 -30q-70 0 -122 29zM159 130q27 -42 68 -68t96 -26t95 26.5t66.5 68.5t39.5 95.5
t13 107.5t-12.5 107t-39 95t-67 68.5t-95.5 26.5q-57 0 -98 -26t-67.5 -68.5t-39 -95.5t-12.5 -107t13 -107.5t40 -96.5zM159 765q14 35 38.5 57.5t57.5 22.5q20 0 40 -9.5t39 -20.5l25.5 -15.5t28.5 -8.5q35 0 61 53l36 -17q-15 -38 -39 -58.5t-58 -20.5q-16 0 -33.5 8.5
t-36.5 19.5l-32.5 18.5t-29.5 7.5q-34 0 -61 -55z" />
    <glyph glyph-name="Odieresis" unicode="&#xd6;" horiz-adv-x="643" 
d="M201 16q-51 30 -85 78.5t-50.5 111t-16.5 128.5q0 67 17.5 129.5t52 110.5t85.5 77t119 29q69 0 120 -29.5t84.5 -78t50 -111t16.5 -127.5t-16.5 -127.5t-50 -111t-84.5 -78.5t-120 -30q-70 0 -122 29zM159 130q27 -42 68 -68t96 -26t95 26.5t66.5 68.5t39.5 95.5
t13 107.5t-12.5 107t-39 95t-67 68.5t-95.5 26.5q-57 0 -98 -26t-67.5 -68.5t-39 -95.5t-12.5 -107t13 -107.5t40 -96.5zM405 774q-16 0 -27.5 12.5t-11.5 31.5q0 18 11.5 31t27.5 13t27 -13t11 -31q0 -19 -11 -31.5t-27 -12.5zM246 774q-16 0 -27.5 12.5t-11.5 31.5
q0 18 11.5 31t27.5 13t27 -13t11 -31q0 -19 -11 -31.5t-27 -12.5z" />
    <glyph glyph-name="multiply" unicode="&#xd7;" horiz-adv-x="517" 
d="M109 147l-35 37l149 148l-149 149l35 36l149 -149l150 149l35 -36l-149 -149l149 -148l-35 -37l-150 150z" />
    <glyph glyph-name="Oslash" unicode="&#xd8;" horiz-adv-x="643" 
d="M50 11l66 84q-33 49 -50 111t-17 128q0 67 17.5 129.5t52 110.5t85.5 77t119 29q62 0 108 -23.5t79 -61.5l65 82l37 -29l-74 -93q27 -48 41.5 -104.5t14.5 -116.5q0 -65 -16.5 -127.5t-50 -111t-84.5 -78.5t-120 -30q-56 0 -100 19.5t-77 52.5l-61 -77zM476 551
q-26 36 -64 58t-89 22q-57 0 -98 -26t-67.5 -68.5t-39 -95.5t-12.5 -107q0 -51 12 -100.5t36 -91.5zM180 102q26 -30 62 -48t81 -18q55 0 95 26.5t66.5 68.5t39.5 95.5t13 107.5q0 45 -9.5 89.5t-27.5 83.5z" />
    <glyph glyph-name="Ugrave" unicode="&#xd9;" horiz-adv-x="631" 
d="M131 237q0 -92 47.5 -146t136.5 -54q90 0 137.5 52.5t47.5 147.5v430h55v-445q0 -57 -19 -101t-51.5 -73.5t-76.5 -45t-94 -15.5q-51 0 -94.5 15.5t-75.5 45t-50 73.5t-18 101v445h55v-430zM199 838l37 40l165 -140l-24 -27z" />
    <glyph glyph-name="Uacute" unicode="&#xda;" horiz-adv-x="631" 
d="M131 237q0 -92 47.5 -146t136.5 -54q90 0 137.5 52.5t47.5 147.5v430h55v-445q0 -57 -19 -101t-51.5 -73.5t-76.5 -45t-94 -15.5q-51 0 -94.5 15.5t-75.5 45t-50 73.5t-18 101v445h55v-430zM257 711l-24 29l165 140l36 -42z" />
    <glyph glyph-name="Ucircumflex" unicode="&#xdb;" horiz-adv-x="631" 
d="M131 237q0 -92 47.5 -146t136.5 -54q90 0 137.5 52.5t47.5 147.5v430h55v-445q0 -57 -19 -101t-51.5 -73.5t-76.5 -45t-94 -15.5q-51 0 -94.5 15.5t-75.5 45t-50 73.5t-18 101v445h55v-430zM178 732l125 150h40l123 -150l-33 -23l-110 130l-111 -130z" />
    <glyph glyph-name="Udieresis" unicode="&#xdc;" horiz-adv-x="631" 
d="M131 237q0 -92 47.5 -146t136.5 -54q90 0 137.5 52.5t47.5 147.5v430h55v-445q0 -57 -19 -101t-51.5 -73.5t-76.5 -45t-94 -15.5q-51 0 -94.5 15.5t-75.5 45t-50 73.5t-18 101v445h55v-430zM395 774q-16 0 -27.5 12.5t-11.5 31.5q0 18 11.5 31t27.5 13t27 -13t11 -31
q0 -19 -11 -31.5t-27 -12.5zM236 774q-16 0 -27.5 12.5t-11.5 31.5q0 18 11.5 31t27.5 13t27 -13t11 -31q0 -19 -11 -31.5t-27 -12.5z" />
    <glyph glyph-name="Yacute" unicode="&#xdd;" horiz-adv-x="515" 
d="M226 0v321l-226 346h62l193 -295l200 295h60l-234 -345v-322h-55zM203 711l-24 29l165 140l36 -42z" />
    <glyph glyph-name="Thorn" unicode="&#xde;" horiz-adv-x="514" 
d="M81 0v667h55v-125h150q101 0 156 -49.5t55 -145.5q0 -48 -15.5 -84t-43.5 -60t-66.5 -36t-83.5 -12h-152v-155h-55zM136 204h152q70 0 110 38t40 104q0 69 -37.5 108t-113.5 39h-151v-289z" />
    <glyph glyph-name="germandbls" unicode="&#xdf;" horiz-adv-x="524" 
d="M87 0v432h-70v44h70v32q0 84 48 128t125 44q78 0 122 -43.5t52 -125.5q2 -17 2 -37v-38h-77q-37 0 -66 -16.5t-29 -51.5q0 -16 5.5 -28t18 -23.5t33 -22.5t50.5 -24q64 -28 94 -62.5t30 -88.5q0 -60 -41 -95t-105 -35q-31 0 -54.5 5t-41.5 15.5t-31.5 25.5t-25.5 35
l43 27q17 -32 42.5 -48t67.5 -16q43 0 69 22t26 60q0 42 -28.5 68.5t-89.5 52.5q-26 11 -46.5 23t-35 27t-22.5 35t-8 46q0 48 32.5 76.5t87.5 33.5l25.5 2t26.5 1q-2 79 -33.5 117.5t-88.5 38.5q-61 0 -93 -35t-32 -109v-492h-52z" />
    <glyph glyph-name="agrave" unicode="&#xe0;" horiz-adv-x="454" 
d="M341 0l-4 41q-24 -24 -57.5 -38t-81.5 -14q-34 0 -63 9.5t-50.5 28t-33.5 46t-12 62.5q0 52 26.5 86.5t68.5 54.5t95 28t107 9v21q0 55 -28 83t-80 28q-38 0 -67.5 -16.5t-48.5 -38.5l-36 28q25 31 61 51t93 20q158 0 158 -160v-329h-47zM336 268q-41 -1 -84.5 -6
t-79 -19.5t-58 -40.5t-22.5 -68q0 -26 9.5 -45t25.5 -31.5t36.5 -18.5t41.5 -6q40 0 74 17t57 40v178zM112 674l37 40l165 -140l-24 -27z" />
    <glyph glyph-name="aacute" unicode="&#xe1;" horiz-adv-x="454" 
d="M341 0l-4 41q-24 -24 -57.5 -38t-81.5 -14q-34 0 -63 9.5t-50.5 28t-33.5 46t-12 62.5q0 52 26.5 86.5t68.5 54.5t95 28t107 9v21q0 55 -28 83t-80 28q-38 0 -67.5 -16.5t-48.5 -38.5l-36 28q25 31 61 51t93 20q158 0 158 -160v-329h-47zM336 268q-41 -1 -84.5 -6
t-79 -19.5t-58 -40.5t-22.5 -68q0 -26 9.5 -45t25.5 -31.5t36.5 -18.5t41.5 -6q40 0 74 17t57 40v178zM180 547l-24 29l165 140l36 -42z" />
    <glyph glyph-name="acircumflex" unicode="&#xe2;" horiz-adv-x="454" 
d="M341 0l-4 41q-24 -24 -57.5 -38t-81.5 -14q-34 0 -63 9.5t-50.5 28t-33.5 46t-12 62.5q0 52 26.5 86.5t68.5 54.5t95 28t107 9v21q0 55 -28 83t-80 28q-38 0 -67.5 -16.5t-48.5 -38.5l-36 28q25 31 61 51t93 20q158 0 158 -160v-329h-47zM336 268q-41 -1 -84.5 -6
t-79 -19.5t-58 -40.5t-22.5 -68q0 -26 9.5 -45t25.5 -31.5t36.5 -18.5t41.5 -6q40 0 74 17t57 40v178zM86 568l125 150h40l123 -150l-33 -23l-110 130l-111 -130z" />
    <glyph glyph-name="atilde" unicode="&#xe3;" horiz-adv-x="454" 
d="M341 0l-4 41q-24 -24 -57.5 -38t-81.5 -14q-34 0 -63 9.5t-50.5 28t-33.5 46t-12 62.5q0 52 26.5 86.5t68.5 54.5t95 28t107 9v21q0 55 -28 83t-80 28q-38 0 -67.5 -16.5t-48.5 -38.5l-36 28q25 31 61 51t93 20q158 0 158 -160v-329h-47zM336 268q-41 -1 -84.5 -6
t-79 -19.5t-58 -40.5t-22.5 -68q0 -26 9.5 -45t25.5 -31.5t36.5 -18.5t41.5 -6q40 0 74 17t57 40v178zM62 601q14 35 38.5 57.5t57.5 22.5q20 0 40 -9.5t39 -20.5l25.5 -15.5t28.5 -8.5q35 0 61 53l36 -17q-15 -38 -39 -58.5t-58 -20.5q-16 0 -33.5 8.5t-36.5 19.5
l-32.5 18.5t-29.5 7.5q-34 0 -61 -55z" />
    <glyph glyph-name="adieresis" unicode="&#xe4;" horiz-adv-x="454" 
d="M341 0l-4 41q-24 -24 -57.5 -38t-81.5 -14q-34 0 -63 9.5t-50.5 28t-33.5 46t-12 62.5q0 52 26.5 86.5t68.5 54.5t95 28t107 9v21q0 55 -28 83t-80 28q-38 0 -67.5 -16.5t-48.5 -38.5l-36 28q25 31 61 51t93 20q158 0 158 -160v-329h-47zM336 268q-41 -1 -84.5 -6
t-79 -19.5t-58 -40.5t-22.5 -68q0 -26 9.5 -45t25.5 -31.5t36.5 -18.5t41.5 -6q40 0 74 17t57 40v178zM311 601q-16 0 -27.5 12.5t-11.5 31.5q0 18 11.5 31t27.5 13t27 -13t11 -31q0 -19 -11 -31.5t-27 -12.5zM152 601q-16 0 -27.5 12.5t-11.5 31.5q0 18 11.5 31t27.5 13
t27 -13t11 -31q0 -19 -11 -31.5t-27 -12.5z" />
    <glyph glyph-name="aring" unicode="&#xe5;" horiz-adv-x="454" 
d="M341 0l-4 41q-24 -24 -57.5 -38t-81.5 -14q-34 0 -63 9.5t-50.5 28t-33.5 46t-12 62.5q0 52 26.5 86.5t68.5 54.5t95 28t107 9v21q0 55 -28 83t-80 28q-38 0 -67.5 -16.5t-48.5 -38.5l-36 28q25 31 61 51t93 20q158 0 158 -160v-329h-47zM336 268q-41 -1 -84.5 -6
t-79 -19.5t-58 -40.5t-22.5 -68q0 -26 9.5 -45t25.5 -31.5t36.5 -18.5t41.5 -6q40 0 74 17t57 40v178zM235 535q-44 0 -69 29.5t-25 68.5q0 40 25 69.5t69 29.5q43 0 68 -29.5t25 -68.5q0 -20 -6.5 -37.5t-18.5 -31.5t-29.5 -22t-38.5 -8zM294 634q0 26 -16.5 46t-42.5 20
q-27 0 -43.5 -20t-16.5 -46t16.5 -46.5t43.5 -20.5q26 0 42.5 20t16.5 46v1z" />
    <glyph glyph-name="ae" unicode="&#xe6;" horiz-adv-x="759" 
d="M74 416q25 32 62 52.5t97 20.5q58 0 92.5 -21t51.5 -62q23 38 58 60.5t93 22.5q49 0 85 -17t60.5 -48.5t36.5 -75.5t13 -99h-331q0 -49 8.5 -88.5t26.5 -68t47 -44t71 -15.5q49 0 79.5 22t51.5 61l38 -22q-12 -23 -27 -42t-35.5 -33t-47 -22t-61.5 -8t-62.5 8t-48 21.5
t-34.5 30.5t-23 36q-9 -19 -23 -36t-33.5 -30.5t-46 -21.5t-60.5 -8q-77 0 -125 37.5t-48 108.5q0 57 32 92t83 51q42 14 88.5 17.5t99.5 3.5v35q0 57 -31 84t-82 27q-36 0 -66.5 -15.5t-50.5 -39.5zM665 293q-2 40 -14.5 68.5t-31 47t-42.5 27.5t-49 9q-60 0 -96 -40
t-40 -112h273zM342 255q-41 0 -78.5 -2t-71.5 -10q-42 -10 -71 -36.5t-29 -72.5q0 -51 33 -76t88 -25q28 0 52 9t41 24.5t26.5 36.5t9.5 45v107z" />
    <glyph glyph-name="ccedilla" unicode="&#xe7;" horiz-adv-x="455" 
d="M430 88q-25 -45 -68 -72t-104 -27q-45 0 -83.5 16.5t-67 48.5t-44.5 78t-16 106q0 63 17 110t45.5 78.5t66 47t79.5 15.5q37 0 64.5 -9.5t47 -24.5t33 -33t21.5 -36l-41 -24q-18 36 -47.5 59.5t-77.5 23.5q-35 0 -63.5 -15.5t-49 -43t-32 -65t-11.5 -82.5
q0 -47 11.5 -84.5t33 -64.5t51.5 -41.5t66 -14.5q84 0 130 79zM179 -174l51 130h61l-71 -130h-41z" />
    <glyph glyph-name="egrave" unicode="&#xe8;" horiz-adv-x="486" 
d="M97 247q0 -101 43 -157.5t125 -56.5q51 0 84 24.5t54 61.5l38 -24q-12 -21 -27.5 -40t-37 -34t-49.5 -23.5t-64 -8.5q-102 0 -159 65.5t-57 184.5q0 58 15 104.5t42 78.5t64.5 49.5t82.5 17.5q48 0 84.5 -17.5t61.5 -49t38 -76.5t15 -99h-353zM391 291q-2 40 -15 69.5
t-32.5 48t-43.5 27.5t-49 9q-57 0 -98 -36.5t-52 -117.5h290zM135 674l37 40l165 -140l-24 -27z" />
    <glyph glyph-name="eacute" unicode="&#xe9;" horiz-adv-x="486" 
d="M97 247q0 -101 43 -157.5t125 -56.5q51 0 84 24.5t54 61.5l38 -24q-12 -21 -27.5 -40t-37 -34t-49.5 -23.5t-64 -8.5q-102 0 -159 65.5t-57 184.5q0 58 15 104.5t42 78.5t64.5 49.5t82.5 17.5q48 0 84.5 -17.5t61.5 -49t38 -76.5t15 -99h-353zM391 291q-2 40 -15 69.5
t-32.5 48t-43.5 27.5t-49 9q-57 0 -98 -36.5t-52 -117.5h290zM178 547l-24 29l165 140l36 -42z" />
    <glyph glyph-name="ecircumflex" unicode="&#xea;" horiz-adv-x="486" 
d="M97 247q0 -101 43 -157.5t125 -56.5q51 0 84 24.5t54 61.5l38 -24q-12 -21 -27.5 -40t-37 -34t-49.5 -23.5t-64 -8.5q-102 0 -159 65.5t-57 184.5q0 58 15 104.5t42 78.5t64.5 49.5t82.5 17.5q48 0 84.5 -17.5t61.5 -49t38 -76.5t15 -99h-353zM391 291q-2 40 -15 69.5
t-32.5 48t-43.5 27.5t-49 9q-57 0 -98 -36.5t-52 -117.5h290zM107 568l125 150h40l123 -150l-33 -23l-110 130l-111 -130z" />
    <glyph glyph-name="edieresis" unicode="&#xeb;" horiz-adv-x="486" 
d="M97 247q0 -101 43 -157.5t125 -56.5q51 0 84 24.5t54 61.5l38 -24q-12 -21 -27.5 -40t-37 -34t-49.5 -23.5t-64 -8.5q-102 0 -159 65.5t-57 184.5q0 58 15 104.5t42 78.5t64.5 49.5t82.5 17.5q48 0 84.5 -17.5t61.5 -49t38 -76.5t15 -99h-353zM391 291q-2 40 -15 69.5
t-32.5 48t-43.5 27.5t-49 9q-57 0 -98 -36.5t-52 -117.5h290zM336 601q-16 0 -27.5 12.5t-11.5 31.5q0 18 11.5 31t27.5 13t27 -13t11 -31q0 -19 -11 -31.5t-27 -12.5zM177 601q-16 0 -27.5 12.5t-11.5 31.5q0 18 11.5 31t27.5 13t27 -13t11 -31q0 -19 -11 -31.5t-27 -12.5z
" />
    <glyph glyph-name="igrave" unicode="&#xec;" horiz-adv-x="191" 
d="M69 0v476h52v-476h-52zM-26 674l37 40l165 -140l-24 -27z" />
    <glyph glyph-name="iacute" unicode="&#xed;" horiz-adv-x="191" 
d="M69 0v476h52v-476h-52zM49 547l-24 29l165 140l36 -42z" />
    <glyph glyph-name="icircumflex" unicode="&#xee;" horiz-adv-x="191" 
d="M69 0v476h52v-476h-52zM-47 568l125 150h40l123 -150l-33 -23l-110 130l-111 -130z" />
    <glyph glyph-name="idieresis" unicode="&#xef;" horiz-adv-x="191" 
d="M69 0v476h52v-476h-52zM176 601q-16 0 -27.5 12.5t-11.5 31.5q0 18 11.5 31t27.5 13t27 -13t11 -31q0 -19 -11 -31.5t-27 -12.5zM17 601q-16 0 -27.5 12.5t-11.5 31.5q0 18 11.5 31t27.5 13t27 -13t11 -31q0 -19 -11 -31.5t-27 -12.5z" />
    <glyph glyph-name="eth" unicode="&#xf0;" horiz-adv-x="514" 
d="M216 548l41 54q-20 12 -47 22t-51 16l11 38q32 -5 60.5 -16t51.5 -25l43 56l31 -21l-43 -56q34 -25 62.5 -58.5t49 -77t32 -97.5t11.5 -118q0 -72 -16 -124t-44.5 -85.5t-66.5 -50t-82 -16.5t-83 15.5t-67.5 47t-45 78.5t-16.5 110q0 58 15.5 104.5t43 78.5t66 49
t84.5 17q45 0 75 -10t53 -24q-17 38 -41 71.5t-54 55.5l-41 -55zM410 342q-6 36 -12 59q-29 18 -63 31t-77 13q-70 0 -114.5 -53t-44.5 -152q0 -51 12.5 -89.5t34 -64.5t51 -39.5t62.5 -13.5t61.5 13.5t50 41.5t33.5 71.5t12 104.5q0 42 -6 78z" />
    <glyph glyph-name="ntilde" unicode="&#xf1;" horiz-adv-x="521" 
d="M69 0v476h48l4 -44q30 23 67.5 40t91.5 17q175 0 175 -190v-299h-52v304q0 66 -32 103t-98 37q-48 0 -85.5 -19t-66.5 -43v-382h-52zM103 601q14 35 38.5 57.5t57.5 22.5q20 0 40 -9.5t39 -20.5l25.5 -15.5t28.5 -8.5q35 0 61 53l36 -17q-15 -38 -39 -58.5t-58 -20.5
q-16 0 -33.5 8.5t-36.5 19.5l-32.5 18.5t-29.5 7.5q-34 0 -61 -55z" />
    <glyph glyph-name="ograve" unicode="&#xf2;" horiz-adv-x="519" 
d="M167 10q-39 22 -66 57t-40.5 81t-13.5 94t13.5 92.5t40 79t66 55t92.5 20.5q52 0 92 -21t67 -55.5t40.5 -79.5t13.5 -93q0 -49 -13.5 -94.5t-40.5 -80t-67 -55.5t-92 -21t-92 21zM139 98q20 -29 50 -47t70 -18q41 0 71 18.5t50 48t30 66.5t10 75t-10 74.5t-30 65.5
t-50 46.5t-71 17.5t-71 -17.5t-50 -46t-29.5 -65t-9.5 -74.5q0 -39 10 -76.5t30 -67.5zM143 674l37 40l165 -140l-24 -27z" />
    <glyph glyph-name="oacute" unicode="&#xf3;" horiz-adv-x="519" 
d="M167 10q-39 22 -66 57t-40.5 81t-13.5 94t13.5 92.5t40 79t66 55t92.5 20.5q52 0 92 -21t67 -55.5t40.5 -79.5t13.5 -93q0 -49 -13.5 -94.5t-40.5 -80t-67 -55.5t-92 -21t-92 21zM139 98q20 -29 50 -47t70 -18q41 0 71 18.5t50 48t30 66.5t10 75t-10 74.5t-30 65.5
t-50 46.5t-71 17.5t-71 -17.5t-50 -46t-29.5 -65t-9.5 -74.5q0 -39 10 -76.5t30 -67.5zM187 547l-24 29l165 140l36 -42z" />
    <glyph glyph-name="ocircumflex" unicode="&#xf4;" horiz-adv-x="519" 
d="M167 10q-39 22 -66 57t-40.5 81t-13.5 94t13.5 92.5t40 79t66 55t92.5 20.5q52 0 92 -21t67 -55.5t40.5 -79.5t13.5 -93q0 -49 -13.5 -94.5t-40.5 -80t-67 -55.5t-92 -21t-92 21zM139 98q20 -29 50 -47t70 -18q41 0 71 18.5t50 48t30 66.5t10 75t-10 74.5t-30 65.5
t-50 46.5t-71 17.5t-71 -17.5t-50 -46t-29.5 -65t-9.5 -74.5q0 -39 10 -76.5t30 -67.5zM114 568l125 150h40l123 -150l-33 -23l-110 130l-111 -130z" />
    <glyph glyph-name="otilde" unicode="&#xf5;" horiz-adv-x="519" 
d="M167 10q-39 22 -66 57t-40.5 81t-13.5 94t13.5 92.5t40 79t66 55t92.5 20.5q52 0 92 -21t67 -55.5t40.5 -79.5t13.5 -93q0 -49 -13.5 -94.5t-40.5 -80t-67 -55.5t-92 -21t-92 21zM139 98q20 -29 50 -47t70 -18q41 0 71 18.5t50 48t30 66.5t10 75t-10 74.5t-30 65.5
t-50 46.5t-71 17.5t-71 -17.5t-50 -46t-29.5 -65t-9.5 -74.5q0 -39 10 -76.5t30 -67.5zM92 601q14 35 38.5 57.5t57.5 22.5q20 0 40 -9.5t39 -20.5l25.5 -15.5t28.5 -8.5q35 0 61 53l36 -17q-15 -38 -39 -58.5t-58 -20.5q-16 0 -33.5 8.5t-36.5 19.5l-32.5 18.5t-29.5 7.5
q-34 0 -61 -55z" />
    <glyph glyph-name="odieresis" unicode="&#xf6;" horiz-adv-x="519" 
d="M167 10q-39 22 -66 57t-40.5 81t-13.5 94t13.5 92.5t40 79t66 55t92.5 20.5q52 0 92 -21t67 -55.5t40.5 -79.5t13.5 -93q0 -49 -13.5 -94.5t-40.5 -80t-67 -55.5t-92 -21t-92 21zM139 98q20 -29 50 -47t70 -18q41 0 71 18.5t50 48t30 66.5t10 75t-10 74.5t-30 65.5
t-50 46.5t-71 17.5t-71 -17.5t-50 -46t-29.5 -65t-9.5 -74.5q0 -39 10 -76.5t30 -67.5zM311 601q-16 0 -27.5 12.5t-11.5 31.5q0 18 11.5 31t27.5 13t27 -13t11 -31q0 -19 -11 -31.5t-27 -12.5zM152 601q-16 0 -27.5 12.5t-11.5 31.5q0 18 11.5 31t27.5 13t27 -13t11 -31
q0 -19 -11 -31.5t-27 -12.5z" />
    <glyph glyph-name="divide" unicode="&#xf7;" horiz-adv-x="517" 
d="M258 456q-19 0 -31.5 14.5t-12.5 34.5q0 21 12.5 35t31.5 14t31 -14t12 -35q0 -20 -12 -34.5t-31 -14.5zM33 307v49h450v-49h-450zM258 113q-19 0 -31.5 14t-12.5 34q0 21 12.5 35.5t31.5 14.5t31 -14.5t12 -35.5q0 -20 -12 -34t-31 -14z" />
    <glyph glyph-name="oslash" unicode="&#xf8;" horiz-adv-x="519" 
d="M72 -39l49 84q-36 36 -55 88t-19 109q0 48 13.5 92.5t40 79t66 55t92.5 20.5q30 0 56 -7.5t49 -21.5l46 79l37 -21l-49 -83q36 -36 55 -87t19 -108q0 -49 -13.5 -94.5t-40.5 -80t-67 -55.5t-92 -21q-30 0 -56.5 7.5t-47.5 21.5l-47 -79zM178 58q17 -11 37 -18t44 -7
q41 0 71 18.5t50 48t30 66.5t10 75q0 42 -12 81t-35 69zM341 420q-17 11 -37.5 18t-44.5 7q-41 0 -71 -17.5t-50 -46t-29.5 -65t-9.5 -74.5q0 -42 12.5 -82.5t35.5 -70.5z" />
    <glyph glyph-name="ugrave" unicode="&#xf9;" horiz-adv-x="518" 
d="M118 169q0 -72 35.5 -103.5t95.5 -31.5q45 0 83 18.5t64 47.5v376h53v-476h-47l-4 47q-27 -23 -63 -40.5t-93 -17.5q-84 0 -130.5 43.5t-46.5 136.5v307h53v-307zM138 674l37 40l165 -140l-24 -27z" />
    <glyph glyph-name="uacute" unicode="&#xfa;" horiz-adv-x="518" 
d="M118 169q0 -72 35.5 -103.5t95.5 -31.5q45 0 83 18.5t64 47.5v376h53v-476h-47l-4 47q-27 -23 -63 -40.5t-93 -17.5q-84 0 -130.5 43.5t-46.5 136.5v307h53v-307zM199 547l-24 29l165 140l36 -42z" />
    <glyph glyph-name="ucircumflex" unicode="&#xfb;" horiz-adv-x="518" 
d="M118 169q0 -72 35.5 -103.5t95.5 -31.5q45 0 83 18.5t64 47.5v376h53v-476h-47l-4 47q-27 -23 -63 -40.5t-93 -17.5q-84 0 -130.5 43.5t-46.5 136.5v307h53v-307zM118 568l125 150h40l123 -150l-33 -23l-110 130l-111 -130z" />
    <glyph glyph-name="udieresis" unicode="&#xfc;" horiz-adv-x="518" 
d="M118 169q0 -72 35.5 -103.5t95.5 -31.5q45 0 83 18.5t64 47.5v376h53v-476h-47l-4 47q-27 -23 -63 -40.5t-93 -17.5q-84 0 -130.5 43.5t-46.5 136.5v307h53v-307zM339 601q-16 0 -27.5 12.5t-11.5 31.5q0 18 11.5 31t27.5 13t27 -13t11 -31q0 -19 -11 -31.5t-27 -12.5z
M180 601q-16 0 -27.5 12.5t-11.5 31.5q0 18 11.5 31t27.5 13t27 -13t11 -31q0 -19 -11 -31.5t-27 -12.5z" />
    <glyph glyph-name="yacute" unicode="&#xfd;" horiz-adv-x="436" 
d="M20 -141q13 -5 31 -10.5t34 -5.5q25 0 39 11t26 41l42 105l-192 476h59l161 -407l160 407h56l-243 -605q-17 -41 -43 -57t-63 -16q-23 0 -45.5 4.5t-37.5 11.5zM167 547l-24 29l165 140l36 -42z" />
    <glyph glyph-name="thorn" unicode="&#xfe;" horiz-adv-x="508" 
d="M69 -193v860h52v-228q23 19 58 34.5t82 15.5q50 0 88 -18t63 -51t37.5 -78t12.5 -99q0 -57 -16.5 -104t-46.5 -80.5t-72 -51.5t-93 -18q-37 0 -65 8.5t-47 20.5v-211h-53zM122 68q18 -14 45 -24t62 -10q40 0 73.5 14.5t57 41t36.5 65t13 86.5q0 42 -9 79t-28 64.5t-49 44
t-73 16.5q-38 0 -71.5 -16t-56.5 -40v-321z" />
    <glyph glyph-name="ydieresis" unicode="&#xff;" horiz-adv-x="436" 
d="M20 -141q13 -5 31 -10.5t34 -5.5q25 0 39 11t26 41l42 105l-192 476h59l161 -407l160 407h56l-243 -605q-17 -41 -43 -57t-63 -16q-23 0 -45.5 4.5t-37.5 11.5zM303 601q-16 0 -27.5 12.5t-11.5 31.5q0 18 11.5 31t27.5 13t27 -13t11 -31q0 -19 -11 -31.5t-27 -12.5z
M144 601q-16 0 -27.5 12.5t-11.5 31.5q0 18 11.5 31t27.5 13t27 -13t11 -31q0 -19 -11 -31.5t-27 -12.5z" />
    <glyph glyph-name="Amacron" unicode="&#x100;" horiz-adv-x="551" 
d="M128 778v45h286v-45h-286zM1 0l253 667h41l256 -667h-57l-82 214h-275l-80 -214h-56zM155 264h239l-122 322z" />
    <glyph glyph-name="amacron" unicode="&#x101;" horiz-adv-x="454" 
d="M91 612v45h286v-45h-286zM341 0l-4 41q-24 -24 -57.5 -38t-81.5 -14q-34 0 -63 9.5t-50.5 28t-33.5 46t-12 62.5q0 52 26.5 86.5t68.5 54.5t95 28t107 9v21q0 55 -28 83t-80 28q-38 0 -67.5 -16.5t-48.5 -38.5l-36 28q25 31 61 51t93 20q158 0 158 -160v-329h-47z
M336 268q-41 -1 -84.5 -6t-79 -19.5t-58 -40.5t-22.5 -68q0 -26 9.5 -45t25.5 -31.5t36.5 -18.5t41.5 -6q40 0 74 17t57 40v178z" />
    <glyph glyph-name="Abreve" unicode="&#x102;" horiz-adv-x="550" 
d="M0 0l253 667h41l256 -667h-57l-82 214h-275l-80 -214h-56zM154 264h239l-122 322zM167 859q5 -52 33.5 -75t70.5 -23t71 23t35 75h42q-2 -38 -15.5 -64t-34.5 -43t-47 -24.5t-52 -7.5t-51.5 7.5t-46.5 24.5t-34.5 43t-14.5 64h44z" />
    <glyph glyph-name="abreve" unicode="&#x103;" horiz-adv-x="454" 
d="M341 0l-4 41q-24 -24 -57.5 -38t-81.5 -14q-34 0 -63 9.5t-50.5 28t-33.5 46t-12 62.5q0 52 26.5 86.5t68.5 54.5t95 28t107 9v21q0 55 -28 83t-80 28q-38 0 -67.5 -16.5t-48.5 -38.5l-36 28q25 31 61 51t93 20q158 0 158 -160v-329h-47zM336 268q-41 -1 -84.5 -6
t-79 -19.5t-58 -40.5t-22.5 -68q0 -26 9.5 -45t25.5 -31.5t36.5 -18.5t41.5 -6q40 0 74 17t57 40v178zM130 693q5 -52 33.5 -75t70.5 -23t71 23t35 75h42q-2 -38 -15.5 -64t-34.5 -43t-47 -24.5t-52 -7.5t-51.5 7.5t-46.5 24.5t-34.5 43t-14.5 64h44z" />
    <glyph glyph-name="Aogonek" unicode="&#x104;" horiz-adv-x="551" 
d="M556 -161q-10 -5 -22.5 -8.5t-28.5 -3.5q-36 0 -56.5 19.5t-20.5 53.5q0 22 8 40t20 33t25 26q5 4 10 7l-79 208h-275l-80 -214h-56l253 667h41l256 -667h-15q-8 -5 -16 -12q-12 -10 -22.5 -23t-17 -27.5t-6.5 -31.5q0 -18 9 -29t28 -11q10 0 18 2.5t16 6.5zM155 264h239
l-122 322z" />
    <glyph glyph-name="aogonek" unicode="&#x105;" horiz-adv-x="454" 
d="M397 -161q-10 -5 -22.5 -8.5t-28.5 -3.5q-36 0 -56.5 19.5t-20.5 53.5q0 22 8 40t20 33t25 26q10 8 18 13l-3 29q-24 -24 -57.5 -38t-81.5 -14q-34 0 -63 9.5t-50.5 28t-33.5 46t-12 62.5q0 52 26.5 86.5t68.5 54.5t95 28t107 9v21q0 55 -28 83t-80 28q-38 0 -67.5 -16.5
t-48.5 -38.5l-36 28q25 31 61 51t93 20q158 0 158 -160v-329h-11q-8 -5 -16 -12q-12 -10 -22.5 -23t-17 -27.5t-6.5 -31.5q0 -18 9 -29t28 -11q10 0 18 2.5t16 6.5zM336 268q-41 -1 -84.5 -6t-79 -19.5t-58 -40.5t-22.5 -68q0 -26 9.5 -45t25.5 -31.5t36.5 -18.5t41.5 -6
q40 0 74 17t57 40v178z" />
    <glyph glyph-name="Cacute" unicode="&#x106;" horiz-adv-x="555" 
d="M531 118q-15 -28 -34.5 -52t-45 -41.5t-58 -27.5t-73.5 -10q-63 0 -113.5 24t-85.5 69t-53.5 108.5t-18.5 142.5q0 85 20.5 150t56 109t82.5 67t101 23q82 0 135 -37.5t82 -97.5l-46 -25q-11 21 -26 41t-36 35.5t-47 24.5t-58 9q-44 0 -82 -19.5t-66 -57.5t-43.5 -94
t-15.5 -129q0 -65 15.5 -119t43.5 -92.5t68 -60t88 -21.5q32 0 57.5 8.5t45.5 23t36 34t28 41.5zM230 713l-24 29l165 140l36 -42z" />
    <glyph glyph-name="cacute" unicode="&#x107;" horiz-adv-x="455" 
d="M430 88q-25 -45 -68 -72t-104 -27q-45 0 -83.5 16.5t-67 48.5t-44.5 78t-16 106q0 63 17 110t45.5 78.5t66 47t79.5 15.5q37 0 64.5 -9.5t47 -24.5t33 -33t21.5 -36l-41 -24q-18 36 -47.5 59.5t-77.5 23.5q-35 0 -63.5 -15.5t-49 -43t-32 -65t-11.5 -82.5
q0 -47 11.5 -84.5t33 -64.5t51.5 -41.5t66 -14.5q84 0 130 79zM178 547l-24 29l165 140l36 -42z" />
    <glyph glyph-name="Ccircumflex" unicode="&#x108;" horiz-adv-x="555" 
d="M531 118q-15 -28 -34.5 -52t-45 -41.5t-58 -27.5t-73.5 -10q-63 0 -113.5 24t-85.5 69t-53.5 108.5t-18.5 142.5q0 85 20.5 150t56 109t82.5 67t101 23q82 0 135 -37.5t82 -97.5l-46 -25q-11 21 -26 41t-36 35.5t-47 24.5t-58 9q-44 0 -82 -19.5t-66 -57.5t-43.5 -94
t-15.5 -129q0 -65 15.5 -119t43.5 -92.5t68 -60t88 -21.5q32 0 57.5 8.5t45.5 23t36 34t28 41.5zM166 734l125 150h40l123 -150l-33 -23l-110 130l-111 -130z" />
    <glyph glyph-name="ccircumflex" unicode="&#x109;" horiz-adv-x="455" 
d="M430 88q-25 -45 -68 -72t-104 -27q-45 0 -83.5 16.5t-67 48.5t-44.5 78t-16 106q0 63 17 110t45.5 78.5t66 47t79.5 15.5q37 0 64.5 -9.5t47 -24.5t33 -33t21.5 -36l-41 -24q-18 36 -47.5 59.5t-77.5 23.5q-35 0 -63.5 -15.5t-49 -43t-32 -65t-11.5 -82.5
q0 -47 11.5 -84.5t33 -64.5t51.5 -41.5t66 -14.5q84 0 130 79zM106 568l125 150h40l123 -150l-33 -23l-110 130l-111 -130z" />
    <glyph glyph-name="Cdotaccent" unicode="&#x10a;" horiz-adv-x="555" 
d="M531 118q-15 -28 -34.5 -52t-45 -41.5t-58 -27.5t-73.5 -10q-63 0 -113.5 24t-85.5 69t-53.5 108.5t-18.5 142.5q0 85 20.5 150t56 109t82.5 67t101 23q82 0 135 -37.5t82 -97.5l-46 -25q-11 21 -26 41t-36 35.5t-47 24.5t-58 9q-44 0 -82 -19.5t-66 -57.5t-43.5 -94
t-15.5 -129q0 -65 15.5 -119t43.5 -92.5t68 -60t88 -21.5q32 0 57.5 8.5t45.5 23t36 34t28 41.5zM309 756q-17 0 -28.5 14.5t-11.5 34.5t11.5 34t28.5 14t28.5 -14.5t11.5 -33.5q0 -20 -11.5 -34.5t-28.5 -14.5z" />
    <glyph glyph-name="cdotaccent" unicode="&#x10b;" horiz-adv-x="455" 
d="M430 88q-25 -45 -68 -72t-104 -27q-45 0 -83.5 16.5t-67 48.5t-44.5 78t-16 106q0 63 17 110t45.5 78.5t66 47t79.5 15.5q37 0 64.5 -9.5t47 -24.5t33 -33t21.5 -36l-41 -24q-18 36 -47.5 59.5t-77.5 23.5q-35 0 -63.5 -15.5t-49 -43t-32 -65t-11.5 -82.5
q0 -47 11.5 -84.5t33 -64.5t51.5 -41.5t66 -14.5q84 0 130 79zM255 590q-17 0 -28.5 14.5t-11.5 34.5t11.5 34t28.5 14t28.5 -14.5t11.5 -33.5q0 -20 -11.5 -34.5t-28.5 -14.5z" />
    <glyph glyph-name="Ccaron" unicode="&#x10c;" horiz-adv-x="555" 
d="M531 118q-15 -28 -34.5 -52t-45 -41.5t-58 -27.5t-73.5 -10q-63 0 -113.5 24t-85.5 69t-53.5 108.5t-18.5 142.5q0 85 20.5 150t56 109t82.5 67t101 23q82 0 135 -37.5t82 -97.5l-46 -25q-11 21 -26 41t-36 35.5t-47 24.5t-58 9q-44 0 -82 -19.5t-66 -57.5t-43.5 -94
t-15.5 -129q0 -65 15.5 -119t43.5 -92.5t68 -60t88 -21.5q32 0 57.5 8.5t45.5 23t36 34t28 41.5zM288 711l-125 150l34 23l111 -130l110 130l33 -23l-123 -150h-40z" />
    <glyph glyph-name="ccaron" unicode="&#x10d;" horiz-adv-x="455" 
d="M430 88q-25 -45 -68 -72t-104 -27q-45 0 -83.5 16.5t-67 48.5t-44.5 78t-16 106q0 63 17 110t45.5 78.5t66 47t79.5 15.5q37 0 64.5 -9.5t47 -24.5t33 -33t21.5 -36l-41 -24q-18 36 -47.5 59.5t-77.5 23.5q-35 0 -63.5 -15.5t-49 -43t-32 -65t-11.5 -82.5
q0 -47 11.5 -84.5t33 -64.5t51.5 -41.5t66 -14.5q84 0 130 79zM231 545l-125 150l34 23l111 -130l110 130l33 -23l-123 -150h-40z" />
    <glyph glyph-name="Dcaron" unicode="&#x10e;" horiz-adv-x="602" 
d="M81 0v667h164q71 0 130 -20.5t101 -61t65 -101t23 -141.5q0 -87 -23 -151.5t-65 -107t-100.5 -63.5t-130.5 -21h-164zM135 49h100q60 0 110 16.5t86 52t56 90t20 131.5q0 71 -19 123t-54 86.5t-84.5 51.5t-110.5 17h-104v-568zM239 711l-125 150l34 23l111 -130l110 130
l33 -23l-123 -150h-40z" />
    <glyph glyph-name="dcaron" unicode="&#x10f;" horiz-adv-x="508" 
d="M394 0l-6 42q-23 -25 -56 -39t-78 -14q-48 0 -86.5 18t-65.5 51t-41.5 79.5t-14.5 103.5q0 54 16 99.5t45 78.5t69.5 51.5t90.5 18.5q45 0 73.5 -9.5t47.5 -21.5v209h52v-667h-46zM388 406q-17 16 -48.5 27.5t-66.5 11.5q-40 0 -72 -15.5t-55 -43t-35.5 -65t-12.5 -82.5
q0 -93 42.5 -149.5t119.5 -56.5q41 0 73.5 17t54.5 45v311zM494 500v167h54l-20 -167h-34z" />
    <glyph glyph-name="Dcroat" unicode="&#x110;" horiz-adv-x="606" 
d="M81 0v331h-79v47h79v289h164q45 0 88 -8.5t78 -26.5q72 -36 112.5 -108.5t40.5 -180.5q0 -134 -53.5 -216t-147.5 -111q-26 -8 -56.5 -12t-61.5 -4h-164zM135 49h113q26 2 49 4.5t44 9.5q76 26 121 93t45 183q0 88 -28.5 146.5t-80.5 91.5q-32 20 -73 30t-86 10h-104
v-239h166v-47h-166v-282z" />
    <glyph glyph-name="dcroat" unicode="&#x111;" horiz-adv-x="508" 
d="M394 0l-6 42q-23 -25 -56 -39t-78 -14q-48 0 -86.5 18t-65.5 51t-41.5 79.5t-14.5 103.5q0 54 16 99.5t45 78.5t69.5 51.5t90.5 18.5q45 0 73.5 -9.5t47.5 -21.5v98h-147v43h147v68h52v-68h83v-43h-83v-556h-46zM388 406q-17 16 -48.5 27.5t-66.5 11.5q-40 0 -72 -15.5
t-55 -43t-35.5 -65t-12.5 -82.5q0 -93 42.5 -149.5t119.5 -56.5q41 0 73.5 17t54.5 45v311z" />
    <glyph glyph-name="Emacron" unicode="&#x112;" horiz-adv-x="488" 
d="M126 780v45h286v-45h-286zM81 0v667h374v-49h-319v-239h231v-50h-232v-280h340v-49h-394z" />
    <glyph glyph-name="emacron" unicode="&#x113;" horiz-adv-x="486" 
d="M110 612v45h286v-45h-286zM97 247q0 -101 43 -157.5t125 -56.5q51 0 84 24.5t54 61.5l38 -24q-12 -21 -27.5 -40t-37 -34t-49.5 -23.5t-64 -8.5q-102 0 -159 65.5t-57 184.5q0 58 15 104.5t42 78.5t64.5 49.5t82.5 17.5q48 0 84.5 -17.5t61.5 -49t38 -76.5t15 -99h-353z
M391 291q-2 40 -15 69.5t-32.5 48t-43.5 27.5t-49 9q-57 0 -98 -36.5t-52 -117.5h290z" />
    <glyph glyph-name="Ebreve" unicode="&#x114;" horiz-adv-x="488" 
d="M81 0v667h374v-49h-319v-239h231v-50h-232v-280h340v-49h-394zM169 859q5 -52 33.5 -75t70.5 -23t71 23t35 75h42q-2 -38 -15.5 -64t-34.5 -43t-47 -24.5t-52 -7.5t-51.5 7.5t-46.5 24.5t-34.5 43t-14.5 64h44z" />
    <glyph glyph-name="ebreve" unicode="&#x115;" horiz-adv-x="486" 
d="M97 247q0 -101 43 -157.5t125 -56.5q51 0 84 24.5t54 61.5l38 -24q-12 -21 -27.5 -40t-37 -34t-49.5 -23.5t-64 -8.5q-102 0 -159 65.5t-57 184.5q0 58 15 104.5t42 78.5t64.5 49.5t82.5 17.5q48 0 84.5 -17.5t61.5 -49t38 -76.5t15 -99h-353zM391 291q-2 40 -15 69.5
t-32.5 48t-43.5 27.5t-49 9q-57 0 -98 -36.5t-52 -117.5h290zM152 693q5 -52 33.5 -75t70.5 -23t71 23t35 75h42q-2 -38 -15.5 -64t-34.5 -43t-47 -24.5t-52 -7.5t-51.5 7.5t-46.5 24.5t-34.5 43t-14.5 64h44z" />
    <glyph glyph-name="Edotaccent" unicode="&#x116;" horiz-adv-x="488" 
d="M81 0v667h374v-49h-319v-239h231v-50h-232v-280h340v-49h-394zM266 763q-17 0 -28.5 14.5t-11.5 34.5t11.5 34t28.5 14t28.5 -14.5t11.5 -33.5q0 -20 -11.5 -34.5t-28.5 -14.5z" />
    <glyph glyph-name="edotaccent" unicode="&#x117;" horiz-adv-x="486" 
d="M97 247q0 -101 43 -157.5t125 -56.5q51 0 84 24.5t54 61.5l38 -24q-12 -21 -27.5 -40t-37 -34t-49.5 -23.5t-64 -8.5q-102 0 -159 65.5t-57 184.5q0 58 15 104.5t42 78.5t64.5 49.5t82.5 17.5q48 0 84.5 -17.5t61.5 -49t38 -76.5t15 -99h-353zM391 291q-2 40 -15 69.5
t-32.5 48t-43.5 27.5t-49 9q-57 0 -98 -36.5t-52 -117.5h290zM253 590q-17 0 -28.5 14.5t-11.5 34.5t11.5 34t28.5 14t28.5 -14.5t11.5 -33.5q0 -20 -11.5 -34.5t-28.5 -14.5z" />
    <glyph glyph-name="Eogonek" unicode="&#x118;" horiz-adv-x="488" 
d="M473 -161q-10 -5 -22.5 -8.5t-28.5 -3.5q-36 0 -56.5 19.5t-20.5 53.5q0 22 8 40t20 33t25 26l1 1h-318v667h374v-49h-319v-239h231v-50h-232v-280h340v-49h-22q-8 -5 -16 -12q-12 -10 -22.5 -23t-17 -27.5t-6.5 -31.5q0 -18 9 -29t28 -11q10 0 18 2.5t16 6.5z" />
    <glyph glyph-name="eogonek" unicode="&#x119;" horiz-adv-x="486" 
d="M360 -161q-10 -5 -22.5 -8.5t-28.5 -3.5q-36 0 -56.5 19.5t-20.5 53.5q0 22 8 40t20 33q7 9 14 16h-11q-102 0 -159 65.5t-57 184.5q0 58 15 104.5t42 78.5t64.5 49.5t82.5 17.5q48 0 84.5 -17.5t61.5 -49t38 -76.5t15 -99h-353q0 -101 43 -157.5t125 -56.5q51 0 84 24.5
t54 61.5l38 -24q-12 -21 -27.5 -40t-37.5 -34q-12 -9 -26 -15q-13 -8 -25.5 -18t-23 -23t-17 -27.5t-6.5 -31.5q0 -18 9 -29t28 -11q10 0 18 2.5t16 6.5zM391 291q-2 40 -15 69.5t-32.5 48t-43.5 27.5t-49 9q-57 0 -98 -36.5t-52 -117.5h290z" />
    <glyph glyph-name="Ecaron" unicode="&#x11a;" horiz-adv-x="488" 
d="M81 0v667h374v-49h-319v-239h231v-50h-232v-280h340v-49h-394zM245 711l-125 150l34 23l111 -130l110 130l33 -23l-123 -150h-40z" />
    <glyph glyph-name="ecaron" unicode="&#x11b;" horiz-adv-x="486" 
d="M97 247q0 -101 43 -157.5t125 -56.5q51 0 84 24.5t54 61.5l38 -24q-12 -21 -27.5 -40t-37 -34t-49.5 -23.5t-64 -8.5q-102 0 -159 65.5t-57 184.5q0 58 15 104.5t42 78.5t64.5 49.5t82.5 17.5q48 0 84.5 -17.5t61.5 -49t38 -76.5t15 -99h-353zM391 291q-2 40 -15 69.5
t-32.5 48t-43.5 27.5t-49 9q-57 0 -98 -36.5t-52 -117.5h290zM229 545l-125 150l34 23l111 -130l110 130l33 -23l-123 -150h-40z" />
    <glyph glyph-name="Gcircumflex" unicode="&#x11c;" horiz-adv-x="587" 
d="M537 24q-34 -14 -88 -25.5t-117 -11.5t-115 22.5t-89.5 66t-58 107.5t-20.5 148t21.5 149t58 109.5t85.5 67.5t105 23q45 0 79 -10t60 -27t44 -40t32 -49l-45 -27q-11 21 -26.5 39.5t-36 33t-47.5 23t-60 8.5q-42 0 -80.5 -19t-68 -56.5t-47 -94t-17.5 -131.5
q0 -67 16.5 -121.5t46.5 -93.5t72 -60t92 -21q45 0 86 9t64 17v207h-126v50h180v-293zM184 734l125 150h40l123 -150l-33 -23l-110 130l-111 -130z" />
    <glyph glyph-name="gcircumflex" unicode="&#x11d;" horiz-adv-x="502" 
d="M406 433q17 -17 29.5 -43.5t12.5 -61.5q0 -39 -16 -69.5t-43 -52t-63 -33t-76 -11.5q-20 0 -39 2.5t-31 5.5q-20 -5 -36.5 -15t-16.5 -27q0 -23 30 -33t102 -14q41 -2 78 -7t60 -12q48 -14 70 -42.5t22 -73.5q0 -72 -57.5 -109t-157.5 -37q-114 0 -174 35t-60 109
q0 45 22 73t55 44q-17 8 -30 22t-13 38q0 26 19 43t46 25q-14 8 -28.5 20t-26.5 28.5t-19.5 38.5t-7.5 51q0 38 15.5 68t42.5 51t62 32t74 11q38 0 66 -7.5t51 -19.5l59 64l35 -31zM108 327q0 -55 39 -88t101 -33q27 0 53.5 6.5t48 21.5t34.5 39t13 58q0 30 -13.5 52
t-34.5 35.5t-46.5 20t-50.5 6.5q-28 0 -54 -8t-46 -23t-32 -37t-12 -50zM204 41q-28 3 -43 6q-30 -11 -51.5 -35.5t-21.5 -62.5q0 -29 13.5 -49.5t38 -33t58.5 -18.5t75 -6q77 0 122.5 25t45.5 75q0 49 -37 68q-17 11 -52.5 16.5t-93.5 9.5q-26 2 -54 5zM110 568l125 150h40
l123 -150l-33 -23l-110 130l-111 -130z" />
    <glyph glyph-name="Gbreve" unicode="&#x11e;" horiz-adv-x="587" 
d="M537 24q-34 -14 -88 -25.5t-117 -11.5t-115 22.5t-89.5 66t-58 107.5t-20.5 148t21.5 149t58 109.5t85.5 67.5t105 23q45 0 79 -10t60 -27t44 -40t32 -49l-45 -27q-11 21 -26.5 39.5t-36 33t-47.5 23t-60 8.5q-42 0 -80.5 -19t-68 -56.5t-47 -94t-17.5 -131.5
q0 -67 16.5 -121.5t46.5 -93.5t72 -60t92 -21q45 0 86 9t64 17v207h-126v50h180v-293zM214 859q5 -52 33.5 -75t70.5 -23t71 23t35 75h42q-2 -38 -15.5 -64t-34.5 -43t-47 -24.5t-52 -7.5t-51.5 7.5t-46.5 24.5t-34.5 43t-14.5 64h44z" />
    <glyph glyph-name="gbreve" unicode="&#x11f;" horiz-adv-x="502" 
d="M406 433q17 -17 29.5 -43.5t12.5 -61.5q0 -39 -16 -69.5t-43 -52t-63 -33t-76 -11.5q-20 0 -39 2.5t-31 5.5q-20 -5 -36.5 -15t-16.5 -27q0 -23 30 -33t102 -14q41 -2 78 -7t60 -12q48 -14 70 -42.5t22 -73.5q0 -72 -57.5 -109t-157.5 -37q-114 0 -174 35t-60 109
q0 45 22 73t55 44q-17 8 -30 22t-13 38q0 26 19 43t46 25q-14 8 -28.5 20t-26.5 28.5t-19.5 38.5t-7.5 51q0 38 15.5 68t42.5 51t62 32t74 11q38 0 66 -7.5t51 -19.5l59 64l35 -31zM108 327q0 -55 39 -88t101 -33q27 0 53.5 6.5t48 21.5t34.5 39t13 58q0 30 -13.5 52
t-34.5 35.5t-46.5 20t-50.5 6.5q-28 0 -54 -8t-46 -23t-32 -37t-12 -50zM204 41q-28 3 -43 6q-30 -11 -51.5 -35.5t-21.5 -62.5q0 -29 13.5 -49.5t38 -33t58.5 -18.5t75 -6q77 0 122.5 25t45.5 75q0 49 -37 68q-17 11 -52.5 16.5t-93.5 9.5q-26 2 -54 5zM146 693
q5 -52 33.5 -75t70.5 -23t71 23t35 75h42q-2 -38 -15.5 -64t-34.5 -43t-47 -24.5t-52 -7.5t-51.5 7.5t-46.5 24.5t-34.5 43t-14.5 64h44z" />
    <glyph glyph-name="Gdotaccent" unicode="&#x120;" horiz-adv-x="587" 
d="M537 24q-34 -14 -88 -25.5t-117 -11.5t-115 22.5t-89.5 66t-58 107.5t-20.5 148t21.5 149t58 109.5t85.5 67.5t105 23q45 0 79 -10t60 -27t44 -40t32 -49l-45 -27q-11 21 -26.5 39.5t-36 33t-47.5 23t-60 8.5q-42 0 -80.5 -19t-68 -56.5t-47 -94t-17.5 -131.5
q0 -67 16.5 -121.5t46.5 -93.5t72 -60t92 -21q45 0 86 9t64 17v207h-126v50h180v-293zM328 756q-17 0 -28.5 14.5t-11.5 34.5t11.5 34t28.5 14t28.5 -14.5t11.5 -33.5q0 -20 -11.5 -34.5t-28.5 -14.5z" />
    <glyph glyph-name="gdotaccent" unicode="&#x121;" horiz-adv-x="502" 
d="M406 433q17 -17 29.5 -43.5t12.5 -61.5q0 -39 -16 -69.5t-43 -52t-63 -33t-76 -11.5q-20 0 -39 2.5t-31 5.5q-20 -5 -36.5 -15t-16.5 -27q0 -23 30 -33t102 -14q41 -2 78 -7t60 -12q48 -14 70 -42.5t22 -73.5q0 -72 -57.5 -109t-157.5 -37q-114 0 -174 35t-60 109
q0 45 22 73t55 44q-17 8 -30 22t-13 38q0 26 19 43t46 25q-14 8 -28.5 20t-26.5 28.5t-19.5 38.5t-7.5 51q0 38 15.5 68t42.5 51t62 32t74 11q38 0 66 -7.5t51 -19.5l59 64l35 -31zM108 327q0 -55 39 -88t101 -33q27 0 53.5 6.5t48 21.5t34.5 39t13 58q0 30 -13.5 52
t-34.5 35.5t-46.5 20t-50.5 6.5q-28 0 -54 -8t-46 -23t-32 -37t-12 -50zM204 41q-28 3 -43 6q-30 -11 -51.5 -35.5t-21.5 -62.5q0 -29 13.5 -49.5t38 -33t58.5 -18.5t75 -6q77 0 122.5 25t45.5 75q0 49 -37 68q-17 11 -52.5 16.5t-93.5 9.5q-26 2 -54 5zM258 590
q-17 0 -28.5 14.5t-11.5 34.5t11.5 34t28.5 14t28.5 -14.5t11.5 -33.5q0 -20 -11.5 -34.5t-28.5 -14.5z" />
    <glyph glyph-name="Gcommaaccent" unicode="&#x122;" horiz-adv-x="587" 
d="M537 24q-34 -14 -88 -25.5t-117 -11.5t-115 22.5t-89.5 66t-58 107.5t-20.5 148t21.5 149t58 109.5t85.5 67.5t105 23q45 0 79 -10t60 -27t44 -40t32 -49l-45 -27q-11 21 -26.5 39.5t-36 33t-47.5 23t-60 8.5q-42 0 -80.5 -19t-68 -56.5t-47 -94t-17.5 -131.5
q0 -67 16.5 -121.5t46.5 -93.5t72 -60t92 -21q45 0 86 9t64 17v207h-126v50h180v-293zM257 -174l51 130h61l-71 -130h-41z" />
    <glyph glyph-name="gcommaaccent" unicode="&#x123;" horiz-adv-x="502" 
d="M406 433q17 -17 29.5 -43.5t12.5 -61.5q0 -39 -16 -69.5t-43 -52t-63 -33t-76 -11.5q-20 0 -39 2.5t-31 5.5q-20 -5 -36.5 -15t-16.5 -27q0 -23 30 -33t102 -14q41 -2 78 -7t60 -12q48 -14 70 -42.5t22 -73.5q0 -72 -57.5 -109t-157.5 -37q-114 0 -174 35t-60 109
q0 45 22 73t55 44q-17 8 -30 22t-13 38q0 26 19 43t46 25q-14 8 -28.5 20t-26.5 28.5t-19.5 38.5t-7.5 51q0 38 15.5 68t42.5 51t62 32t74 11q38 0 66 -7.5t51 -19.5l59 64l35 -31zM108 327q0 -55 39 -88t101 -33q27 0 53.5 6.5t48 21.5t34.5 39t13 58q0 30 -13.5 52
t-34.5 35.5t-46.5 20t-50.5 6.5q-28 0 -54 -8t-46 -23t-32 -37t-12 -50zM204 41q-28 3 -43 6q-30 -11 -51.5 -35.5t-21.5 -62.5q0 -29 13.5 -49.5t38 -33t58.5 -18.5t75 -6q77 0 122.5 25t45.5 75q0 49 -37 68q-17 11 -52.5 16.5t-93.5 9.5q-26 2 -54 5zM220 569l71 130h41
l-51 -130h-61z" />
    <glyph glyph-name="Hcircumflex" unicode="&#x124;" horiz-adv-x="635" 
d="M81 0v667h55v-297h363v297h55v-667h-55v320h-363v-320h-55zM180 734l125 150h40l123 -150l-33 -23l-110 130l-111 -130z" />
    <glyph glyph-name="hcircumflex" unicode="&#x125;" horiz-adv-x="519" 
d="M69 0v667h52v-232q29 23 66.5 38.5t88.5 15.5q93 0 135 -47t42 -138v-304h-53v303q0 75 -33.5 108t-98.5 33q-44 0 -80.5 -17.5t-66.5 -40.5v-386h-52zM77 734l125 150h40l123 -150l-33 -23l-110 130l-111 -130z" />
    <glyph glyph-name="Hbar" unicode="&#x126;" horiz-adv-x="635" 
d="M81 0v506h-90v44h90v117h55v-117h363v117h55v-117h109v-44h-109v-506h-55v320h-363v-320h-55zM136 370h363v136h-363v-136z" />
    <glyph glyph-name="hbar" unicode="&#x127;" horiz-adv-x="519" 
d="M69 0v565h-67v44h67v58h52v-58h223v-44h-223v-130q29 23 66.5 38.5t88.5 15.5q93 0 135 -47t42 -138v-304h-53v303q0 75 -33.5 108t-98.5 33q-44 0 -80.5 -17.5t-66.5 -40.5v-386h-52z" />
    <glyph glyph-name="Itilde" unicode="&#x128;" horiz-adv-x="217" 
d="M81 0v667h55v-667h-55zM-53 767q14 35 38.5 57.5t57.5 22.5q20 0 40 -9.5t39 -20.5l25.5 -15.5t28.5 -8.5q35 0 61 53l36 -17q-15 -38 -39 -58.5t-58 -20.5q-16 0 -33.5 8.5t-36.5 19.5l-32.5 18.5t-29.5 7.5q-34 0 -61 -55z" />
    <glyph glyph-name="itilde" unicode="&#x129;" horiz-adv-x="191" 
d="M69 0v476h52v-476h-52zM-66 601q14 35 38.5 57.5t57.5 22.5q20 0 40 -9.5t39 -20.5l25.5 -15.5t28.5 -8.5q35 0 61 53l36 -17q-15 -38 -39 -58.5t-58 -20.5q-16 0 -33.5 8.5t-36.5 19.5l-32.5 18.5t-29.5 7.5q-34 0 -61 -55z" />
    <glyph glyph-name="Imacron" unicode="&#x12a;" horiz-adv-x="217" 
d="M-35 778v45h286v-45h-286zM81 0v667h55v-667h-55z" />
    <glyph glyph-name="imacron" unicode="&#x12b;" horiz-adv-x="191" 
d="M-49 612v45h286v-45h-286zM69 0v476h52v-476h-52z" />
    <glyph glyph-name="Ibreve" unicode="&#x12c;" horiz-adv-x="217" 
d="M81 0v667h55v-667h-55zM6 859q5 -52 33.5 -75t70.5 -23t71 23t35 75h42q-2 -38 -15.5 -64t-34.5 -43t-47 -24.5t-52 -7.5t-51.5 7.5t-46.5 24.5t-34.5 43t-14.5 64h44z" />
    <glyph glyph-name="ibreve" unicode="&#x12d;" horiz-adv-x="191" 
d="M69 0v476h52v-476h-52zM-7 693q5 -52 33.5 -75t70.5 -23t71 23t35 75h42q-2 -38 -15.5 -64t-34.5 -43t-47 -24.5t-52 -7.5t-51.5 7.5t-46.5 24.5t-34.5 43t-14.5 64h44z" />
    <glyph glyph-name="Iogonek" unicode="&#x12e;" horiz-adv-x="217" 
d="M146 -161q-10 -5 -22.5 -8.5t-28.5 -3.5q-36 0 -56.5 19.5t-20.5 53.5q0 22 8 40t20 33t25 26q5 4 10 7v661h55v-667h-10q-8 -5 -16 -12q-12 -10 -22.5 -23t-17 -27.5t-6.5 -31.5q0 -18 9 -29t28 -11q10 0 18 2.5t16 6.5z" />
    <glyph glyph-name="iogonek" unicode="&#x12f;" horiz-adv-x="191" 
d="M132 -161q-10 -5 -22.5 -8.5t-28.5 -3.5q-36 0 -56.5 19.5t-20.5 53.5q0 22 8 40t20 33t25 26q6 5 12 9v468h53v-476h-10q-8 -5 -16 -12q-12 -10 -22.5 -23t-17 -27.5t-6.5 -31.5q0 -18 9 -29t28 -11q10 0 18 2.5t16 6.5zM95 578q-15 0 -25.5 13t-10.5 32t10.5 31.5
t25.5 12.5q16 0 27 -12.5t11 -31.5q0 -20 -11 -32.5t-27 -12.5z" />
    <glyph glyph-name="Idotaccent" unicode="&#x130;" horiz-adv-x="217" 
d="M81 0v667h55v-667h-55zM108 763q-17 0 -28.5 14.5t-11.5 34.5t11.5 34t28.5 14t28.5 -14.5t11.5 -33.5q0 -20 -11.5 -34.5t-28.5 -14.5z" />
    <glyph glyph-name="dotlessi" unicode="&#x131;" horiz-adv-x="191" 
d="M69 0v476h52v-476h-52z" />
    <glyph glyph-name="IJ" unicode="&#x132;" horiz-adv-x="462" 
d="M81 0v667h55v-667h-55zM203 -80q26 6 49 15t40 24t26.5 36.5t9.5 50.5v621h55v-622q0 -41 -13.5 -71t-36.5 -50.5t-54 -32.5t-66 -18z" />
    <glyph glyph-name="ij" unicode="&#x133;" horiz-adv-x="400" 
d="M95 578q-15 0 -25.5 13t-10.5 32t10.5 31.5t25.5 12.5q16 0 27 -12.5t11 -31.5q0 -20 -11 -32.5t-27 -12.5zM69 0v476h53v-476h-53zM304 578q-16 0 -26.5 13t-10.5 32t10.5 31.5t26.5 12.5q15 0 26 -12.5t11 -31.5q0 -20 -11 -32.5t-26 -12.5zM200 -157q43 27 60.5 63
t17.5 91v479h53v-479q0 -74 -26.5 -118.5t-78.5 -74.5z" />
    <glyph glyph-name="Jcircumflex" unicode="&#x134;" horiz-adv-x="220" 
d="M-39 -80q26 6 49 15t40 24t26.5 36.5t9.5 50.5v621h55v-622q0 -41 -13.5 -71t-36.5 -50.5t-54 -32.5t-66 -18zM-28 734l125 150h40l123 -150l-33 -23l-110 130l-111 -130z" />
    <glyph glyph-name="jcircumflex" unicode="&#x135;" horiz-adv-x="189" 
d="M-11 -157q43 27 60.5 63t17.5 91v479h53v-479q0 -74 -26.5 -118.5t-78.5 -74.5zM-48 568l125 150h40l123 -150l-33 -23l-110 130l-111 -130z" />
    <glyph glyph-name="Kcommaaccent" unicode="&#x136;" horiz-adv-x="541" 
d="M81 0v667h55v-324l317 324h66l-256 -263l276 -404h-65l-249 364l-89 -88v-276h-55zM223 -174l51 130h61l-71 -130h-41z" />
    <glyph glyph-name="kcommaaccent" unicode="&#x137;" horiz-adv-x="455" 
d="M69 0v667h52v-396l218 205h67l-161 -154l211 -322h-62l-188 286l-85 -79v-207h-52zM173 -174l51 130h61l-71 -130h-41z" />
    <glyph glyph-name="kgreenlandic" unicode="&#x138;" horiz-adv-x="455" 
d="M69 0v476h52v-249l221 249h64l-160 -183l210 -293h-62l-186 255l-87 -98v-157h-52z" />
    <glyph glyph-name="Lacute" unicode="&#x139;" horiz-adv-x="466" 
d="M81 0v667h55v-618h322v-49h-377zM54 713l-24 29l165 140l36 -42z" />
    <glyph glyph-name="lacute" unicode="&#x13a;" horiz-adv-x="190" 
d="M69 0v667h52v-667h-52zM30 713l-24 29l165 140l36 -42z" />
    <glyph glyph-name="Lcommaaccent" unicode="&#x13b;" horiz-adv-x="466" 
d="M81 0v667h55v-618h322v-49h-377zM192 -174l51 130h61l-71 -130h-41z" />
    <glyph glyph-name="lcommaaccent" unicode="&#x13c;" horiz-adv-x="190" 
d="M69 0v667h52v-667h-52zM12 -174l51 130h61l-71 -130h-41z" />
    <glyph glyph-name="Lcaron" unicode="&#x13d;" horiz-adv-x="466" 
d="M81 0v667h55v-618h322v-49h-377zM229 500v167h54l-20 -167h-34z" />
    <glyph glyph-name="lcaron" unicode="&#x13e;" horiz-adv-x="190" 
d="M69 0v667h52v-667h-52zM171 500v167h54l-20 -167h-34z" />
    <glyph glyph-name="Ldot" unicode="&#x13f;" horiz-adv-x="466" 
d="M81 0v667h55v-618h322v-49h-377zM345 308q-17 0 -28.5 14.5t-11.5 34.5t11.5 34t28.5 14t28.5 -14.5t11.5 -33.5q0 -20 -11.5 -34.5t-28.5 -14.5z" />
    <glyph glyph-name="ldot" unicode="&#x140;" horiz-adv-x="248" 
d="M69 0v667h52v-667h-52zM223 308q-17 0 -28.5 14.5t-11.5 34.5t11.5 34t28.5 14t28.5 -14.5t11.5 -33.5q0 -20 -11.5 -34.5t-28.5 -14.5z" />
    <glyph glyph-name="Lslash" unicode="&#x141;" horiz-adv-x="466" 
d="M81 0v309l-79 -54l-22 36l101 67v309h55v-279l120 80l25 -36l-145 -94v-289h322v-49h-377z" />
    <glyph glyph-name="lslash" unicode="&#x142;" horiz-adv-x="213" 
d="M80 0v307l-72 -47l-21 36l93 61v310h53v-283l85 57l24 -36l-109 -71v-334h-53z" />
    <glyph glyph-name="Nacute" unicode="&#x143;" horiz-adv-x="647" 
d="M81 0v667h58l373 -561v561h54v-667h-48l-383 575v-575h-54zM261 713l-24 29l165 140l36 -42z" />
    <glyph glyph-name="nacute" unicode="&#x144;" horiz-adv-x="521" 
d="M69 0v476h48l4 -44q30 23 67.5 40t91.5 17q175 0 175 -190v-299h-52v304q0 66 -32 103t-98 37q-48 0 -85.5 -19t-66.5 -43v-382h-52zM191 547l-24 29l165 140l36 -42z" />
    <glyph glyph-name="Ncommaaccent" unicode="&#x145;" horiz-adv-x="647" 
d="M81 0v667h58l373 -561v561h54v-667h-48l-383 575v-575h-54zM260 -174l51 130h61l-71 -130h-41z" />
    <glyph glyph-name="ncommaaccent" unicode="&#x146;" horiz-adv-x="521" 
d="M69 0v476h48l4 -44q30 23 67.5 40t91.5 17q175 0 175 -190v-299h-52v304q0 66 -32 103t-98 37q-48 0 -85.5 -19t-66.5 -43v-382h-52zM189 -174l51 130h61l-71 -130h-41z" />
    <glyph glyph-name="Ncaron" unicode="&#x147;" horiz-adv-x="647" 
d="M81 0v667h58l373 -561v561h54v-667h-48l-383 575v-575h-54zM303 711l-125 150l34 23l111 -130l110 130l33 -23l-123 -150h-40z" />
    <glyph glyph-name="ncaron" unicode="&#x148;" horiz-adv-x="521" 
d="M69 0v476h48l4 -44q30 23 67.5 40t91.5 17q175 0 175 -190v-299h-52v304q0 66 -32 103t-98 37q-48 0 -85.5 -19t-66.5 -43v-382h-52zM244 545l-125 150l34 23l111 -130l110 130l33 -23l-123 -150h-40z" />
    <glyph glyph-name="napostrophe" unicode="&#x149;" horiz-adv-x="521" 
d="M69 0v476h48l4 -44q30 23 67.5 40t91.5 17q175 0 175 -190v-299h-52v304q0 66 -32 103t-98 37q-48 0 -85.5 -19t-66.5 -43v-382h-52zM4 528q17 8 35 24.5t26 32.5q-11 5 -20 16.5t-9 34.5q0 20 10 35t30 15q19 0 29.5 -14.5t10.5 -38.5q0 -22 -8.5 -41t-23 -35.5
t-32.5 -30t-37 -23.5z" />
    <glyph glyph-name="Eng" unicode="&#x14a;" horiz-adv-x="647" 
d="M81 0v667h57l373 -561v561h55v-672q0 -72 -26.5 -116.5t-79.5 -74.5l-25 39q42 28 60 64.5t18 99.5l-379 568v-575h-53z" />
    <glyph glyph-name="eng" unicode="&#x14b;" horiz-adv-x="521" 
d="M69 0v476h48l4 -44q30 23 67.5 40t91.5 17q175 0 175 -190v-306q-1 -72 -27 -115.5t-78 -73.5l-26 39q43 27 61 63t18 91v307q0 66 -32 103t-98 37q-48 0 -85.5 -19t-66.5 -43v-382h-52z" />
    <glyph glyph-name="Omacron" unicode="&#x14c;" horiz-adv-x="643" 
d="M182 778v45h286v-45h-286zM201 16q-51 30 -85 78.5t-50.5 111t-16.5 128.5q0 67 17.5 129.5t52 110.5t85.5 77t119 29q69 0 120 -29.5t84.5 -78t50 -111t16.5 -127.5t-16.5 -127.5t-50 -111t-84.5 -78.5t-120 -30q-70 0 -122 29zM159 130q27 -42 68 -68t96 -26t95 26.5
t66.5 68.5t39.5 95.5t13 107.5t-12.5 107t-39 95t-67 68.5t-95.5 26.5q-57 0 -98 -26t-67.5 -68.5t-39 -95.5t-12.5 -107t13 -107.5t40 -96.5z" />
    <glyph glyph-name="omacron" unicode="&#x14d;" horiz-adv-x="519" 
d="M117 603v45h286v-45h-286zM167 10q-39 22 -66 57t-40.5 81t-13.5 94t13.5 92.5t40 79t66 55t92.5 20.5q52 0 92 -21t67 -55.5t40.5 -79.5t13.5 -93q0 -49 -13.5 -94.5t-40.5 -80t-67 -55.5t-92 -21t-92 21zM139 98q20 -29 50 -47t70 -18q41 0 71 18.5t50 48t30 66.5
t10 75t-10 74.5t-30 65.5t-50 46.5t-71 17.5t-71 -17.5t-50 -46t-29.5 -65t-9.5 -74.5q0 -39 10 -76.5t30 -67.5z" />
    <glyph glyph-name="Obreve" unicode="&#x14e;" horiz-adv-x="643" 
d="M201 16q-51 30 -85 78.5t-50.5 111t-16.5 128.5q0 67 17.5 129.5t52 110.5t85.5 77t119 29q69 0 120 -29.5t84.5 -78t50 -111t16.5 -127.5t-16.5 -127.5t-50 -111t-84.5 -78.5t-120 -30q-70 0 -122 29zM159 130q27 -42 68 -68t96 -26t95 26.5t66.5 68.5t39.5 95.5
t13 107.5t-12.5 107t-39 95t-67 68.5t-95.5 26.5q-57 0 -98 -26t-67.5 -68.5t-39 -95.5t-12.5 -107t13 -107.5t40 -96.5zM221 859q5 -52 33.5 -75t70.5 -23t71 23t35 75h42q-2 -38 -15.5 -64t-34.5 -43t-47 -24.5t-52 -7.5t-51.5 7.5t-46.5 24.5t-34.5 43t-14.5 64h44z" />
    <glyph glyph-name="obreve" unicode="&#x14f;" horiz-adv-x="519" 
d="M167 10q-39 22 -66 57t-40.5 81t-13.5 94t13.5 92.5t40 79t66 55t92.5 20.5q52 0 92 -21t67 -55.5t40.5 -79.5t13.5 -93q0 -49 -13.5 -94.5t-40.5 -80t-67 -55.5t-92 -21t-92 21zM139 98q20 -29 50 -47t70 -18q41 0 71 18.5t50 48t30 66.5t10 75t-10 74.5t-30 65.5
t-50 46.5t-71 17.5t-71 -17.5t-50 -46t-29.5 -65t-9.5 -74.5q0 -39 10 -76.5t30 -67.5zM156 693q5 -52 33.5 -75t70.5 -23t71 23t35 75h42q-2 -38 -15.5 -64t-34.5 -43t-47 -24.5t-52 -7.5t-51.5 7.5t-46.5 24.5t-34.5 43t-14.5 64h44z" />
    <glyph glyph-name="Ohungarumlaut" unicode="&#x150;" horiz-adv-x="643" 
d="M201 16q-51 30 -85 78.5t-50.5 111t-16.5 128.5q0 67 17.5 129.5t52 110.5t85.5 77t119 29q69 0 120 -29.5t84.5 -78t50 -111t16.5 -127.5t-16.5 -127.5t-50 -111t-84.5 -78.5t-120 -30q-70 0 -122 29zM159 130q27 -42 68 -68t96 -26t95 26.5t66.5 68.5t39.5 95.5
t13 107.5t-12.5 107t-39 95t-67 68.5t-95.5 26.5q-57 0 -98 -26t-67.5 -68.5t-39 -95.5t-12.5 -107t13 -107.5t40 -96.5zM379 709l-26 26l157 148l40 -38zM210 709l-26 26l157 148l39 -38z" />
    <glyph glyph-name="ohungarumlaut" unicode="&#x151;" horiz-adv-x="519" 
d="M167 10q-39 22 -66 57t-40.5 81t-13.5 94t13.5 92.5t40 79t66 55t92.5 20.5q52 0 92 -21t67 -55.5t40.5 -79.5t13.5 -93q0 -49 -13.5 -94.5t-40.5 -80t-67 -55.5t-92 -21t-92 21zM139 98q20 -29 50 -47t70 -18q41 0 71 18.5t50 48t30 66.5t10 75t-10 74.5t-30 65.5
t-50 46.5t-71 17.5t-71 -17.5t-50 -46t-29.5 -65t-9.5 -74.5q0 -39 10 -76.5t30 -67.5zM312 543l-26 26l157 148l40 -38zM143 543l-26 26l157 148l39 -38z" />
    <glyph glyph-name="OE" unicode="&#x152;" horiz-adv-x="859" 
d="M380 0q-75 0 -136 23.5t-104.5 67.5t-67 106.5t-23.5 140.5q0 77 23.5 138t67 103.5t104.5 65t135 22.5h448v-49h-306v-239h218v-50h-218v-280h325v-49h-466zM466 49v569h-87q-62 0 -112.5 -20t-86 -57t-55 -89t-19.5 -116q0 -65 20 -117.5t56.5 -90.5t87 -58.5
t110.5 -20.5h86z" />
    <glyph glyph-name="oe" unicode="&#x153;" horiz-adv-x="812" 
d="M449 247q0 -43 8.5 -81.5t26.5 -68t47.5 -47t71.5 -17.5q50 0 77.5 23t47.5 61l39 -21q-12 -23 -27 -42.5t-34.5 -33.5t-45.5 -22.5t-59 -8.5q-71 0 -114 32.5t-63 87.5q-24 -54 -65 -87t-110 -33q-53 0 -91 21t-62.5 56.5t-36.5 81t-12 94.5q0 48 12 93t36.5 79
t62.5 54.5t91 20.5q38 0 66 -8.5t48.5 -23.5t34.5 -35.5t24 -44.5q10 23 24.5 43.5t34.5 35.5t46 24t60 9q48 0 83 -17.5t58.5 -49t35 -76t12.5 -99.5h-327zM717 291q-5 81 -42 117.5t-88 36.5q-55 0 -92 -38t-46 -116h268zM134 97q18 -29 46.5 -46.5t68.5 -17.5t68.5 17.5
t47 46.5t27 66.5t8.5 77.5q0 43 -9 80t-27.5 64.5t-47 43.5t-67.5 16q-40 0 -68.5 -17t-46.5 -45t-26.5 -64.5t-8.5 -76.5q0 -41 8.5 -78.5t26.5 -66.5z" />
    <glyph glyph-name="Racute" unicode="&#x154;" horiz-adv-x="537" 
d="M81 0v667h210q101 0 153.5 -47.5t52.5 -133.5t-48 -130t-128 -52l186 -304h-62l-186 302h-123v-302h-55zM136 351h152q75 0 114 33t39 102q0 64 -38 98t-113 34h-154v-267zM182 713l-24 29l165 140l36 -42z" />
    <glyph glyph-name="racute" unicode="&#x155;" horiz-adv-x="300" 
d="M69 0v476h47l4 -48q21 25 51.5 42.5t66.5 17.5q20 0 35.5 -2t25.5 -5l-9 -49q-22 8 -56 8q-32 0 -62.5 -20t-50.5 -44v-376h-52zM118 547l-24 29l165 140l36 -42z" />
    <glyph glyph-name="Rcommaaccent" unicode="&#x156;" horiz-adv-x="537" 
d="M81 0v667h210q101 0 153.5 -47.5t52.5 -133.5t-48 -130t-128 -52l186 -304h-62l-186 302h-123v-302h-55zM136 351h152q75 0 114 33t39 102q0 64 -38 98t-113 34h-154v-267zM208 -174l51 130h61l-71 -130h-41z" />
    <glyph glyph-name="rcommaaccent" unicode="&#x157;" horiz-adv-x="300" 
d="M69 0v476h47l4 -48q21 25 51.5 42.5t66.5 17.5q20 0 35.5 -2t25.5 -5l-9 -49q-22 8 -56 8q-32 0 -62.5 -20t-50.5 -44v-376h-52zM12 -174l51 130h61l-71 -130h-41z" />
    <glyph glyph-name="Rcaron" unicode="&#x158;" horiz-adv-x="537" 
d="M81 0v667h210q101 0 153.5 -47.5t52.5 -133.5t-48 -130t-128 -52l186 -304h-62l-186 302h-123v-302h-55zM136 351h152q75 0 114 33t39 102q0 64 -38 98t-113 34h-154v-267zM239 711l-125 150l34 23l111 -130l110 130l33 -23l-123 -150h-40z" />
    <glyph glyph-name="rcaron" unicode="&#x159;" horiz-adv-x="300" 
d="M69 0v476h47l4 -48q21 25 51.5 42.5t66.5 17.5q20 0 35.5 -2t25.5 -5l-9 -49q-22 8 -56 8q-32 0 -62.5 -20t-50.5 -44v-376h-52zM177 545l-125 150l34 23l111 -130l110 130l33 -23l-123 -150h-40z" />
    <glyph glyph-name="Sacute" unicode="&#x15a;" horiz-adv-x="503" 
d="M77 130q29 -45 75 -69.5t101 -24.5q67 0 111 32t44 100q0 34 -13.5 59.5t-37.5 45t-56.5 34.5t-69.5 28q-31 11 -63 25.5t-58 36t-42.5 50.5t-16.5 69t16.5 71t44 51.5t65 31t79.5 10.5q76 0 126 -28.5t82 -73.5l-43 -33q-27 37 -68 61.5t-99 24.5q-30 0 -56.5 -7
t-46 -21t-31 -35t-11.5 -49q0 -29 14 -49.5t36 -36.5t50 -28t55 -22q39 -15 75 -32.5t64 -41.5t45 -57.5t17 -80.5q0 -93 -57.5 -138.5t-156.5 -45.5q-72 0 -128.5 28.5t-91.5 82.5zM184 713l-24 29l165 140l36 -42z" />
    <glyph glyph-name="sacute" unicode="&#x15b;" horiz-adv-x="388" 
d="M76 99q19 -30 48.5 -48t74.5 -18q51 0 80.5 22t29.5 66q0 46 -30 71.5t-97 48.5q-69 23 -98 52t-29 79q0 52 39 84.5t108 32.5q56 0 92 -20.5t57 -53.5l-39 -28q-17 25 -44.5 42t-65.5 17q-48 0 -71.5 -20.5t-23.5 -51.5q0 -18 5.5 -31t19 -24t37 -21.5t58.5 -22.5
q67 -23 99.5 -57t32.5 -94q0 -66 -45.5 -100.5t-114.5 -34.5q-66 0 -104.5 24.5t-59.5 59.5zM129 547l-24 29l165 140l36 -42z" />
    <glyph glyph-name="Scircumflex" unicode="&#x15c;" horiz-adv-x="503" 
d="M77 130q29 -45 75 -69.5t101 -24.5q67 0 111 32t44 100q0 34 -13.5 59.5t-37.5 45t-56.5 34.5t-69.5 28q-31 11 -63 25.5t-58 36t-42.5 50.5t-16.5 69t16.5 71t44 51.5t65 31t79.5 10.5q76 0 126 -28.5t82 -73.5l-43 -33q-27 37 -68 61.5t-99 24.5q-30 0 -56.5 -7
t-46 -21t-31 -35t-11.5 -49q0 -29 14 -49.5t36 -36.5t50 -28t55 -22q39 -15 75 -32.5t64 -41.5t45 -57.5t17 -80.5q0 -93 -57.5 -138.5t-156.5 -45.5q-72 0 -128.5 28.5t-91.5 82.5zM114 734l125 150h40l123 -150l-33 -23l-110 130l-111 -130z" />
    <glyph glyph-name="scircumflex" unicode="&#x15d;" horiz-adv-x="388" 
d="M76 99q19 -30 48.5 -48t74.5 -18q51 0 80.5 22t29.5 66q0 46 -30 71.5t-97 48.5q-69 23 -98 52t-29 79q0 52 39 84.5t108 32.5q56 0 92 -20.5t57 -53.5l-39 -28q-17 25 -44.5 42t-65.5 17q-48 0 -71.5 -20.5t-23.5 -51.5q0 -18 5.5 -31t19 -24t37 -21.5t58.5 -22.5
q67 -23 99.5 -57t32.5 -94q0 -66 -45.5 -100.5t-114.5 -34.5q-66 0 -104.5 24.5t-59.5 59.5zM58 568l125 150h40l123 -150l-33 -23l-110 130l-111 -130z" />
    <glyph glyph-name="Scedilla" unicode="&#x15e;" horiz-adv-x="503" 
d="M77 130q29 -45 75 -69.5t101 -24.5q67 0 111 32t44 100q0 34 -13.5 59.5t-37.5 45t-56.5 34.5t-69.5 28q-31 11 -63 25.5t-58 36t-42.5 50.5t-16.5 69t16.5 71t44 51.5t65 31t79.5 10.5q76 0 126 -28.5t82 -73.5l-43 -33q-27 37 -68 61.5t-99 24.5q-30 0 -56.5 -7
t-46 -21t-31 -35t-11.5 -49q0 -29 14 -49.5t36 -36.5t50 -28t55 -22q39 -15 75 -32.5t64 -41.5t45 -57.5t17 -80.5q0 -93 -57.5 -138.5t-156.5 -45.5q-72 0 -128.5 28.5t-91.5 82.5zM171 -174l51 130h61l-71 -130h-41z" />
    <glyph glyph-name="scedilla" unicode="&#x15f;" horiz-adv-x="388" 
d="M76 99q19 -30 48.5 -48t74.5 -18q51 0 80.5 22t29.5 66q0 46 -30 71.5t-97 48.5q-69 23 -98 52t-29 79q0 52 39 84.5t108 32.5q56 0 92 -20.5t57 -53.5l-39 -28q-17 25 -44.5 42t-65.5 17q-48 0 -71.5 -20.5t-23.5 -51.5q0 -18 5.5 -31t19 -24t37 -21.5t58.5 -22.5
q67 -23 99.5 -57t32.5 -94q0 -66 -45.5 -100.5t-114.5 -34.5q-66 0 -104.5 24.5t-59.5 59.5zM116 -174l51 130h61l-71 -130h-41z" />
    <glyph glyph-name="Scaron" unicode="&#x160;" horiz-adv-x="503" 
d="M77 130q29 -45 75 -69.5t101 -24.5q67 0 111 32t44 100q0 34 -13.5 59.5t-37.5 45t-56.5 34.5t-69.5 28q-31 11 -63 25.5t-58 36t-42.5 50.5t-16.5 69t16.5 71t44 51.5t65 31t79.5 10.5q76 0 126 -28.5t82 -73.5l-43 -33q-27 37 -68 61.5t-99 24.5q-30 0 -56.5 -7
t-46 -21t-31 -35t-11.5 -49q0 -29 14 -49.5t36 -36.5t50 -28t55 -22q39 -15 75 -32.5t64 -41.5t45 -57.5t17 -80.5q0 -93 -57.5 -138.5t-156.5 -45.5q-72 0 -128.5 28.5t-91.5 82.5zM243 710l-125 150l34 23l111 -130l110 130l33 -23l-123 -150h-40z" />
    <glyph glyph-name="scaron" unicode="&#x161;" horiz-adv-x="388" 
d="M76 99q19 -30 48.5 -48t74.5 -18q51 0 80.5 22t29.5 66q0 46 -30 71.5t-97 48.5q-69 23 -98 52t-29 79q0 52 39 84.5t108 32.5q56 0 92 -20.5t57 -53.5l-39 -28q-17 25 -44.5 42t-65.5 17q-48 0 -71.5 -20.5t-23.5 -51.5q0 -18 5.5 -31t19 -24t37 -21.5t58.5 -22.5
q67 -23 99.5 -57t32.5 -94q0 -66 -45.5 -100.5t-114.5 -34.5q-66 0 -104.5 24.5t-59.5 59.5zM181 545l-125 150l34 23l111 -130l110 130l33 -23l-123 -150h-40z" />
    <glyph glyph-name="Tcommaaccent" unicode="&#x162;" horiz-adv-x="476" 
d="M210 0v618h-206v49h468v-49h-207v-618h-55zM152 -174l51 130h61l-71 -130h-41z" />
    <glyph glyph-name="tcommaaccent" unicode="&#x163;" horiz-adv-x="298" 
d="M150 101q0 -38 15.5 -53t42.5 -15q19 0 33 5.5t28 16.5l22 -38q-20 -14 -39.5 -21t-54.5 -7q-45 0 -71.5 26.5t-26.5 77.5v339h-82v44h82v128h52v-128h125v-44h-126v-331zM109 -174l51 130h61l-71 -130h-41z" />
    <glyph glyph-name="Tcaron" unicode="&#x164;" horiz-adv-x="476" 
d="M210 0v618h-206v49h468v-49h-207v-618h-55zM215 711l-125 150l34 23l111 -130l110 130l33 -23l-123 -150h-40z" />
    <glyph glyph-name="tcaron" unicode="&#x165;" horiz-adv-x="298" 
d="M150 101q0 -38 15.5 -53t42.5 -15q19 0 33 5.5t28 16.5l22 -38q-20 -14 -39.5 -21t-54.5 -7q-45 0 -71.5 26.5t-26.5 77.5v339h-82v44h82v128h52v-128h125v-44h-126v-331zM220 525v167h54l-20 -167h-34z" />
    <glyph glyph-name="Tbar" unicode="&#x166;" horiz-adv-x="476" 
d="M210 0v313h-141v44h141v261h-206v49h468v-49h-207v-261h144v-44h-144v-313h-55z" />
    <glyph glyph-name="tbar" unicode="&#x167;" horiz-adv-x="298" 
d="M150 101q0 -38 15.5 -53t42.5 -15q19 0 33 5.5t28 16.5l22 -38q-20 -14 -39.5 -21t-54.5 -7q-45 0 -71.5 26.5t-26.5 77.5v148h-82v44h82v147h-82v44h82v128h52v-128h125v-44h-126v-147h126v-44h-126v-140z" />
    <glyph glyph-name="Utilde" unicode="&#x168;" horiz-adv-x="631" 
d="M131 237q0 -92 47.5 -146t136.5 -54q90 0 137.5 52.5t47.5 147.5v430h55v-445q0 -57 -19 -101t-51.5 -73.5t-76.5 -45t-94 -15.5q-51 0 -94.5 15.5t-75.5 45t-50 73.5t-18 101v445h55v-430zM151 767q14 35 38.5 57.5t57.5 22.5q20 0 40 -9.5t39 -20.5l25.5 -15.5
t28.5 -8.5q35 0 61 53l36 -17q-15 -38 -39 -58.5t-58 -20.5q-16 0 -33.5 8.5t-36.5 19.5l-32.5 18.5t-29.5 7.5q-34 0 -61 -55z" />
    <glyph glyph-name="utilde" unicode="&#x169;" horiz-adv-x="518" 
d="M118 169q0 -72 35.5 -103.5t95.5 -31.5q45 0 83 18.5t64 47.5v376h53v-476h-47l-4 47q-27 -23 -63 -40.5t-93 -17.5q-84 0 -130.5 43.5t-46.5 136.5v307h53v-307zM98 601q14 35 38.5 57.5t57.5 22.5q20 0 40 -9.5t39 -20.5l25.5 -15.5t28.5 -8.5q35 0 61 53l36 -17
q-15 -38 -39 -58.5t-58 -20.5q-16 0 -33.5 8.5t-36.5 19.5l-32.5 18.5t-29.5 7.5q-34 0 -61 -55z" />
    <glyph glyph-name="Umacron" unicode="&#x16a;" horiz-adv-x="631" 
d="M179 778v45h286v-45h-286zM131 237q0 -92 47.5 -146t136.5 -54q90 0 137.5 52.5t47.5 147.5v430h55v-445q0 -57 -19 -101t-51.5 -73.5t-76.5 -45t-94 -15.5q-51 0 -94.5 15.5t-75.5 45t-50 73.5t-18 101v445h55v-430z" />
    <glyph glyph-name="umacron" unicode="&#x16b;" horiz-adv-x="518" 
d="M111 612v45h286v-45h-286zM118 169q0 -72 35.5 -103.5t95.5 -31.5q45 0 83 18.5t64 47.5v376h53v-476h-47l-4 47q-27 -23 -63 -40.5t-93 -17.5q-84 0 -130.5 43.5t-46.5 136.5v307h53v-307z" />
    <glyph glyph-name="Ubreve" unicode="&#x16c;" horiz-adv-x="631" 
d="M131 237q0 -92 47.5 -146t136.5 -54q90 0 137.5 52.5t47.5 147.5v430h55v-445q0 -57 -19 -101t-51.5 -73.5t-76.5 -45t-94 -15.5q-51 0 -94.5 15.5t-75.5 45t-50 73.5t-18 101v445h55v-430zM217 859q5 -52 33.5 -75t70.5 -23t71 23t35 75h42q-2 -38 -15.5 -64t-34.5 -43
t-47 -24.5t-52 -7.5t-51.5 7.5t-46.5 24.5t-34.5 43t-14.5 64h44z" />
    <glyph glyph-name="ubreve" unicode="&#x16d;" horiz-adv-x="518" 
d="M118 169q0 -72 35.5 -103.5t95.5 -31.5q45 0 83 18.5t64 47.5v376h53v-476h-47l-4 47q-27 -23 -63 -40.5t-93 -17.5q-84 0 -130.5 43.5t-46.5 136.5v307h53v-307zM161 693q5 -52 33.5 -75t70.5 -23t71 23t35 75h42q-2 -38 -15.5 -64t-34.5 -43t-47 -24.5t-52 -7.5
t-51.5 7.5t-46.5 24.5t-34.5 43t-14.5 64h44z" />
    <glyph glyph-name="Uring" unicode="&#x16e;" horiz-adv-x="631" 
d="M131 237q0 -92 47.5 -146t136.5 -54q90 0 137.5 52.5t47.5 147.5v430h55v-445q0 -57 -19 -101t-51.5 -73.5t-76.5 -45t-94 -15.5q-51 0 -94.5 15.5t-75.5 45t-50 73.5t-18 101v445h55v-430zM323 701q-44 0 -69 29.5t-25 68.5q0 40 25 69.5t69 29.5q43 0 68 -29.5
t25 -68.5q0 -20 -6.5 -37.5t-18.5 -31.5t-29.5 -22t-38.5 -8zM382 800q0 26 -16.5 46t-42.5 20q-27 0 -43.5 -20t-16.5 -46t16.5 -46.5t43.5 -20.5q26 0 42.5 20t16.5 46v1z" />
    <glyph glyph-name="uring" unicode="&#x16f;" horiz-adv-x="518" 
d="M118 169q0 -72 35.5 -103.5t95.5 -31.5q45 0 83 18.5t64 47.5v376h53v-476h-47l-4 47q-27 -23 -63 -40.5t-93 -17.5q-84 0 -130.5 43.5t-46.5 136.5v307h53v-307zM263 535q-44 0 -69 29.5t-25 68.5q0 40 25 69.5t69 29.5q43 0 68 -29.5t25 -68.5q0 -20 -6.5 -37.5
t-18.5 -31.5t-29.5 -22t-38.5 -8zM322 634q0 26 -16.5 46t-42.5 20q-27 0 -43.5 -20t-16.5 -46t16.5 -46.5t43.5 -20.5q26 0 42.5 20t16.5 46v1z" />
    <glyph glyph-name="Uhungarumlaut" unicode="&#x170;" horiz-adv-x="631" 
d="M131 237q0 -92 47.5 -146t136.5 -54q90 0 137.5 52.5t47.5 147.5v430h55v-445q0 -57 -19 -101t-51.5 -73.5t-76.5 -45t-94 -15.5q-51 0 -94.5 15.5t-75.5 45t-50 73.5t-18 101v445h55v-430zM372 709l-26 26l157 148l40 -38zM203 709l-26 26l157 148l39 -38z" />
    <glyph glyph-name="uhungarumlaut" unicode="&#x171;" horiz-adv-x="518" 
d="M118 169q0 -72 35.5 -103.5t95.5 -31.5q45 0 83 18.5t64 47.5v376h53v-476h-47l-4 47q-27 -23 -63 -40.5t-93 -17.5q-84 0 -130.5 43.5t-46.5 136.5v307h53v-307zM319 543l-26 26l157 148l40 -38zM150 543l-26 26l157 148l39 -38z" />
    <glyph glyph-name="Uogonek" unicode="&#x172;" horiz-adv-x="631" 
d="M425 -161q-10 -5 -22.5 -8.5t-28.5 -3.5q-36 0 -56.5 19.5t-20.5 53.5q0 22 8 40t20 33q6 8 13 15q-12 -1 -24 -1q-51 0 -94.5 15.5t-75.5 45t-50 73.5t-18 101v445h55v-430q0 -92 47.5 -146t136.5 -54q90 0 137.5 52.5t47.5 147.5v430h55v-445q0 -57 -19 -101
t-51.5 -73.5t-74.5 -44.5q-11 -7 -21 -15q-12 -10 -22.5 -23t-17 -27.5t-6.5 -31.5q0 -18 9 -29t28 -11q10 0 18 2.5t16 6.5z" />
    <glyph glyph-name="uogonek" unicode="&#x173;" horiz-adv-x="518" 
d="M455 -161q-10 -5 -22.5 -8.5t-28.5 -3.5q-36 0 -56.5 19.5t-20.5 53.5q0 22 8 40t20 33t25 26q11 9 21 15l-3 33q-27 -23 -63 -40.5t-93 -17.5q-84 0 -130.5 43.5t-46.5 136.5v307h53v-307q0 -72 35.5 -103.5t95.5 -31.5q45 0 83 18.5t64 47.5v376h53v-476h-14
q-8 -5 -16 -12q-12 -10 -22.5 -23t-17 -27.5t-6.5 -31.5q0 -18 9 -29t28 -11q10 0 18 2.5t16 6.5z" />
    <glyph glyph-name="Wcircumflex" unicode="&#x174;" horiz-adv-x="747" 
d="M175 0l-169 667h54l140 -544l158 544h31l160 -544l137 544h55l-168 -667h-37l-163 546l-162 -546h-36zM229 734l125 150h40l123 -150l-33 -23l-110 130l-111 -130z" />
    <glyph glyph-name="wcircumflex" unicode="&#x175;" horiz-adv-x="650" 
d="M157 0l-157 476h55l124 -392l126 392h36l126 -392l127 392h56l-161 -476h-42l-124 384l-125 -384h-41zM179 568l125 150h40l123 -150l-33 -23l-110 130l-111 -130z" />
    <glyph glyph-name="Ycircumflex" unicode="&#x176;" horiz-adv-x="515" 
d="M226 0v321l-226 346h62l193 -295l200 295h60l-234 -345v-322h-55zM116 734l125 150h40l123 -150l-33 -23l-110 130l-111 -130z" />
    <glyph glyph-name="ycircumflex" unicode="&#x177;" horiz-adv-x="436" 
d="M20 -141q13 -5 31 -10.5t34 -5.5q25 0 39 11t26 41l42 105l-192 476h59l161 -407l160 407h56l-243 -605q-17 -41 -43 -57t-63 -16q-23 0 -45.5 4.5t-37.5 11.5zM75 568l125 150h40l123 -150l-33 -23l-110 130l-111 -130z" />
    <glyph glyph-name="Ydieresis" unicode="&#x178;" horiz-adv-x="515" 
d="M226 0v321l-226 346h62l193 -295l200 295h60l-234 -345v-322h-55zM339 764q-16 0 -27.5 12.5t-11.5 31.5q0 18 11.5 31t27.5 13t27 -13t11 -31q0 -19 -11 -31.5t-27 -12.5zM180 764q-16 0 -27.5 12.5t-11.5 31.5q0 18 11.5 31t27.5 13t27 -13t11 -31q0 -19 -11 -31.5
t-27 -12.5z" />
    <glyph glyph-name="Zacute" unicode="&#x179;" horiz-adv-x="534" 
d="M39 0v51l392 567h-375v49h429v-55l-388 -563h403v-49h-461zM203 713l-24 29l165 140l36 -42z" />
    <glyph glyph-name="zacute" unicode="&#x17a;" horiz-adv-x="451" 
d="M41 0v52l303 380h-292v44h347v-53l-303 -379h310v-44h-365zM151 547l-24 29l165 140l36 -42z" />
    <glyph glyph-name="Zdotaccent" unicode="&#x17b;" horiz-adv-x="534" 
d="M39 0v51l392 567h-375v49h429v-55l-388 -563h403v-49h-461zM277 763q-17 0 -28.5 14.5t-11.5 34.5t11.5 34t28.5 14t28.5 -14.5t11.5 -33.5q0 -20 -11.5 -34.5t-28.5 -14.5z" />
    <glyph glyph-name="zdotaccent" unicode="&#x17c;" horiz-adv-x="451" 
d="M41 0v52l303 380h-292v44h347v-53l-303 -379h310v-44h-365zM231 590q-17 0 -28.5 14.5t-11.5 34.5t11.5 34t28.5 14t28.5 -14.5t11.5 -33.5q0 -20 -11.5 -34.5t-28.5 -14.5z" />
    <glyph glyph-name="Zcaron" unicode="&#x17d;" horiz-adv-x="534" 
d="M39 0v51l392 567h-375v49h429v-55l-388 -563h403v-49h-461zM252 710l-125 150l34 23l111 -130l109 130l33 -23l-122 -150h-40z" />
    <glyph glyph-name="zcaron" unicode="&#x17e;" horiz-adv-x="451" 
d="M41 0v52l303 380h-292v44h347v-53l-303 -379h310v-44h-365zM212 545l-125 150l34 23l111 -130l110 130l33 -23l-123 -150h-40z" />
    <glyph glyph-name="longs" unicode="&#x17f;" horiz-adv-x="263" 
d="M88 0v532q0 76 34 112t92 36q35 0 57 -7t37 -15l-18 -42q-14 8 -32 13.5t-42 5.5q-35 0 -55.5 -22.5t-20.5 -84.5v-528h-52z" />
    <glyph glyph-name="florin" unicode="&#x192;" horiz-adv-x="517" 
d="M-28 -89q41 2 70.5 11t51.5 29q23 20 36.5 48.5t22.5 72.5l66 322h-110v46h120l17 70q12 49 32.5 81t47 50t59 25t68.5 7v-47q-28 -1 -51.5 -5.5t-43 -17.5t-34 -36t-24.5 -60l-18 -67h170v-46h-179l-74 -347q-10 -48 -26.5 -79t-46.5 -55q-54 -45 -154 -48v46z" />
    <glyph glyph-name="Scommaaccent" unicode="&#x218;" horiz-adv-x="503" 
d="M77 130q29 -45 75 -69.5t101 -24.5q67 0 111 32t44 100q0 34 -13.5 59.5t-37.5 45t-56.5 34.5t-69.5 28q-31 11 -63 25.5t-58 36t-42.5 50.5t-16.5 69t16.5 71t44 51.5t65 31t79.5 10.5q76 0 126 -28.5t82 -73.5l-43 -33q-27 37 -68 61.5t-99 24.5q-30 0 -56.5 -7
t-46 -21t-31 -35t-11.5 -49q0 -29 14 -49.5t36 -36.5t50 -28t55 -22q39 -15 75 -32.5t64 -41.5t45 -57.5t17 -80.5q0 -93 -57.5 -138.5t-156.5 -45.5q-72 0 -128.5 28.5t-91.5 82.5zM176 -174l51 130h61l-71 -130h-41z" />
    <glyph glyph-name="scommaaccent" unicode="&#x219;" horiz-adv-x="388" 
d="M76 99q19 -30 48.5 -48t74.5 -18q51 0 80.5 22t29.5 66q0 46 -30 71.5t-97 48.5q-69 23 -98 52t-29 79q0 52 39 84.5t108 32.5q56 0 92 -20.5t57 -53.5l-39 -28q-17 25 -44.5 42t-65.5 17q-48 0 -71.5 -20.5t-23.5 -51.5q0 -18 5.5 -31t19 -24t37 -21.5t58.5 -22.5
q67 -23 99.5 -57t32.5 -94q0 -66 -45.5 -100.5t-114.5 -34.5q-66 0 -104.5 24.5t-59.5 59.5zM121 -174l51 130h61l-71 -130h-41z" />
    <glyph glyph-name="uni021A" unicode="&#x21a;" horiz-adv-x="476" 
d="M210 0v618h-206v49h468v-49h-207v-618h-55zM151 -174l51 130h61l-71 -130h-41z" />
    <glyph glyph-name="uni021B" unicode="&#x21b;" horiz-adv-x="298" 
d="M150 101q0 -38 15.5 -53t42.5 -15q19 0 33 5.5t28 16.5l22 -38q-20 -14 -39.5 -21t-54.5 -7q-45 0 -71.5 26.5t-26.5 77.5v339h-82v44h82v128h52v-128h125v-44h-126v-331zM115 -174l51 130h61l-71 -130h-41z" />
    <glyph glyph-name="dotlessj" unicode="&#x237;" horiz-adv-x="189" 
d="M-11 -157q43 27 60.5 63t17.5 91v479h53v-479q0 -74 -26.5 -118.5t-78.5 -74.5z" />
    <glyph glyph-name="apostrophe" unicode="&#x2bc;" horiz-adv-x="144" 
d="M13 515q17 8 35 24.5t26 32.5q-11 5 -20 16.5t-9 34.5q0 20 10 35t30 15q19 0 29.5 -14.5t10.5 -38.5q0 -22 -8.5 -41t-23 -35.5t-32.5 -30t-37 -23.5z" />
    <glyph glyph-name="circumflex" unicode="&#x2c6;" horiz-adv-x="344" 
d="M28 568l125 150h40l123 -150l-33 -23l-110 130l-111 -130z" />
    <glyph glyph-name="caron" unicode="&#x2c7;" horiz-adv-x="344" 
d="M153 545l-125 150l34 23l111 -130l110 130l33 -23l-123 -150h-40z" />
    <glyph glyph-name="uni02C9" unicode="&#x2c9;" horiz-adv-x="346" 
d="M30 612v45h286v-45h-286z" />
    <glyph glyph-name="breve" unicode="&#x2d8;" horiz-adv-x="371" 
d="M81 693q5 -52 33.5 -75t70.5 -23t71 23t35 75h42q-2 -38 -15.5 -64t-34.5 -43t-47 -24.5t-52 -7.5t-51.5 7.5t-46.5 24.5t-34.5 43t-14.5 64h44z" />
    <glyph glyph-name="dotaccent" unicode="&#x2d9;" horiz-adv-x="213" 
d="M107 590q-17 0 -28.5 14.5t-11.5 34.5t11.5 34t28.5 14t28.5 -14.5t11.5 -33.5q0 -20 -11.5 -34.5t-28.5 -14.5z" />
    <glyph glyph-name="ring" unicode="&#x2da;" horiz-adv-x="289" 
d="M145 535q-44 0 -69 29.5t-25 68.5q0 40 25 69.5t69 29.5q43 0 68 -29.5t25 -68.5q0 -20 -6.5 -37.5t-18.5 -31.5t-29.5 -22t-38.5 -8zM204 634q0 26 -16.5 46t-42.5 20q-27 0 -43.5 -20t-16.5 -46t16.5 -46.5t43.5 -20.5q26 0 42.5 20t16.5 46v1z" />
    <glyph glyph-name="ogonek" unicode="&#x2db;" horiz-adv-x="301" 
d="M177 -161q-10 -5 -22.5 -8.5t-28.5 -3.5q-36 0 -56.5 19.5t-20.5 53.5q0 22 8 40t20 33t25.5 26t24.5 18l40 -11q-13 -8 -25.5 -18t-23 -23t-17 -27.5t-6.5 -31.5q0 -18 9 -29t28 -11q10 0 18 2.5t16 6.5z" />
    <glyph glyph-name="tilde" unicode="&#x2dc;" horiz-adv-x="371" 
d="M23 601q14 35 38.5 57.5t57.5 22.5q20 0 40 -9.5t39 -20.5l25.5 -15.5t28.5 -8.5q35 0 61 53l36 -17q-15 -38 -39 -58.5t-58 -20.5q-16 0 -33.5 8.5t-36.5 19.5l-32.5 18.5t-29.5 7.5q-34 0 -61 -55z" />
    <glyph glyph-name="hungarumlaut" unicode="&#x2dd;" horiz-adv-x="381" 
d="M203 543l-26 26l157 148l40 -38zM34 543l-26 26l157 148l39 -38z" />
    <glyph glyph-name="tonos" unicode="&#x384;" horiz-adv-x="442" 
d="M149 555l94 194l52 -21l-111 -189z" />
    <glyph glyph-name="dieresistonos" unicode="&#x385;" horiz-adv-x="342" 
d="M337 601q-16 0 -27.5 12.5t-11.5 31.5q0 18 11.5 31t27.5 13t27 -13t11 -31q0 -19 -11 -31.5t-27 -12.5zM105 601q-16 0 -27.5 12.5t-11.5 31.5q0 18 11.5 31t27.5 13t27 -13t11 -31q0 -19 -11 -31.5t-27 -12.5zM149 555l94 194l52 -21l-111 -189z" />
    <glyph glyph-name="Alphatonos" unicode="&#x386;" horiz-adv-x="551" 
d="M64 463l62 205l55 -13l-80 -203zM0 0l253 667h41l256 -667h-57l-82 214h-275l-80 -214h-56zM154 264h239l-122 322z" />
    <glyph glyph-name="Epsilontonos" unicode="&#x388;" horiz-adv-x="493" 
d="M-60 463l62 205l55 -13l-80 -203zM81 0v667h374v-49h-319v-239h231v-50h-232v-280h340v-49h-394z" />
    <glyph glyph-name="Etatonos" unicode="&#x389;" horiz-adv-x="635" 
d="M-63 463l62 205l55 -13l-80 -203zM81 0v667h55v-297h363v297h55v-667h-55v320h-363v-320h-55z" />
    <glyph glyph-name="Iotatonos" unicode="&#x38a;" horiz-adv-x="217" 
d="M-59 463l62 205l55 -13l-80 -203zM81 0v667h55v-667h-55z" />
    <glyph glyph-name="Omicrontonos" unicode="&#x38c;" horiz-adv-x="643" 
d="M-36 463l62 205l55 -13l-80 -203zM201 16q-51 30 -85 78.5t-50.5 111t-16.5 128.5q0 67 17.5 129.5t52 110.5t85.5 77t119 29q69 0 120 -29.5t84.5 -78t50 -111t16.5 -127.5t-16.5 -127.5t-50 -111t-84.5 -78.5t-120 -30q-70 0 -122 29zM159 130q27 -42 68 -68t96 -26
t95 26.5t66.5 68.5t39.5 95.5t13 107.5t-12.5 107t-39 95t-67 68.5t-95.5 26.5q-57 0 -98 -26t-67.5 -68.5t-39 -95.5t-12.5 -107t13 -107.5t40 -96.5z" />
    <glyph glyph-name="Upsilontonos" unicode="&#x38e;" horiz-adv-x="548" 
d="M245 0v160q0 14 -0.5 34t-2.5 39q-5 55 -26.5 113.5t-53 113t-70 101t-77.5 77.5l34 39q37 -30 74 -73t68.5 -93t54 -103t30.5 -102q13 57 39 112.5t57.5 104t66.5 88.5t67 66l32 -37q-35 -28 -72 -73.5t-70 -100.5t-57 -114t-32 -113q-4 -28 -5.5 -53.5t-1.5 -42.5v-143
h-55zM-115 463l62 205l55 -13l-80 -203z" />
    <glyph glyph-name="Omegatonos" unicode="&#x38f;" horiz-adv-x="668" 
d="M48 0v49h150q-28 22 -54 50.5t-46.5 65.5t-33 83.5t-12.5 103.5q0 69 19 129t55 104.5t88.5 70t120.5 25.5q69 0 122 -25t88.5 -68.5t53.5 -102.5t18 -128q0 -58 -12 -105t-32.5 -84.5t-47 -67t-54.5 -51.5h151v-49h-222v51q70 45 115 121.5t45 180.5q0 60 -14.5 111
t-42.5 88.5t-70 58.5t-97 21t-97 -21.5t-71 -59.5t-44 -89t-15 -111q0 -52 12.5 -96.5t34.5 -82t51.5 -68t63.5 -53.5v-51h-223zM-34 463l62 205l55 -13l-80 -203z" />
    <glyph glyph-name="iotadieresistonos" unicode="&#x390;" horiz-adv-x="247" 
d="M127 102q0 -36 13 -52t40 -16q14 0 28 3t25 8l9 -41q-11 -5 -30 -10t-39 -5q-45 0 -71.5 24.5t-26.5 80.5v382h52v-374zM235 601q-16 0 -27.5 12.5t-11.5 31.5q0 18 11.5 31t27.5 13t27 -13t11 -31q0 -19 -11 -31.5t-27 -12.5zM3 601q-16 0 -27.5 12.5t-11.5 31.5
q0 18 11.5 31t27.5 13t27 -13t11 -31q0 -19 -11 -31.5t-27 -12.5zM47 555l94 194l52 -21l-111 -189z" />
    <glyph glyph-name="Alpha" unicode="&#x391;" horiz-adv-x="550" 
d="M0 0l253 667h41l256 -667h-57l-82 214h-275l-80 -214h-56zM154 264h239l-122 322z" />
    <glyph glyph-name="Beta" unicode="&#x392;" horiz-adv-x="520" 
d="M81 0v667h182q94 0 143.5 -42t49.5 -127q0 -60 -32.5 -96t-95.5 -48q72 -5 117 -46.5t45 -122.5q0 -43 -14 -77.5t-39 -58.5t-60 -36.5t-77 -12.5h-219zM136 376h120q71 0 107.5 34t36.5 91q0 61 -35 89t-101 28h-128v-242zM136 49h160q66 0 101.5 37t35.5 101
q0 75 -46.5 107t-127.5 32h-123v-277z" />
    <glyph glyph-name="Gamma" unicode="&#x393;" horiz-adv-x="471" 
d="M88 -1v668h373v-51h-318v-616z" />
    <glyph glyph-name="uni0394" unicode="&#x394;" horiz-adv-x="579" 
d="M10 0l255 667h44l260 -667h-559zM86 48h407l-207 543z" />
    <glyph glyph-name="Epsilon" unicode="&#x395;" horiz-adv-x="488" 
d="M81 0v667h374v-49h-319v-239h231v-50h-232v-280h340v-49h-394z" />
    <glyph glyph-name="Zeta" unicode="&#x396;" horiz-adv-x="534" 
d="M39 0v51l392 567h-375v49h429v-55l-388 -563h403v-49h-461z" />
    <glyph glyph-name="Eta" unicode="&#x397;" horiz-adv-x="635" 
d="M81 0v667h55v-297h363v297h55v-667h-55v320h-363v-320h-55z" />
    <glyph glyph-name="Theta" unicode="&#x398;" horiz-adv-x="643" 
d="M190 311v49h265v-49h-265zM201 16q-51 30 -85 78.5t-50.5 111t-16.5 128.5q0 67 17.5 129.5t52 110.5t85.5 77t119 29q69 0 120 -29.5t84.5 -78t50 -111t16.5 -127.5t-16.5 -127.5t-50 -111t-84.5 -78.5t-120 -30q-70 0 -122 29zM159 130q27 -42 68 -68t96 -26t95 26.5
t66.5 68.5t39.5 95.5t13 107.5t-12.5 107t-39 95t-67 68.5t-95.5 26.5q-57 0 -98 -26t-67.5 -68.5t-39 -95.5t-12.5 -107t13 -107.5t40 -96.5z" />
    <glyph glyph-name="Iota" unicode="&#x399;" horiz-adv-x="217" 
d="M81 0v667h55v-667h-55z" />
    <glyph glyph-name="Kappa" unicode="&#x39a;" horiz-adv-x="541" 
d="M81 0v667h55v-324l317 324h66l-256 -263l276 -404h-65l-249 364l-89 -88v-276h-55z" />
    <glyph glyph-name="Lambda" unicode="&#x39b;" horiz-adv-x="564" 
d="M16 0l243 667h42l247 -667h-58l-211 580l-205 -580h-58z" />
    <glyph glyph-name="Mu" unicode="&#x39c;" horiz-adv-x="723" 
d="M81 0v667h70l217 -560l206 560h68v-667h-53v568l-214 -579h-12l-229 578v-567h-53z" />
    <glyph glyph-name="Nu" unicode="&#x39d;" horiz-adv-x="647" 
d="M81 0v667h58l373 -561v561h54v-667h-48l-383 575v-575h-54z" />
    <glyph glyph-name="Xi" unicode="&#x39e;" horiz-adv-x="573" 
d="M65 0v50h420v-50h-420zM71 617v50h407v-50h-407zM120 324v49h311v-49h-311z" />
    <glyph glyph-name="Omicron" unicode="&#x39f;" horiz-adv-x="643" 
d="M201 16q-51 30 -85 78.5t-50.5 111t-16.5 128.5q0 67 17.5 129.5t52 110.5t85.5 77t119 29q69 0 120 -29.5t84.5 -78t50 -111t16.5 -127.5t-16.5 -127.5t-50 -111t-84.5 -78.5t-120 -30q-70 0 -122 29zM159 130q27 -42 68 -68t96 -26t95 26.5t66.5 68.5t39.5 95.5
t13 107.5t-12.5 107t-39 95t-67 68.5t-95.5 26.5q-57 0 -98 -26t-67.5 -68.5t-39 -95.5t-12.5 -107t13 -107.5t40 -96.5z" />
    <glyph glyph-name="Pi" unicode="&#x3a0;" horiz-adv-x="650" 
d="M88 0v667h463v-667h-55v618h-352v-618h-56z" />
    <glyph glyph-name="Rho" unicode="&#x3a1;" horiz-adv-x="518" 
d="M81 0v667h209q100 0 154.5 -49.5t54.5 -145.5q0 -48 -15.5 -84t-43 -60t-66 -36t-83.5 -12h-155v-280h-55zM136 330h155q70 0 110.5 37.5t40.5 103.5q0 69 -37.5 108t-114.5 39h-154v-288z" />
    <glyph glyph-name="Sigma" unicode="&#x3a3;" horiz-adv-x="516" 
d="M39 0v51l280 281l-282 283v52h439v-49h-370l284 -286l-283 -283h389v-49h-457z" />
    <glyph glyph-name="Tau" unicode="&#x3a4;" horiz-adv-x="476" 
d="M210 0v618h-206v49h468v-49h-207v-618h-55z" />
    <glyph glyph-name="Upsilon" unicode="&#x3a5;" horiz-adv-x="548" 
d="M245 0v160q0 14 -0.5 34t-2.5 39q-5 55 -26.5 113.5t-53 113t-70 101t-77.5 77.5l34 39q37 -30 74 -73t68.5 -93t54 -103t30.5 -102q13 57 39 112.5t57.5 104t66.5 88.5t67 66l32 -37q-35 -28 -72 -73.5t-70 -100.5t-57 -114t-32 -113q-4 -28 -5.5 -53.5t-1.5 -42.5v-143
h-55z" />
    <glyph glyph-name="Phi" unicode="&#x3a6;" horiz-adv-x="710" 
d="M327 -11v96q-136 5 -208 70t-72 178q0 114 72.5 178t207.5 70v98h55v-98q137 -6 209 -70t72 -178q0 -112 -72 -177.5t-209 -70.5v-96h-55zM327 533q-50 0 -91.5 -12.5t-71 -37.5t-46 -62.5t-16.5 -87.5q0 -49 16.5 -86t46.5 -62.5t71.5 -38.5t90.5 -13v400zM382 133
q50 0 91.5 12.5t71.5 37t47 62t17 88.5q0 49 -17 86.5t-47.5 62.5t-72 38t-90.5 13v-400z" />
    <glyph glyph-name="Chi" unicode="&#x3a7;" horiz-adv-x="491" 
d="M6 0l207 340l-189 327h64l158 -281l157 281h62l-188 -321l208 -346h-66l-174 300l-178 -300h-61z" />
    <glyph glyph-name="Psi" unicode="&#x3a8;" horiz-adv-x="752" 
d="M353 0v202q-136 5 -201 66t-65 191v208h55v-209q0 -57 16 -96.5t44 -64t66.5 -35t84.5 -10.5v415h54v-415q42 0 80 11t66.5 35t45 62t16.5 93v214h55v-214q0 -115 -64.5 -179.5t-198.5 -71.5v-202h-54z" />
    <glyph glyph-name="Omega" unicode="&#x3a9;" horiz-adv-x="668" 
d="M48 0v49h150q-28 22 -54 50.5t-46.5 65.5t-33 83.5t-12.5 103.5q0 69 19 129t55 104.5t88.5 70t120.5 25.5q69 0 122 -25t88.5 -68.5t53.5 -102.5t18 -128q0 -58 -12 -105t-32.5 -84.5t-47 -67t-54.5 -51.5h151v-49h-222v51q70 45 115 121.5t45 180.5q0 60 -14.5 111
t-42.5 88.5t-70 58.5t-97 21t-97 -21.5t-71 -59.5t-44 -89t-15 -111q0 -52 12.5 -96.5t34.5 -82t51.5 -68t63.5 -53.5v-51h-223z" />
    <glyph glyph-name="Iotadieresis" unicode="&#x3aa;" horiz-adv-x="217" 
d="M81 0v667h55v-667h-55zM191 767q-16 0 -27.5 12.5t-11.5 31.5q0 18 11.5 31t27.5 13t27 -13t11 -31q0 -19 -11 -31.5t-27 -12.5zM32 767q-16 0 -27.5 12.5t-11.5 31.5q0 18 11.5 31t27.5 13t27 -13t11 -31q0 -19 -11 -31.5t-27 -12.5z" />
    <glyph glyph-name="Upsilondieresis" unicode="&#x3ab;" horiz-adv-x="548" 
d="M245 0v160q0 14 -0.5 34t-2.5 39q-5 55 -26.5 113.5t-53 113t-70 101t-77.5 77.5l34 39q37 -30 74 -73t68.5 -93t54 -103t30.5 -102q13 57 39 112.5t57.5 104t66.5 88.5t67 66l32 -37q-35 -28 -72 -73.5t-70 -100.5t-57 -114t-32 -113q-4 -28 -5.5 -53.5t-1.5 -42.5v-143
h-55zM356 752q-16 0 -27.5 12.5t-11.5 31.5q0 18 11.5 31t27.5 13t27 -13t11 -31q0 -19 -11 -31.5t-27 -12.5zM197 752q-16 0 -27.5 12.5t-11.5 31.5q0 18 11.5 31t27.5 13t27 -13t11 -31q0 -19 -11 -31.5t-27 -12.5z" />
    <glyph glyph-name="alphatonos" unicode="&#x3ac;" horiz-adv-x="548" 
d="M532 -7q-17 -4 -34 -4q-44 0 -70 25t-29 71q-11 -20 -24 -35q-30 -32 -63.5 -46.5t-73.5 -14.5t-75 15t-60.5 45t-40 74.5t-14.5 103.5q0 51 12.5 98.5t38 84t64 58t90.5 21.5q64 0 103.5 -33t56.5 -80q3 29 12 60t20 53l52 -14q-26 -57 -39.5 -124.5t-15.5 -155.5
q0 -23 0.5 -48t4.5 -48q5 -32 18.5 -48t39.5 -16q5 0 10.5 0.5t11.5 1.5zM142 81q20 -24 46 -36t57 -12q45 0 85 29t54 91q6 27 8.5 51.5t2.5 51.5t-6 59t-21.5 60t-43.5 47t-72 19q-32 0 -60 -13.5t-48 -40.5t-31.5 -67.5t-11.5 -94.5q0 -48 11 -84t30 -60zM234 555l94 194
l52 -21l-111 -189z" />
    <glyph glyph-name="epsilontonos" unicode="&#x3ad;" horiz-adv-x="469" 
d="M422 28q-14 -9 -34 -16t-42.5 -12.5t-45.5 -8t-43 -2.5q-89 0 -143 34.5t-54 105.5q0 46 30.5 78t76.5 43q-42 11 -67.5 40t-25.5 69q0 60 46.5 95t124.5 35q60 0 100 -15t69 -32l-20 -42q-38 23 -74 34t-71 11q-62 0 -92 -24.5t-30 -63.5q0 -32 22.5 -53t62.5 -28
q16 -2 45.5 -3t55.5 -1h46v-43h-55q-46 0 -89 -3q-47 -4 -74.5 -30.5t-27.5 -62.5q0 -45 35.5 -72t113.5 -27q43 0 80 10.5t69 24.5zM206 555l94 194l52 -21l-111 -189z" />
    <glyph glyph-name="etatonos" unicode="&#x3ae;" horiz-adv-x="539" 
d="M83 0v389q0 26 -8 37t-25 11q-12 0 -27 -5l-13 42q9 4 23 7.5t30 3.5q58 0 70 -65q60 69 168 69q81 0 123.5 -37t47.5 -99q2 -17 2 -29v-32v-481h-52v483q0 15 -1 30.5t-3 28.5q-8 41 -37 65.5t-90 24.5q-54 0 -95 -23.5t-54 -58.5q-5 -13 -6 -34t-1 -32v-295h-52z
M236 555l94 194l52 -21l-111 -189z" />
    <glyph glyph-name="iotatonos" unicode="&#x3af;" horiz-adv-x="247" 
d="M127 102q0 -36 13 -52t40 -16q14 0 28 3t25 8l9 -41q-11 -5 -30 -10t-39 -5q-45 0 -71.5 24.5t-26.5 80.5v382h52v-374zM48 555l94 194l52 -21l-111 -189z" />
    <glyph glyph-name="upsilondieresistonos" unicode="&#x3b0;" horiz-adv-x="522" 
d="M137 190q0 -76 29 -115t96 -39q63 0 94 36.5t39 99.5q3 26 4 51t1 55q0 52 -5.5 97t-14.5 99l53 7q8 -51 13 -99.5t5 -102.5q0 -31 -1 -58t-4 -51q-11 -83 -55 -132t-134 -49q-85 0 -128.5 47.5t-43.5 147.5v162v22t-1 21q-1 47 -39 47q-5 0 -11 -1t-13 -3l-11 44
q9 3 20.5 6t26.5 3q23 0 37.5 -7t23 -19t12 -27.5t5.5 -32.5q2 -20 2 -38.5v-38.5v-132zM372 601q-16 0 -27.5 12.5t-11.5 31.5q0 18 11.5 31t27.5 13t27 -13t11 -31q0 -19 -11 -31.5t-27 -12.5zM140 601q-16 0 -27.5 12.5t-11.5 31.5q0 18 11.5 31t27.5 13t27 -13t11 -31
q0 -19 -11 -31.5t-27 -12.5zM184 555l94 194l52 -21l-111 -189z" />
    <glyph glyph-name="alpha" unicode="&#x3b1;" horiz-adv-x="548" 
d="M532 -7q-17 -4 -34 -4q-44 0 -70 25t-29 71q-11 -20 -24 -35q-30 -32 -63.5 -46.5t-73.5 -14.5t-75 15t-60.5 45t-40 74.5t-14.5 103.5q0 51 12.5 98.5t38 84t64 58t90.5 21.5q64 0 103.5 -33t56.5 -80q3 29 12 60t20 53l52 -14q-26 -57 -39.5 -124.5t-15.5 -155.5
q0 -23 0.5 -48t4.5 -48q5 -32 18.5 -48t39.5 -16q5 0 10.5 0.5t11.5 1.5zM142 81q20 -24 46 -36t57 -12q45 0 85 29t54 91q6 27 8.5 51.5t2.5 51.5t-6 59t-21.5 60t-43.5 47t-72 19q-32 0 -60 -13.5t-48 -40.5t-31.5 -67.5t-11.5 -94.5q0 -48 11 -84t30 -60z" />
    <glyph glyph-name="beta" unicode="&#x3b2;" horiz-adv-x="571" 
d="M80 -189v645q0 14 1 29t3 30q4 26 16.5 54.5t36 52t59 39t86.5 15.5q40 0 73 -11.5t56.5 -31.5t36 -49t12.5 -63q0 -33 -12 -59t-30.5 -45.5t-41 -32.5t-42.5 -18q33 -3 66.5 -15.5t60 -35.5t43 -56.5t16.5 -79.5q0 -42 -13.5 -76.5t-38.5 -60t-62 -39.5t-83 -14
q-37 0 -67.5 8.5t-54.5 21.5t-42 27t-30 26v-261h-49zM132 124q12 -13 31 -29t43.5 -29.5t53.5 -23t62 -9.5q30 0 56.5 8t46 25.5t31 45.5t11.5 68q0 37 -15 66.5t-42 50t-65 31.5t-84 11v47q25 0 51 8t47.5 24t35.5 40.5t14 57.5q0 23 -8 44t-23.5 37t-40 25.5t-57.5 9.5
q-40 0 -66.5 -12.5t-43 -32t-24.5 -43.5t-11 -46q-2 -12 -2.5 -26t-0.5 -25v-323z" />
    <glyph glyph-name="gamma" unicode="&#x3b3;" horiz-adv-x="480" 
d="M204 -189v51q0 32 -1.5 71t-8.5 77q-9 54 -24.5 112t-33 111.5t-35 96t-29.5 65.5t-24 31t-26 8q-15 0 -31 -6l-14 44q11 5 27 8.5t30 3.5q27 0 47 -15t38 -47q12 -21 28.5 -64t33.5 -96t31.5 -112t22.5 -113q11 56 31.5 120t45 125.5t49 114t44.5 86.5l43 -17
q-23 -44 -48.5 -100t-49 -115.5t-43.5 -117t-31 -103.5q-6 -24 -10.5 -48.5t-6.5 -49.5q-2 -24 -2 -40.5v-35.5v-45h-53z" />
    <glyph glyph-name="delta" unicode="&#x3b4;" horiz-adv-x="528" 
d="M142 667h316v-44h-272l49 -37l54.5 -43.5l53.5 -45.5t46 -43q50 -50 72 -102t22 -119q0 -42 -12 -85.5t-39 -79t-69 -57.5t-102 -22q-53 0 -92.5 20t-66 53.5t-39.5 76.5t-13 90t15 91t45.5 77.5t76 55t105.5 23.5l-37.5 32l-44 36l-45.5 35l-42 30zM369 401
q-18 21 -38 40q-11 0 -25 -1t-32 -4q-37 -6 -68.5 -23t-54 -43t-35.5 -61.5t-13 -78.5q0 -44 12 -80t33 -61.5t51 -39.5t66 -14q42 0 73 15.5t51.5 42.5t30.5 62.5t10 76.5q0 37 -8 67.5t-21.5 55.5t-31.5 46z" />
    <glyph glyph-name="epsilon" unicode="&#x3b5;" horiz-adv-x="469" 
d="M422 28q-14 -9 -34 -16t-42.5 -12.5t-45.5 -8t-43 -2.5q-89 0 -143 34.5t-54 105.5q0 46 30.5 78t76.5 43q-42 11 -67.5 40t-25.5 69q0 60 46.5 95t124.5 35q60 0 100 -15t69 -32l-20 -42q-38 23 -74 34t-71 11q-62 0 -92 -24.5t-30 -63.5q0 -32 22.5 -53t62.5 -28
q16 -2 45.5 -3t55.5 -1h46v-43h-55q-46 0 -89 -3q-47 -4 -74.5 -30.5t-27.5 -62.5q0 -45 35.5 -72t113.5 -27q43 0 80 10.5t69 24.5z" />
    <glyph glyph-name="zeta" unicode="&#x3b6;" horiz-adv-x="434" 
d="M323 -162q6 16 12 35.5t11.5 39.5t9.5 39.5t6 36.5h-28.5t-28.5 1q-54 2 -100.5 12t-81 32t-54 58.5t-19.5 92.5q0 52 15.5 103t42.5 99t64.5 92t81.5 83l40.5 33.5t40.5 28.5q-20 -2 -42.5 -2.5t-42.5 -0.5q-42 0 -86.5 2.5t-75.5 7.5l10 42q44 -5 84.5 -7t87.5 -2
q32 0 70.5 1.5t76.5 4.5v-39q-38 -22 -75.5 -51t-69.5 -59q-85 -81 -127.5 -167t-42.5 -165q0 -84 55.5 -120t172.5 -36h47q18 0 27.5 -6.5t9.5 -26.5q0 -18 -5.5 -41.5t-13.5 -47.5t-16.5 -46.5t-15.5 -38.5z" />
    <glyph glyph-name="eta" unicode="&#x3b7;" horiz-adv-x="539" 
d="M83 0v389q0 26 -8 37t-25 11q-12 0 -27 -5l-13 42q9 4 23 7.5t30 3.5q58 0 70 -65q60 69 168 69q81 0 123.5 -37t47.5 -99q2 -17 2 -29v-32v-481h-52v483q0 15 -1 30.5t-3 28.5q-8 41 -37 65.5t-90 24.5q-54 0 -95 -23.5t-54 -58.5q-5 -13 -6 -34t-1 -32v-295h-52z" />
    <glyph glyph-name="theta" unicode="&#x3b8;" horiz-adv-x="511" 
d="M151 19q-40 30 -63.5 78t-32 109t-8.5 124q0 61 10 123t34.5 111.5t65.5 80.5t103 31t101.5 -30t61.5 -78.5t30 -109.5t8 -123q0 -66 -9 -128t-32.5 -110.5t-63.5 -78t-102 -29.5q-63 0 -103 30zM101 312q0 -56 7.5 -106.5t25.5 -88.5t48 -60.5t74 -22.5q45 0 75 23.5
t48 62.5t25 89t7 103h-310zM411 354q-1 54 -8.5 104t-25 88.5t-46.5 62t-73 23.5t-73.5 -24t-47.5 -63t-26.5 -89t-9.5 -102h310z" />
    <glyph glyph-name="iota" unicode="&#x3b9;" horiz-adv-x="247" 
d="M127 102q0 -36 13 -52t40 -16q14 0 28 3t25 8l9 -41q-11 -5 -30 -10t-39 -5q-45 0 -71.5 24.5t-26.5 80.5v382h52v-374z" />
    <glyph glyph-name="kappa" unicode="&#x3ba;" horiz-adv-x="534" 
d="M75 0v476h52v-263l50.5 58.5l52.5 60l49.5 55.5t41.5 44q27 28 51 38.5t50 10.5q15 0 32 -3.5t28 -11.5l-16 -45q-10 5 -22.5 8.5t-23.5 3.5q-19 0 -34 -7t-33 -26l-42 -44.5l-47 -52.5l233 -302h-62l-205 262l-103 -115v-147h-52z" />
    <glyph glyph-name="lambda" unicode="&#x3bb;" horiz-adv-x="490" 
d="M30 0l189 466l-34 89q-12 32 -28 43.5t-41 11.5q-20 0 -38 -5.5t-30 -10.5l-16 40q16 8 42 15.5t49 7.5q45 0 71.5 -22t42.5 -67l167 -468q11 -31 23 -47.5t36 -16.5q11 0 28 5l9 -42q-10 -5 -22.5 -7.5t-21.5 -2.5q-26 0 -43 8t-29.5 24t-22 39.5t-20.5 54.5l-98 285
l-157 -400h-56z" />
    <glyph glyph-name="uni03BC" unicode="&#x3bc;" horiz-adv-x="556" 
d="M80 -189v665h53v-300q0 -33 10.5 -59.5t28.5 -45t42.5 -28.5t53.5 -10q28 0 51.5 7t41.5 19t30 27t18 31q5 14 6 31.5t1 34.5v293h53v-372q0 -34 6.5 -52.5t32.5 -18.5q8 0 15 2l14 4l8 -41q-9 -4 -21.5 -6.5t-23.5 -2.5q-35 0 -55 18t-25 51q-26 -31 -62.5 -50
t-90.5 -19q-46 0 -81.5 18t-54.5 52v-248h-51z" />
    <glyph glyph-name="nu" unicode="&#x3bd;" horiz-adv-x="489" 
d="M207 -7q-13 57 -30 117t-35.5 115t-35.5 100t-30 71q-11 23 -22.5 31.5t-25.5 8.5q-7 0 -15 -2t-17 -5l-13 43q11 5 27 8.5t30 3.5q28 0 47 -12.5t34 -44.5q14 -28 31 -73t34 -97.5t33 -108.5t27 -105l38 108.5l40.5 117.5l40 115l36.5 101l47 -16l-42.5 -117.5
l-43.5 -121.5l-43 -121.5l-40 -115.5h-72z" />
    <glyph glyph-name="xi" unicode="&#x3be;" horiz-adv-x="444" 
d="M339 -162q6 16 12 35.5t11.5 39.5t9.5 39.5t6 36.5q-59 1 -118 7t-105.5 25.5t-75.5 55.5t-29 98q0 33 11 61.5t30 51t43 38t51 22.5q-22 5 -41.5 15t-34.5 25t-24 35.5t-9 47.5q0 26 11 51t31 45.5t48.5 36t64.5 22.5v1q-8 -1 -20 -1.5t-20 -0.5q-15 0 -32.5 0.5
t-35.5 1.5t-34.5 2.5t-28.5 4.5l10 43q47 -6 91.5 -8.5t91.5 -2.5q32 0 72.5 2l77.5 4v-43l-66.5 -8.5t-62.5 -11.5q-30 -7 -56.5 -18.5t-46 -28.5t-30.5 -39t-11 -49q0 -44 29 -68t77 -29q18 -2 40 -2h45h54v-45q-16 0 -53.5 -0.5t-74.5 -3.5q-66 -5 -105.5 -46.5
t-39.5 -102.5q0 -76 66.5 -109.5t208.5 -35.5h15q18 0 27.5 -6t9.5 -26q0 -18 -5.5 -41.5t-13 -47.5t-16.5 -46.5t-16 -38.5z" />
    <glyph glyph-name="omicron" unicode="&#x3bf;" horiz-adv-x="519" 
d="M167 10q-39 22 -66 57t-40.5 81t-13.5 94t13.5 92.5t40 79t66 55t92.5 20.5q52 0 92 -21t67 -55.5t40.5 -79.5t13.5 -93q0 -49 -13.5 -94.5t-40.5 -80t-67 -55.5t-92 -21t-92 21zM139 98q20 -29 50 -47t70 -18q41 0 71 18.5t50 48t30 66.5t10 75t-10 74.5t-30 65.5
t-50 46.5t-71 17.5t-71 -17.5t-50 -46t-29.5 -65t-9.5 -74.5q0 -39 10 -76.5t30 -67.5z" />
    <glyph glyph-name="pi" unicode="&#x3c0;" horiz-adv-x="636" 
d="M160 0v432h-11q-18 0 -36 -6q-19 -7 -31.5 -18t-25.5 -29l-36 24q14 24 32 39t41 24q15 6 35 8t40 2h428v-44h-104v-331q0 -36 11 -52t37 -16q19 0 41 8l9 -40q-11 -5 -28 -8.5t-31 -3.5q-42 0 -66 23.5t-24 77.5v342h-230v-432h-51z" />
    <glyph glyph-name="rho" unicode="&#x3c1;" horiz-adv-x="537" 
d="M75 -189v423q0 14 0.5 27.5t1.5 27.5q2 40 16 76.5t40 64t63 43.5t85 16q58 0 97.5 -21t63.5 -55t34.5 -77.5t10.5 -87.5q0 -51 -13 -98t-38.5 -82.5t-64.5 -57t-90 -21.5q-28 0 -51.5 7t-43 17.5t-35 23.5t-26.5 26v-252h-50zM127 119q12 -15 28 -30.5t35 -27.5
t41.5 -20t49.5 -8q34 0 62.5 15t49 42t31.5 65t11 83q0 35 -7.5 71.5t-25.5 66.5t-47.5 49.5t-73.5 19.5q-38 0 -65.5 -13t-46 -34t-28.5 -47.5t-12 -53.5q-2 -14 -2 -28v-28v-122z" />
    <glyph glyph-name="sigma1" unicode="&#x3c2;" horiz-adv-x="453" 
d="M308 -158q6 16 11.5 35l11 39t9.5 39t6 36q-63 1 -117.5 16.5t-95.5 46.5t-64.5 78t-23.5 112q0 60 17 106t45.5 77t66.5 47t80 16q63 0 102.5 -27t62.5 -72l-42 -22q-19 35 -47.5 56t-77.5 21q-35 0 -64 -15t-49 -41.5t-31 -62.5t-11 -78q0 -99 64.5 -155.5t198.5 -59.5
q17 0 26 -6t9 -25q0 -18 -5 -41t-12.5 -47t-16 -46t-15.5 -38z" />
    <glyph glyph-name="sigma" unicode="&#x3c3;" horiz-adv-x="572" 
d="M367 434q46 -32 74.5 -85t28.5 -119q0 -44 -12 -87.5t-38 -77.5t-66 -55t-97 -21q-53 0 -91.5 21t-64 55t-38 75.5t-12.5 83.5q0 51 14 94.5t41 76t67 53t93 24.5q29 2 56 3.5t54 1.5h145v-43h-154zM299 431q-89 0 -142 -52t-53 -155q0 -41 11.5 -75.5t32.5 -60t50.5 -40
t65.5 -14.5q37 0 65.5 15t48 41t30 62t10.5 77q0 39 -10.5 71.5t-27 58t-36 43.5t-38.5 29h-7z" />
    <glyph glyph-name="tau" unicode="&#x3c4;" horiz-adv-x="501" 
d="M255 107q0 -41 15.5 -57t52.5 -16q18 0 36.5 5t30.5 10l10 -42q-14 -6 -38 -12t-48 -6q-54 0 -82.5 25t-28.5 80v338h-56q-14 0 -28.5 -1.5t-29.5 -6.5q-16 -6 -28 -18.5t-22 -27.5l-36 25q8 15 23 32t41 28q18 8 39.5 10.5t46.5 2.5h293v-44h-191v-325z" />
    <glyph glyph-name="upsilon" unicode="&#x3c5;" horiz-adv-x="522" 
d="M137 190q0 -76 29 -115t96 -39q63 0 94 36.5t39 99.5q3 26 4 51t1 55q0 52 -5.5 97t-14.5 99l53 7q8 -51 13 -99.5t5 -102.5q0 -31 -1 -58t-4 -51q-11 -83 -55 -132t-134 -49q-85 0 -128.5 47.5t-43.5 147.5v162v22t-1 21q-1 47 -39 47q-5 0 -11 -1t-13 -3l-11 44
q9 3 20.5 6t26.5 3q23 0 37.5 -7t23 -19t12 -27.5t5.5 -32.5q2 -20 2 -38.5v-38.5v-132z" />
    <glyph glyph-name="phi" unicode="&#x3c6;" horiz-adv-x="644" 
d="M295 -189v189q-53 1 -98.5 17.5t-79 46.5t-53 73.5t-19.5 99.5q0 57 20 100.5t54.5 73.5t80 46.5t95.5 19.5v190h50v-190q52 -1 98.5 -16.5t81 -45t54.5 -72.5t20 -99q0 -59 -21.5 -104t-57 -76t-81.5 -47t-94 -17v-189h-50zM345 44q41 1 78 14.5t64.5 39t43.5 62
t16 81.5t-15 80t-42 59.5t-64 38t-81 14.5v-389zM295 433q-43 -2 -79.5 -15.5t-62.5 -39t-41 -61.5t-15 -81q0 -44 15.5 -79t42.5 -60t63 -38.5t77 -14.5v389z" />
    <glyph glyph-name="chi" unicode="&#x3c7;" horiz-adv-x="489" 
d="M34 -180l178 333l-89 212q-13 30 -27 52.5t-39 22.5q-8 0 -14.5 -1t-14.5 -4l-13 44q9 4 22 7t27 3q22 0 37 -7t27 -20.5t22.5 -34t21.5 -46.5l74 -180l146 285l47 -19l-166 -315l115 -236q14 -30 30.5 -47.5t42.5 -17.5q8 0 16 1t17 5l10 -42q-11 -5 -24 -7.5t-24 -2.5
q-25 0 -43.5 8t-33.5 22.5t-27 35t-24 46.5l-87 185l-161 -300z" />
    <glyph glyph-name="psi" unicode="&#x3c8;" horiz-adv-x="697" 
d="M319 -189v179q-132 7 -191.5 67t-59.5 178v121q0 26 -1.5 58t-6.5 61l52 7q6 -28 7 -63.5t1 -61.5v-117q0 -103 51 -152t148 -51v569h51v-569q86 2 131 32t61 86q8 26 10 57.5t2 63.5q0 52 -5 99t-14 101l52 7q9 -51 14.5 -101.5t5.5 -104.5q0 -66 -10 -116
q-17 -75 -75 -121t-172 -51v-178h-51z" />
    <glyph glyph-name="omega" unicode="&#x3c9;" horiz-adv-x="761" 
d="M184 466q-15 -23 -28.5 -51.5t-24.5 -61t-17.5 -68t-6.5 -71.5q0 -47 10 -81t27 -55.5t41 -31.5t51 -10q29 0 49.5 12.5t34.5 34t21.5 51t10.5 63.5q2 16 2.5 44.5t0.5 56.5v50h52v-41q0 -28 0.5 -59.5t2.5 -53.5q3 -32 11 -61t22.5 -51t35.5 -34.5t51 -12.5
q61 0 94.5 52t33.5 140q0 32 -6 65.5t-17 65.5t-25.5 60t-31.5 48l46 14q16 -19 32 -47.5t28 -61.5t19.5 -68t7.5 -66q0 -53 -11 -98t-33.5 -78.5t-56.5 -52.5t-80 -19q-31 0 -55.5 10t-43 27t-31 40t-19.5 49q-8 -25 -20.5 -48t-31 -40t-43 -27.5t-55.5 -10.5
q-47 0 -80 17.5t-54.5 47.5t-31.5 71t-10 88q0 39 7.5 78t19.5 75t27 65.5t29 49.5z" />
    <glyph glyph-name="iotadieresis" unicode="&#x3ca;" horiz-adv-x="247" 
d="M127 102q0 -36 13 -52t40 -16q14 0 28 3t25 8l9 -41q-11 -5 -30 -10t-39 -5q-45 0 -71.5 24.5t-26.5 80.5v382h52v-374zM183 601q-16 0 -27.5 12.5t-11.5 31.5q0 18 11.5 31t27.5 13t27 -13t11 -31q0 -19 -11 -31.5t-27 -12.5zM24 601q-16 0 -27.5 12.5t-11.5 31.5
q0 18 11.5 31t27.5 13t27 -13t11 -31q0 -19 -11 -31.5t-27 -12.5z" />
    <glyph glyph-name="upsilondieresis" unicode="&#x3cb;" horiz-adv-x="522" 
d="M137 190q0 -76 29 -115t96 -39q63 0 94 36.5t39 99.5q3 26 4 51t1 55q0 52 -5.5 97t-14.5 99l53 7q8 -51 13 -99.5t5 -102.5q0 -31 -1 -58t-4 -51q-11 -83 -55 -132t-134 -49q-85 0 -128.5 47.5t-43.5 147.5v162v22t-1 21q-1 47 -39 47q-5 0 -11 -1t-13 -3l-11 44
q9 3 20.5 6t26.5 3q23 0 37.5 -7t23 -19t12 -27.5t5.5 -32.5q2 -20 2 -38.5v-38.5v-132zM331 601q-16 0 -27.5 12.5t-11.5 31.5q0 18 11.5 31t27.5 13t27 -13t11 -31q0 -19 -11 -31.5t-27 -12.5zM172 601q-16 0 -27.5 12.5t-11.5 31.5q0 18 11.5 31t27.5 13t27 -13t11 -31
q0 -19 -11 -31.5t-27 -12.5z" />
    <glyph glyph-name="omicrontonos" unicode="&#x3cc;" horiz-adv-x="519" 
d="M167 10q-39 22 -66 57t-40.5 81t-13.5 94t13.5 92.5t40 79t66 55t92.5 20.5q52 0 92 -21t67 -55.5t40.5 -79.5t13.5 -93q0 -49 -13.5 -94.5t-40.5 -80t-67 -55.5t-92 -21t-92 21zM139 98q20 -29 50 -47t70 -18q41 0 71 18.5t50 48t30 66.5t10 75t-10 74.5t-30 65.5
t-50 46.5t-71 17.5t-71 -17.5t-50 -46t-29.5 -65t-9.5 -74.5q0 -39 10 -76.5t30 -67.5zM211 555l94 194l52 -21l-111 -189z" />
    <glyph glyph-name="upsilontonos" unicode="&#x3cd;" horiz-adv-x="522" 
d="M137 190q0 -76 29 -115t96 -39q63 0 94 36.5t39 99.5q3 26 4 51t1 55q0 52 -5.5 97t-14.5 99l53 7q8 -51 13 -99.5t5 -102.5q0 -31 -1 -58t-4 -51q-11 -83 -55 -132t-134 -49q-85 0 -128.5 47.5t-43.5 147.5v162v22t-1 21q-1 47 -39 47q-5 0 -11 -1t-13 -3l-11 44
q9 3 20.5 6t26.5 3q23 0 37.5 -7t23 -19t12 -27.5t5.5 -32.5q2 -20 2 -38.5v-38.5v-132zM215 555l94 194l52 -21l-111 -189z" />
    <glyph glyph-name="omegatonos" unicode="&#x3ce;" horiz-adv-x="761" 
d="M184 466q-15 -23 -28.5 -51.5t-24.5 -61t-17.5 -68t-6.5 -71.5q0 -47 10 -81t27 -55.5t41 -31.5t51 -10q29 0 49.5 12.5t34.5 34t21.5 51t10.5 63.5q2 16 2.5 44.5t0.5 56.5v50h52v-41q0 -28 0.5 -59.5t2.5 -53.5q3 -32 11 -61t22.5 -51t35.5 -34.5t51 -12.5
q61 0 94.5 52t33.5 140q0 32 -6 65.5t-17 65.5t-25.5 60t-31.5 48l46 14q16 -19 32 -47.5t28 -61.5t19.5 -68t7.5 -66q0 -53 -11 -98t-33.5 -78.5t-56.5 -52.5t-80 -19q-31 0 -55.5 10t-43 27t-31 40t-19.5 49q-8 -25 -20.5 -48t-31 -40t-43 -27.5t-55.5 -10.5
q-47 0 -80 17.5t-54.5 47.5t-31.5 71t-10 88q0 39 7.5 78t19.5 75t27 65.5t29 49.5zM341 555l94 194l52 -21l-111 -189z" />
    <glyph glyph-name="afii10023" unicode="&#x401;" horiz-adv-x="502" 
d="M86 0v667h374v-49h-319v-239h231v-50h-232v-280h340v-49h-394zM345 766q-15 0 -25.5 13t-10.5 32q0 18 10 30.5t26 12.5t26.5 -12.5t10.5 -30.5q0 -20 -10.5 -32.5t-26.5 -12.5zM202 766q-15 0 -25.5 13t-10.5 32q0 18 10 30.5t26 12.5q15 0 25.5 -12.5t10.5 -30.5
q0 -20 -10.5 -32.5t-25.5 -12.5z" />
    <glyph glyph-name="afii10051" unicode="&#x402;" horiz-adv-x="668" 
d="M177 0v618h-171v49h407v-49h-182v-230q15 10 34 21t41.5 20t48.5 15t53 6q98 0 156.5 -58t58.5 -168q0 -57 -16.5 -99t-46 -70t-70 -41.5t-88.5 -13.5h-40v49h43q35 0 64.5 9.5t51.5 30t34 53.5t12 80q0 84 -43 130.5t-119 46.5q-29 0 -55.5 -7t-49 -17t-40 -21.5
t-29.5 -21.5v-332h-54z" />
    <glyph glyph-name="afii10052" unicode="&#x403;" horiz-adv-x="471" 
d="M88 -1v668h373v-51h-318v-616zM201 712l-24 29l165 140l36 -42z" />
    <glyph glyph-name="afii10053" unicode="&#x404;" horiz-adv-x="578" 
d="M107 315q2 -135 61.5 -207t159.5 -72q64 0 105 29.5t71 73.5l41 -27q-15 -23 -35.5 -45.5t-47.5 -40.5t-61.5 -29t-77.5 -11q-57 0 -107 19.5t-86.5 61.5t-58 107t-21.5 156q0 92 23 158t60.5 108t86.5 62t101 20q78 0 133.5 -35.5t88.5 -92.5l-43 -27q-12 19 -28.5 37.5
t-38 33.5t-49.5 24.5t-64 9.5q-50 0 -88.5 -19.5t-65.5 -54.5t-41.5 -83.5t-16.5 -106.5h256v-49h-257z" />
    <glyph glyph-name="afii10054" unicode="&#x405;" horiz-adv-x="503" 
d="M77 130q29 -45 75 -69.5t101 -24.5q67 0 111 32t44 100q0 34 -13.5 59.5t-37.5 45t-56.5 34.5t-69.5 28q-31 11 -63 25.5t-58 36t-42.5 50.5t-16.5 69t16.5 71t44 51.5t65 31t79.5 10.5q76 0 126 -28.5t82 -73.5l-43 -33q-27 37 -68 61.5t-99 24.5q-30 0 -56.5 -7
t-46 -21t-31 -35t-11.5 -49q0 -29 14 -49.5t36 -36.5t50 -28t55 -22q39 -15 75 -32.5t64 -41.5t45 -57.5t17 -80.5q0 -93 -57.5 -138.5t-156.5 -45.5q-72 0 -128.5 28.5t-91.5 82.5z" />
    <glyph glyph-name="uni0406" unicode="&#x406;" horiz-adv-x="217" 
d="M81 0v667h55v-667h-55z" />
    <glyph glyph-name="afii10056" unicode="&#x407;" horiz-adv-x="217" 
d="M81 0v667h55v-667h-55zM192 765q-16 0 -27.5 12.5t-11.5 31.5q0 18 11.5 31t27.5 13t27 -13t11 -31q0 -19 -11 -31.5t-27 -12.5zM33 765q-16 0 -27.5 12.5t-11.5 31.5q0 18 11.5 31t27.5 13t27 -13t11 -31q0 -19 -11 -31.5t-27 -12.5z" />
    <glyph glyph-name="afii10057" unicode="&#x408;" horiz-adv-x="220" 
d="M-39 -80q26 6 49 15t40 24t26.5 36.5t9.5 50.5v621h55v-622q0 -41 -13.5 -71t-36.5 -50.5t-54 -32.5t-66 -18z" />
    <glyph glyph-name="afii10058" unicode="&#x409;" horiz-adv-x="935" 
d="M13 0v48h18q29 0 53.5 14t44.5 57q35 80 46 205t11 286v57h338v-257h146q106 0 163.5 -53t57.5 -146q0 -47 -15 -86t-43.5 -67t-70 -43t-95.5 -15h-198v618h-228v-80q0 -174 -20.5 -288.5t-50.5 -166.5q-27 -46 -61.5 -64.5t-83.5 -18.5h-12zM524 48h141q85 0 127.5 44
t42.5 119q0 72 -44.5 111.5t-123.5 39.5h-143v-314z" />
    <glyph glyph-name="afii10059" unicode="&#x40a;" horiz-adv-x="933" 
d="M86 0v667h55v-266h328v266h55v-266h141q107 0 166 -50t59 -145q0 -98 -61.5 -152t-168.5 -54h-191v352h-328v-352h-55zM524 49h136q82 0 127.5 40.5t45.5 116.5q0 75 -45 110.5t-127 35.5h-137v-303z" />
    <glyph glyph-name="afii10060" unicode="&#x40b;" horiz-adv-x="687" 
d="M177 0v618h-171v49h407v-49h-181v-230q14 10 33 21t42 20t48.5 15t53.5 6q94 0 145.5 -51t51.5 -158v-241h-55v241q0 34 -8 63t-25.5 50t-45.5 33t-68 12q-28 0 -54 -7t-48.5 -17.5t-40.5 -22.5t-29 -22v-330h-55z" />
    <glyph glyph-name="afii10061" unicode="&#x40c;" horiz-adv-x="544" 
d="M88 0v667h55v-303h79q23 0 39 7.5t30.5 27t28.5 53t32 84.5q12 34 24.5 58.5t28 40.5t36 24t48.5 8h42v-49h-32q-20 0 -34 -5.5t-25 -17.5t-20.5 -32t-19.5 -48l-25.5 -66.5t-22.5 -48.5t-22 -34t-23 -24l223 -342h-63l-209 316h-115v-316h-55zM237 713l-24 29l165 140
l36 -42z" />
    <glyph glyph-name="afii10062" unicode="&#x40e;" horiz-adv-x="536" 
d="M91 -6v50h22q19 0 38 4t37.5 18t38 42t39.5 76l-252 483h62l221 -428q21 42 45.5 96t48 111.5l45 114.5t36.5 106h56q-45 -136 -101.5 -268.5t-119.5 -250.5q-15 -30 -31.5 -57.5t-37.5 -49t-47.5 -34.5t-62.5 -13h-37zM188 847q8 -46 34 -67t64 -21q35 0 63 20.5
t36 67.5h45q-2 -32 -15.5 -57t-33.5 -41.5t-45 -25t-51 -8.5q-27 0 -52.5 8.5t-45.5 25t-32.5 41.5t-13.5 57h47z" />
    <glyph glyph-name="afii10145" unicode="&#x40f;" horiz-adv-x="644" 
d="M88 0v667h56v-618h356v618h55v-667h-202v-144h-55v144h-210z" />
    <glyph glyph-name="afii10017" unicode="&#x410;" horiz-adv-x="550" 
d="M0 0l253 667h41l256 -667h-57l-82 214h-275l-80 -214h-56zM154 264h239l-122 322z" />
    <glyph glyph-name="afii10018" unicode="&#x411;" horiz-adv-x="548" 
d="M88 0v667h345v-50h-290v-226h137q108 0 165.5 -49t57.5 -144q0 -98 -55 -148t-167 -50h-193zM143 49h142q79 0 120 35t41 112q0 76 -44.5 111.5t-115.5 35.5h-143v-294z" />
    <glyph glyph-name="afii10019" unicode="&#x412;" horiz-adv-x="520" 
d="M81 0v667h182q94 0 143.5 -42t49.5 -127q0 -60 -32.5 -96t-95.5 -48q72 -5 117 -46.5t45 -122.5q0 -43 -14 -77.5t-39 -58.5t-60 -36.5t-77 -12.5h-219zM136 376h120q71 0 107.5 34t36.5 91q0 61 -35 89t-101 28h-128v-242zM136 49h160q66 0 101.5 37t35.5 101
q0 75 -46.5 107t-127.5 32h-123v-277z" />
    <glyph glyph-name="afii10020" unicode="&#x413;" horiz-adv-x="471" 
d="M88 -1v668h373v-51h-318v-616z" />
    <glyph glyph-name="afii10021" unicode="&#x414;" horiz-adv-x="608" 
d="M4 -144v192h38q43 64 72.5 138t47.5 149q9 38 15 80t9.5 85t5.5 85.5t2 81.5h324v-619h55v-192h-55v144h-459v-144h-55zM463 48v571h-216q0 -36 -2.5 -75.5t-7 -79t-10.5 -76.5t-13 -67q-8 -36 -21 -74.5t-27.5 -75t-30.5 -68.5t-30 -55h358z" />
    <glyph glyph-name="afii10022" unicode="&#x415;" horiz-adv-x="488" 
d="M81 0v667h374v-49h-319v-239h231v-50h-232v-280h340v-49h-394z" />
    <glyph glyph-name="afii10024" unicode="&#x416;" horiz-adv-x="784" 
d="M25 0l209 334q-15 10 -27 25.5t-23 36t-21.5 47l-23.5 59.5q-15 39 -25.5 62t-21.5 35t-25 15.5t-36 3.5h-14v49h34q30 0 49 -7.5t34 -25t28 -47t31 -74.5l30 -71.5t26.5 -48.5t29 -27.5t37.5 -8.5h50v310h52v-310h49q22 0 38 8.5t30 27.5t27.5 48.5t30.5 71.5
q18 45 31.5 74.5t28.5 47.5t34 25t48 7h31v-49h-16q-22 0 -35.5 -3.5t-24.5 -15.5t-21.5 -35t-25.5 -62q-26 -69 -47 -108.5t-46 -56.5l208 -337h-67l-189 308h-84v-308h-52v308h-86l-193 -308h-62z" />
    <glyph glyph-name="afii10025" unicode="&#x417;" horiz-adv-x="523" 
d="M60 126q33 -41 77.5 -66t115.5 -25q77 0 122 35.5t45 107.5q0 31 -11.5 56.5t-32 43.5t-48 28t-60.5 12l-51.5 1.5t-39.5 0.5v47h43q20 0 35 1.5t26 3.5q24 5 46.5 16t40 28t28 39.5t10.5 49.5q0 124 -151 124q-33 0 -58.5 -7.5t-46 -20t-37 -30t-30.5 -37.5l-37 30
q31 57 88.5 86t123.5 29q100 0 153 -45t53 -122q0 -34 -10.5 -61t-29 -48t-43 -35.5t-52.5 -21.5q72 -7 110.5 -53.5t38.5 -115.5q0 -47 -17.5 -83t-48 -60t-73 -36.5t-93.5 -12.5q-64 0 -123.5 24.5t-96.5 77.5z" />
    <glyph glyph-name="afii10026" unicode="&#x418;" horiz-adv-x="657" 
d="M88 0v667h55v-521l371 451v70h55v-667h-55v520l-371 -451v-69h-55z" />
    <glyph glyph-name="afii10027" unicode="&#x419;" horiz-adv-x="657" 
d="M88 0v667h55v-521l371 451v70h55v-667h-55v520l-371 -451v-69h-55zM237 850q8 -46 34 -67t64 -21q35 0 63 20.5t36 67.5h45q-2 -32 -15.5 -57t-33.5 -41.5t-45 -25t-51 -8.5q-27 0 -52.5 8.5t-45.5 25t-32.5 41.5t-13.5 57h47z" />
    <glyph glyph-name="afii10028" unicode="&#x41a;" horiz-adv-x="544" 
d="M88 0v667h55v-303h79q23 0 39 7.5t30.5 27t28.5 53t32 84.5q12 34 24.5 58.5t28 40.5t36 24t48.5 8h42v-49h-32q-20 0 -34 -5.5t-25 -17.5t-20.5 -32t-19.5 -48l-25.5 -66.5t-22.5 -48.5t-22 -34t-23 -24l223 -342h-63l-209 316h-115v-316h-55z" />
    <glyph glyph-name="afii10029" unicode="&#x41b;" horiz-adv-x="632" 
d="M9 0v48h8q16 0 32 2t30.5 9t27 20.5t23.5 36.5q29 63 44 159t15 219v173h354v-667h-55v619h-245v-95q0 -80 -5.5 -149t-14.5 -125t-22 -98.5t-28 -68.5q-26 -46 -61.5 -64.5t-84.5 -18.5h-18z" />
    <glyph glyph-name="afii10030" unicode="&#x41c;" horiz-adv-x="723" 
d="M81 0v667h70l217 -560l206 560h68v-667h-53v568l-214 -579h-12l-229 578v-567h-53z" />
    <glyph glyph-name="afii10031" unicode="&#x41d;" horiz-adv-x="635" 
d="M81 0v667h55v-297h363v297h55v-667h-55v320h-363v-320h-55z" />
    <glyph glyph-name="afii10032" unicode="&#x41e;" horiz-adv-x="643" 
d="M201 16q-51 30 -85 78.5t-50.5 111t-16.5 128.5q0 67 17.5 129.5t52 110.5t85.5 77t119 29q69 0 120 -29.5t84.5 -78t50 -111t16.5 -127.5t-16.5 -127.5t-50 -111t-84.5 -78.5t-120 -30q-70 0 -122 29zM159 130q27 -42 68 -68t96 -26t95 26.5t66.5 68.5t39.5 95.5
t13 107.5t-12.5 107t-39 95t-67 68.5t-95.5 26.5q-57 0 -98 -26t-67.5 -68.5t-39 -95.5t-12.5 -107t13 -107.5t40 -96.5z" />
    <glyph glyph-name="afii10033" unicode="&#x41f;" horiz-adv-x="649" 
d="M88 0v667h473v-667h-55v618h-362v-618h-56z" />
    <glyph glyph-name="afii10034" unicode="&#x420;" horiz-adv-x="518" 
d="M81 0v667h209q100 0 154.5 -49.5t54.5 -145.5q0 -48 -15.5 -84t-43 -60t-66 -36t-83.5 -12h-155v-280h-55zM136 330h155q70 0 110.5 37.5t40.5 103.5q0 69 -37.5 108t-114.5 39h-154v-288z" />
    <glyph glyph-name="afii10035" unicode="&#x421;" horiz-adv-x="555" 
d="M531 118q-15 -28 -34.5 -52t-45 -41.5t-58 -27.5t-73.5 -10q-63 0 -113.5 24t-85.5 69t-53.5 108.5t-18.5 142.5q0 85 20.5 150t56 109t82.5 67t101 23q82 0 135 -37.5t82 -97.5l-46 -25q-11 21 -26 41t-36 35.5t-47 24.5t-58 9q-44 0 -82 -19.5t-66 -57.5t-43.5 -94
t-15.5 -129q0 -65 15.5 -119t43.5 -92.5t68 -60t88 -21.5q32 0 57.5 8.5t45.5 23t36 34t28 41.5z" />
    <glyph glyph-name="afii10036" unicode="&#x422;" horiz-adv-x="476" 
d="M210 0v618h-206v49h468v-49h-207v-618h-55z" />
    <glyph glyph-name="afii10037" unicode="&#x423;" horiz-adv-x="536" 
d="M91 -6v50h22q19 0 38 4t37.5 18t38 42t39.5 76l-252 483h62l221 -428q21 42 45.5 96t48 111.5l45 114.5t36.5 106h56q-45 -136 -101.5 -268.5t-119.5 -250.5q-15 -30 -31.5 -57.5t-37.5 -49t-47.5 -34.5t-62.5 -13h-37z" />
    <glyph glyph-name="afii10038" unicode="&#x424;" horiz-adv-x="710" 
d="M327 -11v96q-136 5 -208 70t-72 178q0 114 72.5 178t207.5 70v98h55v-98q137 -6 209 -70t72 -178q0 -112 -72 -177.5t-209 -70.5v-96h-55zM327 533q-50 0 -91.5 -12.5t-71 -37.5t-46 -62.5t-16.5 -87.5q0 -49 16.5 -86t46.5 -62.5t71.5 -38.5t90.5 -13v400zM382 133
q50 0 91.5 12.5t71.5 37t47 62t17 88.5q0 49 -17 86.5t-47.5 62.5t-72 38t-90.5 13v-400z" />
    <glyph glyph-name="afii10039" unicode="&#x425;" horiz-adv-x="491" 
d="M6 0l207 340l-189 327h64l158 -281l157 281h62l-188 -321l208 -346h-66l-174 300l-178 -300h-61z" />
    <glyph glyph-name="afii10040" unicode="&#x426;" horiz-adv-x="644" 
d="M90 0v667h55v-619h353v619h54v-619h55v-192h-54v144h-463z" />
    <glyph glyph-name="afii10041" unicode="&#x427;" horiz-adv-x="603" 
d="M460 0v303q-20 -7 -44.5 -13t-51 -10t-54 -6t-52.5 -2q-97 0 -141.5 37.5t-54.5 115.5q-2 18 -3 37.5t-1 39.5v165h55v-156q0 -15 0.5 -33.5t2.5 -32.5q3 -33 12.5 -56.5t27.5 -38.5t45.5 -21.5t67.5 -6.5q23 0 49.5 2.5t52 6.5t48.5 10t41 14v312h55v-667h-55z" />
    <glyph glyph-name="afii10042" unicode="&#x428;" horiz-adv-x="875" 
d="M91 0v667h55v-619h264v619h54v-619h264v619h54v-667h-691z" />
    <glyph glyph-name="afii10043" unicode="&#x429;" horiz-adv-x="869" 
d="M95 0v667h55v-619h255v619h53v-619h260v619h53v-619h56v-192h-55v144h-677z" />
    <glyph glyph-name="afii10044" unicode="&#x42a;" horiz-adv-x="600" 
d="M118 0v618h-103v49h158v-240h158q56 0 98.5 -15t71 -43t42.5 -66.5t14 -86.5t-13.5 -88t-41 -68.5t-69 -44t-98.5 -15.5h-217zM173 49h158q85 0 127 46.5t42 120.5q0 75 -44.5 118.5t-125.5 43.5h-157v-329z" />
    <glyph glyph-name="afii10045" unicode="&#x42b;" horiz-adv-x="773" 
d="M88 0v667h55v-240h141q57 0 99.5 -15t70.5 -43t42 -66.5t14 -86.5t-13.5 -88t-41 -68.5t-69.5 -44t-99 -15.5h-199zM143 49h141q85 0 126.5 46.5t41.5 120.5q0 75 -44 118.5t-123 43.5h-142v-329zM630 0v667h54v-667h-54z" />
    <glyph glyph-name="afii10046" unicode="&#x42c;" horiz-adv-x="569" 
d="M88 0v667h55v-261h159q113 0 168.5 -51t55.5 -146q0 -97 -57 -153t-171 -56h-210zM143 50h159q81 0 123.5 41.5t42.5 117.5q0 75 -44.5 111.5t-122.5 36.5h-158v-307z" />
    <glyph glyph-name="afii10047" unicode="&#x42d;" horiz-adv-x="580" 
d="M79 141q29 -44 71.5 -74.5t107.5 -30.5q103 0 157.5 73t56.5 208h-258v49h257q-2 59 -16.5 107.5t-41.5 82.5t-65.5 52.5t-89.5 18.5q-33 0 -61 -9t-50.5 -24t-39.5 -33.5t-29 -37.5l-42 27q35 58 93.5 93t136.5 35q53 0 101 -19.5t84 -60.5t57 -106.5t21 -156.5
q0 -93 -21.5 -159t-58.5 -108.5t-87.5 -62t-107.5 -19.5q-42 0 -76 10.5t-61 28t-47.5 40t-34.5 45.5z" />
    <glyph glyph-name="afii10048" unicode="&#x42e;" horiz-adv-x="893" 
d="M88 0v667h55v-303h164q4 62 22 119t50.5 100.5t80.5 69t112 25.5q69 0 119.5 -29t83.5 -77t49 -110.5t16 -128.5t-16.5 -128.5t-49.5 -111t-83.5 -78t-118.5 -29.5q-65 0 -113.5 27t-81 72.5t-50 104.5t-20.5 124h-164v-314h-55zM415 129q26 -42 66 -67.5t94 -25.5
q52 0 91 24.5t65 66t39 95t13 111.5q0 57 -13 110.5t-39.5 94.5t-66 65.5t-92.5 24.5t-92.5 -25t-65 -66t-38 -94t-12.5 -110q0 -56 12.5 -109t38.5 -95z" />
    <glyph glyph-name="afii10049" unicode="&#x42f;" horiz-adv-x="556" 
d="M40 0v50h19q12 0 29 3.5t35.5 27t37 73.5t33.5 143q-71 21 -107 65t-36 119q0 39 13 73t39.5 59t66.5 39.5t94 14.5h203v-667h-54v290h-166q-18 -99 -40.5 -156.5t-46.5 -87.5t-48.5 -38t-45.5 -8h-26zM413 338v280h-159q-71 0 -108.5 -37t-37.5 -98q0 -64 38 -104.5
t112 -40.5h155z" />
    <glyph glyph-name="afii10065" unicode="&#x430;" horiz-adv-x="454" 
d="M341 0l-4 41q-24 -24 -57.5 -38t-81.5 -14q-34 0 -63 9.5t-50.5 28t-33.5 46t-12 62.5q0 52 26.5 86.5t68.5 54.5t95 28t107 9v21q0 55 -28 83t-80 28q-38 0 -67.5 -16.5t-48.5 -38.5l-36 28q25 31 61 51t93 20q158 0 158 -160v-329h-47zM336 268q-41 -1 -84.5 -6
t-79 -19.5t-58 -40.5t-22.5 -68q0 -26 9.5 -45t25.5 -31.5t36.5 -18.5t41.5 -6q40 0 74 17t57 40v178z" />
    <glyph glyph-name="afii10066" unicode="&#x431;" horiz-adv-x="521" 
d="M262 579q-47 -2 -76.5 -22.5t-46.5 -52t-25 -70t-12 -76.5q55 100 175 100q48 0 85.5 -18t63.5 -49.5t39.5 -74.5t13.5 -93q0 -44 -13.5 -86t-40.5 -75t-68 -53t-95 -20t-94.5 21.5t-66.5 59.5t-39 90t-13 114q0 177 52 265t165 88h41q34 0 54.5 11t25.5 40l42 -8
q-6 -50 -37 -68.5t-80 -20.5zM147 96q20 -28 49 -44.5t67 -16.5q41 0 71.5 16.5t51 43.5t30.5 61t10 69t-10 69t-29.5 60.5t-50 42.5t-70.5 16q-35 0 -64.5 -14t-50.5 -38t-32.5 -56t-11.5 -68q0 -40 10.5 -76.5t29.5 -64.5z" />
    <glyph glyph-name="afii10067" unicode="&#x432;" horiz-adv-x="477" 
d="M75 0v476h198q143 0 143 -113q0 -47 -22.5 -73.5t-55.5 -37.5q42 -8 70.5 -36.5t28.5 -83.5q0 -63 -40.5 -97.5t-101.5 -34.5h-220zM127 44h160q19 0 36.5 4.5t31 15t22 27.5t8.5 42q0 38 -28 65.5t-80 27.5h-150v-182zM127 271h142q50 0 72.5 25t22.5 61q0 75 -88 75
h-149v-161z" />
    <glyph glyph-name="afii10068" unicode="&#x433;" horiz-adv-x="368" 
d="M73 0v476h292v-45h-240v-431h-52z" />
    <glyph glyph-name="afii10069" unicode="&#x434;" horiz-adv-x="529" 
d="M2 -111v155h27q34 21 55 55t32.5 74t15.5 83.5t4 85.5v134h317v-432h55v-155h-52v111h-402v-111h-52zM400 44v388h-212v-115q0 -38 -4.5 -76t-15 -74t-27.5 -67.5t-41 -55.5h300z" />
    <glyph glyph-name="afii10070" unicode="&#x435;" horiz-adv-x="486" 
d="M97 247q0 -101 43 -157.5t125 -56.5q51 0 84 24.5t54 61.5l38 -24q-12 -21 -27.5 -40t-37 -34t-49.5 -23.5t-64 -8.5q-102 0 -159 65.5t-57 184.5q0 58 15 104.5t42 78.5t64.5 49.5t82.5 17.5q48 0 84.5 -17.5t61.5 -49t38 -76.5t15 -99h-353zM391 291q-2 40 -15 69.5
t-32.5 48t-43.5 27.5t-49 9q-57 0 -98 -36.5t-52 -117.5h290z" />
    <glyph glyph-name="afii10072" unicode="&#x436;" horiz-adv-x="667" 
d="M37 0l148 255q-16 11 -27 29.5l-28 49.5q-13 23 -22 41.5t-18 31t-20 19t-29 6.5h-20v44h30q23 0 38.5 -6.5t27.5 -20t23 -33t24 -45.5l29 -50t22.5 -31t21 -15.5t24.5 -4.5h47v206h50v-206h47q15 0 27.5 7t24.5 21.5t25 36.5t29 52l22.5 42t21 27.5t25.5 15t36 4.5h29
v-44h-20q-14 0 -23.5 -3.5t-17.5 -12.5t-17 -24t-22 -39q-20 -36 -36 -61.5t-30 -34.5l148 -257h-58l-125 226h-86v-226h-50v226h-83l-131 -226h-57z" />
    <glyph glyph-name="afii10073" unicode="&#x437;" horiz-adv-x="427" 
d="M65 114q9 -16 19.5 -31t26.5 -26t38.5 -18t54.5 -7q66 0 98 25t32 68q0 45 -27 67.5t-74 27.5q-12 2 -35 2h-40v41h38.5t33.5 2q45 6 68.5 34.5t23.5 63.5q0 43 -32.5 63t-80.5 20q-50 0 -81.5 -21.5t-52.5 -69.5l-39 19q24 58 65 86.5t110 28.5q76 0 119 -32t43 -87
q0 -44 -23.5 -78.5t-66.5 -46.5q46 -8 74 -35.5t28 -75.5q0 -72 -49 -108.5t-134 -36.5q-38 0 -66.5 7.5t-49.5 21t-36 31.5t-26 40z" />
    <glyph glyph-name="afii10074" unicode="&#x438;" horiz-adv-x="522" 
d="M74 0v476h51v-360l271 308v52h51v-476h-51v359l-271 -308v-51h-51z" />
    <glyph glyph-name="afii10075" unicode="&#x439;" horiz-adv-x="522" 
d="M74 0v476h51v-360l271 308v52h51v-476h-51v359l-271 -308v-51h-51zM172 681q8 -46 34 -67t64 -21q35 0 63 20.5t36 67.5h45q-2 -32 -15.5 -57t-33.5 -41.5t-45 -25t-51 -8.5q-27 0 -52.5 8.5t-45.5 25t-32.5 41.5t-13.5 57h47z" />
    <glyph glyph-name="afii10076" unicode="&#x43a;" horiz-adv-x="459" 
d="M73 0v476h52v-208h67q14 0 24 4.5t19 16.5t20 34t27 57q14 30 27.5 49t28 29.5t31.5 14t37 3.5h30v-44h-24q-16 0 -28 -3t-21.5 -10.5t-18.5 -21t-19 -35.5q-20 -44 -33.5 -69t-27.5 -37l176 -256h-63l-154 224h-98v-224h-52z" />
    <glyph glyph-name="afii10077" unicode="&#x43b;" horiz-adv-x="516" 
d="M5 0v45h17.5t16.5 2q21 5 38.5 20t28.5 56q6 22 10 49t6.5 67.5t3.5 97.5t1 139h311v-476h-53v432h-206q-2 -100 -6 -182.5t-16 -133.5q-12 -54 -43.5 -85t-89.5 -31h-19z" />
    <glyph glyph-name="afii10078" unicode="&#x43c;" horiz-adv-x="617" 
d="M75 0v476h72l164 -388l163 388h69v-476h-52v404l-175 -407h-14l-175 408v-405h-52z" />
    <glyph glyph-name="afii10079" unicode="&#x43d;" horiz-adv-x="519" 
d="M73 0v476h52v-204h267v204h53v-476h-53v226h-267v-226h-52z" />
    <glyph glyph-name="afii10080" unicode="&#x43e;" horiz-adv-x="519" 
d="M167 10q-39 22 -66 57t-40.5 81t-13.5 94t13.5 92.5t40 79t66 55t92.5 20.5q52 0 92 -21t67 -55.5t40.5 -79.5t13.5 -93q0 -49 -13.5 -94.5t-40.5 -80t-67 -55.5t-92 -21t-92 21zM139 98q20 -29 50 -47t70 -18q41 0 71 18.5t50 48t30 66.5t10 75t-10 74.5t-30 65.5
t-50 46.5t-71 17.5t-71 -17.5t-50 -46t-29.5 -65t-9.5 -74.5q0 -39 10 -76.5t30 -67.5z" />
    <glyph glyph-name="afii10081" unicode="&#x43f;" horiz-adv-x="516" 
d="M73 0v476h368v-476h-53v431h-263v-431h-52z" />
    <glyph glyph-name="afii10082" unicode="&#x440;" horiz-adv-x="507" 
d="M69 -189v665h47l5 -40q24 21 57.5 37t81.5 16q50 0 88 -18t63 -50.5t37.5 -77.5t12.5 -100q0 -57 -16 -104t-46 -80.5t-72 -51.5t-93 -18q-38 0 -65.5 8.5t-47.5 20.5v-207h-52zM121 68q19 -14 46 -24t62 -10q40 0 73.5 14.5t57 41t36.5 65t13 86.5q0 42 -9 79
t-28.5 64.5t-49.5 44t-73 16.5q-39 0 -71 -17.5t-57 -41.5v-318z" />
    <glyph glyph-name="afii10083" unicode="&#x441;" horiz-adv-x="455" 
d="M430 88q-25 -45 -68 -72t-104 -27q-45 0 -83.5 16.5t-67 48.5t-44.5 78t-16 106q0 63 17 110t45.5 78.5t66 47t79.5 15.5q37 0 64.5 -9.5t47 -24.5t33 -33t21.5 -36l-41 -24q-18 36 -47.5 59.5t-77.5 23.5q-35 0 -63.5 -15.5t-49 -43t-32 -65t-11.5 -82.5
q0 -47 11.5 -84.5t33 -64.5t51.5 -41.5t66 -14.5q84 0 130 79z" />
    <glyph glyph-name="afii10084" unicode="&#x442;" horiz-adv-x="391" 
d="M169 0v431h-158v45h369v-45h-158v-431h-53z" />
    <glyph glyph-name="afii10085" unicode="&#x443;" horiz-adv-x="436" 
d="M20 -141q13 -5 31 -10.5t34 -5.5q25 0 39 11t26 41l42 105l-192 476h59l161 -407l160 407h56l-243 -605q-17 -41 -43 -57t-63 -16q-23 0 -45.5 4.5t-37.5 11.5z" />
    <glyph glyph-name="afii10086" unicode="&#x444;" horiz-adv-x="644" 
d="M295 -189v189q-53 1 -98.5 17.5t-79 46.5t-53 73.5t-19.5 99.5q0 57 20 100.5t54.5 73.5t80 46.5t95.5 19.5v190h50v-190q52 -1 98.5 -16.5t81 -45t54.5 -72.5t20 -99q0 -59 -21.5 -104t-57 -76t-81.5 -47t-94 -17v-189h-50zM345 44q41 1 78 14.5t64.5 39t43.5 62
t16 81.5t-15 80t-42 59.5t-64 38t-81 14.5v-389zM295 433q-43 -2 -79.5 -15.5t-62.5 -39t-41 -61.5t-15 -81q0 -44 15.5 -79t42.5 -60t63 -38.5t77 -14.5v389z" />
    <glyph glyph-name="afii10087" unicode="&#x445;" horiz-adv-x="381" 
d="M0 0l163 243l-155 233h57l127 -191l124 191h56l-152 -233l160 -243h-56l-132 202l-134 -202h-58z" />
    <glyph glyph-name="afii10088" unicode="&#x446;" horiz-adv-x="522" 
d="M76 0v476h53v-433h254v433h53v-433h55v-154h-48v111h-367z" />
    <glyph glyph-name="afii10089" unicode="&#x447;" horiz-adv-x="512" 
d="M387 0v185q-39 -11 -79.5 -18t-81.5 -7q-72 0 -110.5 23.5t-49.5 77.5q-2 13 -3 28t-1 32v155h53v-151q0 -14 0.5 -26.5t2.5 -22.5q7 -38 36 -54t81 -16q41 0 80.5 7.5t71.5 18.5v244h53v-476h-53z" />
    <glyph glyph-name="afii10090" unicode="&#x448;" horiz-adv-x="764" 
d="M79 0v476h53v-432h225v432h51v-432h225v432h52v-476h-606z" />
    <glyph glyph-name="afii10091" unicode="&#x449;" horiz-adv-x="769" 
d="M80 0v476h53v-432h221v432h50v-432h221v432h53v-432h55v-155h-48v111h-605z" />
    <glyph glyph-name="afii10092" unicode="&#x44a;" horiz-adv-x="518" 
d="M107 0v431h-102v45h156v-155h129q49 0 84.5 -12t58.5 -33t34 -49.5t11 -61.5q0 -34 -11 -64t-34 -52.5t-58.5 -35.5t-84.5 -13h-183zM161 44h125q137 0 137 121q0 59 -35.5 85t-100.5 26h-126v-232z" />
    <glyph glyph-name="afii10093" unicode="&#x44b;" horiz-adv-x="656" 
d="M73 0v476h53v-155h125q48 0 83 -12t57.5 -33t33.5 -50t11 -62q0 -34 -11 -63.5t-34 -52t-58 -35.5t-84 -13h-176zM126 44h122q66 0 99 31t33 89t-33.5 85t-98.5 27h-122v-232zM529 0v476h53v-476h-53z" />
    <glyph glyph-name="afii10094" unicode="&#x44c;" horiz-adv-x="492" 
d="M77 0v476h53v-155h134q49 0 84.5 -12t58.5 -33t34 -50t11 -62q0 -34 -11 -63.5t-34 -52t-58.5 -35.5t-84.5 -13h-187zM130 44h130q69 0 103 30.5t34 89.5q0 58 -35 85t-101 27h-131v-232z" />
    <glyph glyph-name="afii10095" unicode="&#x44d;" horiz-adv-x="469" 
d="M65 115q23 -38 57.5 -60t83.5 -22q73 0 119 47.5t48 144.5h-226v45h225q-3 45 -17.5 78t-37 54.5t-51 32t-59.5 10.5q-42 0 -79 -21t-60 -64l-41 22q9 18 25 36.5t39 34.5t53 26t66 10q45 0 84 -14t68 -44t45.5 -78t16.5 -115q0 -62 -16.5 -109t-45.5 -78t-70 -46.5
t-89 -15.5q-59 0 -104 24.5t-74 76.5z" />
    <glyph glyph-name="afii10096" unicode="&#x44e;" horiz-adv-x="728" 
d="M73 0v476h52v-207h146q4 45 18.5 84t39.5 68t61.5 46t85.5 17q55 0 93.5 -20t63.5 -53.5t36.5 -78t11.5 -93.5q0 -51 -12 -96.5t-37 -79.5t-63.5 -54t-92.5 -20q-52 0 -89.5 18t-62.5 50t-38.5 75t-16.5 91h-144v-223h-52zM360 94q20 -28 49 -44t67 -16q41 0 70 16
t47.5 44t27 64.5t8.5 78.5t-8.5 78.5t-27.5 64t-48 43.5t-69 16t-69 -16t-48 -43.5t-28.5 -64t-9.5 -77.5q0 -42 10 -79t29 -65z" />
    <glyph glyph-name="afii10097" unicode="&#x44f;" horiz-adv-x="481" 
d="M29 0v46h18q10 0 22.5 3t26 16.5t26 41.5t22.5 79q-16 5 -34 15t-33 26.5t-25 41t-10 58.5q0 69 48.5 109t134.5 40h183v-476h-51v177h-163q-11 -59 -28 -93.5t-35.5 -53.5t-36.5 -24.5t-33 -5.5h-32zM357 222v209h-138q-57 0 -90.5 -27.5t-33.5 -75.5q0 -51 31.5 -78.5
t89.5 -27.5h141z" />
    <glyph glyph-name="afii10071" unicode="&#x451;" horiz-adv-x="486" 
d="M97 247q0 -101 43 -157.5t125 -56.5q51 0 84 24.5t54 61.5l38 -24q-12 -21 -27.5 -40t-37 -34t-49.5 -23.5t-64 -8.5q-102 0 -159 65.5t-57 184.5q0 58 15 104.5t42 78.5t64.5 49.5t82.5 17.5q48 0 84.5 -17.5t61.5 -49t38 -76.5t15 -99h-353zM391 291q-2 40 -15 69.5
t-32.5 48t-43.5 27.5t-49 9q-57 0 -98 -36.5t-52 -117.5h290zM330 601q-16 0 -27.5 12.5t-11.5 31.5q0 18 11.5 31t27.5 13t27 -13t11 -31q0 -19 -11 -31.5t-27 -12.5zM171 601q-16 0 -27.5 12.5t-11.5 31.5q0 18 11.5 31t27.5 13t27 -13t11 -31q0 -19 -11 -31.5t-27 -12.5z
" />
    <glyph glyph-name="afii10099" unicode="&#x452;" horiz-adv-x="537" 
d="M77 0v569h-81v41h81v57h52v-57h153v-41h-153v-181q33 25 75 43.5t91 18.5q93 0 131.5 -48t38.5 -139v-239q0 -45 -7.5 -78.5t-21.5 -59.5t-34.5 -45.5t-46.5 -36.5l-26 40q24 17 39.5 35t25.5 39t14 47t4 59v240q0 72 -30.5 106.5t-96.5 34.5q-23 0 -45 -6.5t-42 -16
t-37.5 -21.5t-31.5 -23v-338h-52z" />
    <glyph glyph-name="afii10100" unicode="&#x453;" horiz-adv-x="368" 
d="M73 0v476h292v-45h-240v-431h-52zM149 547l-24 29l165 140l36 -42z" />
    <glyph glyph-name="afii10101" unicode="&#x454;" horiz-adv-x="472" 
d="M97 223q1 -49 15 -85t37 -59t53.5 -34.5t66.5 -11.5q49 0 83 21.5t54 59.5l38 -22q-29 -54 -75 -78.5t-106 -24.5q-47 0 -86.5 15.5t-69 46.5t-46 77.5t-16.5 108.5q0 64 17.5 111t47.5 78.5t69 47t82 15.5q36 0 65.5 -10t51.5 -25.5t37.5 -34.5t24.5 -37l-40 -22
q-23 43 -62.5 64t-81.5 21q-31 0 -58.5 -11.5t-48.5 -34t-34.5 -55.5t-16.5 -77h224v-44h-225z" />
    <glyph glyph-name="afii10102" unicode="&#x455;" horiz-adv-x="388" 
d="M76 99q19 -30 48.5 -48t74.5 -18q51 0 80.5 22t29.5 66q0 46 -30 71.5t-97 48.5q-69 23 -98 52t-29 79q0 52 39 84.5t108 32.5q56 0 92 -20.5t57 -53.5l-39 -28q-17 25 -44.5 42t-65.5 17q-48 0 -71.5 -20.5t-23.5 -51.5q0 -18 5.5 -31t19 -24t37 -21.5t58.5 -22.5
q67 -23 99.5 -57t32.5 -94q0 -66 -45.5 -100.5t-114.5 -34.5q-66 0 -104.5 24.5t-59.5 59.5z" />
    <glyph glyph-name="afii10103" unicode="&#x456;" horiz-adv-x="191" 
d="M95 578q-15 0 -25.5 13t-10.5 32t10.5 31.5t25.5 12.5q16 0 27 -12.5t11 -31.5q0 -20 -11 -32.5t-27 -12.5zM69 0v476h53v-476h-53z" />
    <glyph glyph-name="afii10104" unicode="&#x457;" horiz-adv-x="191" 
d="M69 0v476h52v-476h-52zM176 601q-16 0 -27.5 12.5t-11.5 31.5q0 18 11.5 31t27.5 13t27 -13t11 -31q0 -19 -11 -31.5t-27 -12.5zM17 601q-16 0 -27.5 12.5t-11.5 31.5q0 18 11.5 31t27.5 13t27 -13t11 -31q0 -19 -11 -31.5t-27 -12.5z" />
    <glyph glyph-name="afii10105" unicode="&#x458;" horiz-adv-x="189" 
d="M93 578q-16 0 -26.5 13t-10.5 32t10.5 31.5t26.5 12.5q15 0 26 -12.5t11 -31.5q0 -20 -11 -32.5t-26 -12.5zM-11 -157q43 27 60.5 63t17.5 91v479h53v-479q0 -74 -26.5 -118.5t-78.5 -74.5z" />
    <glyph glyph-name="afii10106" unicode="&#x459;" horiz-adv-x="759" 
d="M5 0v46h17q11 0 23.5 2.5t23.5 11t21 24t16 41.5q7 31 11.5 66.5t6.5 78t2.5 93.5t0.5 113h284v-155h120q97 0 143.5 -43.5t46.5 -110.5q0 -34 -11 -64t-33.5 -53t-58.5 -36.5t-85 -13.5h-175v432h-178q-2 -100 -6.5 -182t-15.5 -133q-13 -54 -43.5 -85.5t-84.5 -31.5
h-25zM411 44h118q69 0 102.5 32t33.5 89q0 59 -35.5 85t-99.5 26h-119v-232z" />
    <glyph glyph-name="afii10107" unicode="&#x45a;" horiz-adv-x="773" 
d="M73 0v476h52v-186h253v186h53v-186h128q88 0 132 -37t44 -103q0 -70 -44 -110t-134 -40h-179v246h-253v-246h-52zM431 44h124q61 0 93.5 24t32.5 80q0 54 -33.5 76t-91.5 22h-125v-202z" />
    <glyph glyph-name="afii10108" unicode="&#x45b;" horiz-adv-x="535" 
d="M75 0v568h-82v42h82v57h52v-57h154v-42h-154v-180q38 27 79.5 44.5t86.5 17.5q93 0 131.5 -48t38.5 -139v-263h-52v264q0 75 -31 108t-96 33q-23 0 -45 -6.5t-42.5 -17t-38 -22.5l-31.5 -22v-337h-52z" />
    <glyph glyph-name="afii10109" unicode="&#x45c;" horiz-adv-x="459" 
d="M73 0v476h52v-208h67q14 0 24 4.5t19 16.5t20 34t27 57q14 30 27.5 49t28 29.5t31.5 14t37 3.5h30v-44h-24q-16 0 -28 -3t-21.5 -10.5t-18.5 -21t-19 -35.5q-20 -44 -33.5 -69t-27.5 -37l176 -256h-63l-154 224h-98v-224h-52zM188 547l-24 29l165 140l36 -42z" />
    <glyph glyph-name="afii10110" unicode="&#x45e;" horiz-adv-x="436" 
d="M20 -141q13 -5 31 -10.5t34 -5.5q25 0 39 11t26 41l42 105l-192 476h59l161 -407l160 407h56l-243 -605q-17 -41 -43 -57t-63 -16q-23 0 -45.5 4.5t-37.5 11.5zM128 681q8 -46 34 -67t64 -21q35 0 63 20.5t36 67.5h45q-2 -32 -15.5 -57t-33.5 -41.5t-45 -25t-51 -8.5
q-27 0 -52.5 8.5t-45.5 25t-32.5 41.5t-13.5 57h47z" />
    <glyph glyph-name="afii10193" unicode="&#x45f;" horiz-adv-x="513" 
d="M74 0v476h53v-433h259v433h53v-476h-157v-111h-52v111h-156z" />
    <glyph glyph-name="afii10050" unicode="&#x490;" horiz-adv-x="468" 
d="M86 -1v668h319v82h54v-131h-318v-618z" />
    <glyph glyph-name="afii10098" unicode="&#x491;" horiz-adv-x="368" 
d="M73 0v476h241v60h51v-105h-240v-431h-52z" />
    <glyph glyph-name="Wgrave" unicode="&#x1e80;" horiz-adv-x="747" 
d="M175 0l-169 667h54l140 -544l158 544h31l160 -544l137 544h55l-168 -667h-37l-163 546l-162 -546h-36zM272 840l37 40l165 -140l-24 -27z" />
    <glyph glyph-name="wgrave" unicode="&#x1e81;" horiz-adv-x="650" 
d="M157 0l-157 476h55l124 -392l126 392h36l126 -392l127 392h56l-161 -476h-42l-124 384l-125 -384h-41zM224 674l37 40l165 -140l-24 -27z" />
    <glyph glyph-name="Wacute" unicode="&#x1e82;" horiz-adv-x="747" 
d="M175 0l-169 667h54l140 -544l158 544h31l160 -544l137 544h55l-168 -667h-37l-163 546l-162 -546h-36zM317 713l-24 29l165 140l36 -42z" />
    <glyph glyph-name="wacute" unicode="&#x1e83;" horiz-adv-x="650" 
d="M157 0l-157 476h55l124 -392l126 392h36l126 -392l127 392h56l-161 -476h-42l-124 384l-125 -384h-41zM248 547l-24 29l165 140l36 -42z" />
    <glyph glyph-name="Wdieresis" unicode="&#x1e84;" horiz-adv-x="747" 
d="M175 0l-169 667h54l140 -544l158 544h31l160 -544l137 544h55l-168 -667h-37l-163 546l-162 -546h-36zM453 767q-16 0 -27.5 12.5t-11.5 31.5q0 18 11.5 31t27.5 13t27 -13t11 -31q0 -19 -11 -31.5t-27 -12.5zM294 767q-16 0 -27.5 12.5t-11.5 31.5q0 18 11.5 31t27.5 13
t27 -13t11 -31q0 -19 -11 -31.5t-27 -12.5z" />
    <glyph glyph-name="wdieresis" unicode="&#x1e85;" horiz-adv-x="650" 
d="M157 0l-157 476h55l124 -392l126 392h36l126 -392l127 392h56l-161 -476h-42l-124 384l-125 -384h-41zM405 601q-16 0 -27.5 12.5t-11.5 31.5q0 18 11.5 31t27.5 13t27 -13t11 -31q0 -19 -11 -31.5t-27 -12.5zM246 601q-16 0 -27.5 12.5t-11.5 31.5q0 18 11.5 31t27.5 13
t27 -13t11 -31q0 -19 -11 -31.5t-27 -12.5z" />
    <glyph glyph-name="Ygrave" unicode="&#x1ef2;" horiz-adv-x="515" 
d="M226 0v321l-226 346h62l193 -295l200 295h60l-234 -345v-322h-55zM145 840l37 40l165 -140l-24 -27z" />
    <glyph glyph-name="ygrave" unicode="&#x1ef3;" horiz-adv-x="436" 
d="M20 -141q13 -5 31 -10.5t34 -5.5q25 0 39 11t26 41l42 105l-192 476h59l161 -407l160 407h56l-243 -605q-17 -41 -43 -57t-63 -16q-23 0 -45.5 4.5t-37.5 11.5zM97 674l37 40l165 -140l-24 -27z" />
    <glyph glyph-name="endash" unicode="&#x2013;" horiz-adv-x="521" 
d="M0 234v47h521v-47h-521z" />
    <glyph glyph-name="emdash" unicode="&#x2014;" horiz-adv-x="1042" 
d="M0 234v47h1042v-47h-1042z" />
    <glyph glyph-name="afii00208" unicode="&#x2015;" horiz-adv-x="1042" 
d="M0 234v47h1042v-47h-1042z" />
    <glyph glyph-name="quoteleft" unicode="&#x2018;" horiz-adv-x="144" 
d="M127 490q-19 10 -37 23.5t-32.5 30t-23 35.5t-8.5 41q0 24 10.5 38.5t29.5 14.5q20 0 30 -15t10 -35q0 -23 -9 -34.5t-20 -16.5q8 -16 26 -32.5t35 -24.5z" />
    <glyph glyph-name="quoteright" unicode="&#x2019;" horiz-adv-x="144" 
d="M6 515q17 8 35 24.5t26 32.5q-11 5 -20 16.5t-9 34.5q0 20 10 35t30 15q19 0 29.5 -14.5t10.5 -38.5q0 -22 -8.5 -41t-23 -35.5t-32.5 -30t-37 -23.5z" />
    <glyph glyph-name="quotesinglbase" unicode="&#x201a;" horiz-adv-x="148" 
d="M6 -60q17 8 35 25t26 32q-11 6 -20 17.5t-9 33.5q0 21 10 35.5t30 14.5q19 0 29.5 -14.5t10.5 -37.5q0 -22 -8.5 -41.5t-23 -36t-32.5 -29.5t-37 -23z" />
    <glyph glyph-name="quotedblleft" unicode="&#x201c;" horiz-adv-x="290" 
d="M127 490q-19 10 -37 23.5t-32.5 30t-23 35.5t-8.5 41q0 24 10.5 38.5t30.5 14.5t30 -15t10 -35q0 -23 -9 -34.5t-20 -16.5q8 -16 25.5 -32.5t34.5 -24.5zM273 490q-19 10 -37 23.5t-32.5 30t-23 35.5t-8.5 41q0 24 10.5 38.5t29.5 14.5q20 0 30 -15t10 -35
q0 -23 -9 -34.5t-20 -16.5q8 -16 26 -32.5t35 -24.5z" />
    <glyph glyph-name="quotedblright" unicode="&#x201d;" horiz-adv-x="290" 
d="M152 515q17 8 34.5 24.5t25.5 32.5q-11 5 -20 16.5t-9 34.5q0 20 10 35t30 15t30.5 -14.5t10.5 -38.5q0 -22 -8.5 -41t-23 -35.5t-32.5 -30t-37 -23.5zM6 515q17 8 35 24.5t26 32.5q-11 5 -20 16.5t-9 34.5q0 20 10 35t30 15q19 0 29.5 -14.5t10.5 -38.5q0 -22 -8.5 -41
t-23 -35.5t-32.5 -30t-37 -23.5z" />
    <glyph glyph-name="quotedblbase" unicode="&#x201e;" horiz-adv-x="294" 
d="M152 -60q17 8 34.5 25t25.5 32q-11 6 -20 17.5t-9 33.5q0 21 10 35.5t30 14.5t30.5 -14.5t10.5 -37.5q0 -22 -8.5 -41.5t-23 -36t-32.5 -29.5t-37 -23zM6 -60q17 8 35 25t26 32q-11 6 -20 17.5t-9 33.5q0 21 10 35.5t30 14.5q19 0 29.5 -14.5t10.5 -37.5
q0 -22 -8.5 -41.5t-23 -36t-32.5 -29.5t-37 -23z" />
    <glyph glyph-name="dagger" unicode="&#x2020;" horiz-adv-x="423" 
d="M188 -146v532h-160v49h160v232h49v-232h158v-49h-158v-532h-49z" />
    <glyph glyph-name="daggerdbl" unicode="&#x2021;" horiz-adv-x="423" 
d="M188 -146v232h-160v49h160v251h-160v49h160v232h49v-232h158v-49h-158v-251h158v-49h-158v-232h-49z" />
    <glyph glyph-name="bullet" unicode="&#x2022;" horiz-adv-x="394" 
d="M140 238q-27 12 -47 32t-31.5 46.5t-11.5 57.5q0 30 11.5 57t31.5 47.5t46.5 32t57.5 11.5t57.5 -11.5t46.5 -32t31.5 -47.5t11.5 -57t-11.5 -57t-31.5 -47t-46.5 -31.5t-57.5 -11.5q-30 0 -57 11z" />
    <glyph glyph-name="ellipsis" unicode="&#x2026;" horiz-adv-x="551" 
d="M470 -11q-18 0 -29.5 14t-11.5 34t11.5 34t29.5 14q17 0 28 -14.5t11 -33.5t-11 -33.5t-28 -14.5zM276 -11q-17 0 -28.5 14t-11.5 34t11.5 34t28.5 14t28 -14.5t11 -33.5t-11 -33.5t-28 -14.5zM82 -11q-17 0 -28.5 14t-11.5 34t11.5 34t28.5 14q18 0 29 -14.5t11 -33.5
t-11 -33.5t-29 -14.5z" />
    <glyph glyph-name="perthousand" unicode="&#x2030;" horiz-adv-x="1040" 
d="M819 5q-26 12 -45 32t-30 47t-11 57t11 57t30 47t45 31.5t56 11.5t56 -11.5t45 -31.5t30 -47t11 -57t-11 -57t-30 -47t-45 -31.5t-56 -11.5t-56 11zM119 391q-26 12 -45 31.5t-30 46.5t-11 57t11 57t30 47t45 31.5t56 11.5t56 -11.5t45 -31.5t30 -47t11 -57t-11 -57
t-30 -46.5t-45 -31t-56 -11.5t-56 11zM58 -2l-35 37l617 635l33 -32zM475 5q-26 12 -45 32t-30 47t-11 57t11 57t30 47t45 31.5t56 11.5t56 -11.5t45 -31.5t30 -47t11 -57t-11 -57t-30 -47t-45 -31.5t-56 -11.5t-56 11zM806 69q13 -14 30.5 -23t38.5 -9q20 0 37.5 9
t30.5 23.5t20.5 33.5t7.5 39q0 43 -27.5 73t-68.5 30q-42 0 -69 -30t-27 -73q0 -20 7.5 -39t19.5 -34zM106 455q13 -14 30.5 -23t38.5 -9q20 0 37.5 9t30.5 23.5t20.5 33t7.5 38.5q0 21 -7.5 40t-20.5 33.5t-30.5 22.5t-37.5 8q-21 0 -38.5 -8t-30 -22.5t-20 -33.5t-7.5 -40
q0 -20 7.5 -38.5t19.5 -33.5zM462 69q13 -14 30.5 -23t37.5 -9q21 0 38.5 9t30.5 23.5t20.5 33.5t7.5 39q0 21 -7.5 40t-20.5 33t-30.5 22t-38.5 8q-41 0 -68.5 -30t-27.5 -73q0 -20 7.5 -39t20.5 -34z" />
    <glyph glyph-name="guilsinglleft" unicode="&#x2039;" 
d="M30 251l178 199l35 -30l-146 -166l162 -164l-34 -31z" />
    <glyph glyph-name="guilsinglright" unicode="&#x203a;" 
d="M39 90l151 164l-156 166l36 30l188 -195l-186 -196z" />
    <glyph glyph-name="fraction" unicode="&#x2044;" horiz-adv-x="199" 
d="M-199 -5l-30 34l618 641l32 -32z" />
    <glyph glyph-name="zerosuperior" unicode="&#x2070;" 
d="M91 346q-22 14 -37 37.5t-22 54.5t-7 64q0 32 7 63t22 55t37.5 38.5t53.5 14.5t53.5 -15t37.5 -39.5t22 -55t7 -61.5q0 -33 -7 -63.5t-22 -54.5t-37.5 -38t-53.5 -14t-54 14zM86 412q9 -19 23.5 -31.5t35.5 -12.5t35.5 12.5t23.5 32t13 43.5t4 46q0 23 -4 47t-13 43.5
t-23.5 32t-35.5 12.5t-35.5 -12.5t-23.5 -32t-13.5 -43.5t-4.5 -47q0 -22 4.5 -46t13.5 -44z" />
    <glyph glyph-name="foursuperior" unicode="&#x2074;" 
d="M16 427v37l176 201h37v-203h43v-35h-43v-90h-45v90h-168zM63 462h121v139z" />
    <glyph glyph-name="fivesuperior" unicode="&#x2075;" 
d="M66 406q10 -16 26.5 -26t42.5 -10q33 0 51.5 17.5t18.5 53.5q0 41 -29.5 58.5t-71.5 19.5q-13 1 -26 1h-26v145h178v-38h-137v-70h21q16 -1 31.5 -3.5t29.5 -7.5q34 -11 54 -36t20 -67q0 -53 -32 -82t-80 -29q-37 0 -61.5 13t-37.5 33z" />
    <glyph glyph-name="sixsuperior" unicode="&#x2076;" 
d="M220 639q-43 -9 -80 -35t-56 -68q11 8 28 13t36 5q48 0 76 -31t28 -78q0 -48 -29.5 -80.5t-78.5 -32.5q-28 0 -49 10.5t-35 29t-21 43t-7 52.5q0 40 13.5 75t37.5 61.5t56.5 44.5t71.5 26zM106 512q-15 -6 -29 -17q-1 -5 -1.5 -13.5t-0.5 -17.5q0 -17 4 -34t12.5 -31
t21.5 -22.5t32 -8.5q28 0 45.5 22t17.5 53q0 32 -16.5 53.5t-49.5 21.5q-20 0 -36 -6z" />
    <glyph glyph-name="sevensuperior" unicode="&#x2077;" 
d="M88 337l121 289h-176v39h225v-32l-124 -296h-46z" />
    <glyph glyph-name="eightsuperior" unicode="&#x2078;" 
d="M49 478q17 20 45 30q-23 10 -39.5 29t-16.5 48q0 40 30 64t76 24q45 0 75 -24t30 -64q0 -30 -16 -48.5t-39 -28.5q27 -10 43.5 -30t16.5 -51q0 -46 -32.5 -70.5t-77.5 -24.5q-47 0 -79.5 24.5t-32.5 69.5q0 32 17 52zM83 585q0 -26 17 -41t43 -15t43 15t17 41t-17 39.5
t-42 13.5q-26 0 -43.5 -13.5t-17.5 -39.5zM77 427q0 -29 19 -43.5t48 -14.5q28 0 47 14.5t19 43.5q0 28 -19 45t-48 17q-28 0 -47 -17t-19 -45z" />
    <glyph glyph-name="ninesuperior" unicode="&#x2079;" 
d="M64 363q45 12 81 35.5t57 71.5q-26 -17 -65 -17q-48 0 -76 30.5t-28 79.5q0 22 8 42t22 35t33.5 24t43.5 9q56 0 84.5 -39t28.5 -96q0 -42 -13.5 -77t-37.5 -62t-57 -45t-72 -26zM179 495q17 6 28 14q1 7 1.5 15.5t0.5 16.5q0 18 -4 35t-12.5 30.5t-21.5 21.5t-31 8
q-29 0 -45.5 -21.5t-16.5 -50.5q0 -34 16.5 -54t50.5 -20q17 0 34 5z" />
    <glyph glyph-name="zeroinferior" unicode="&#x2080;" 
d="M91 11q-22 14 -37 37.5t-22 54.5t-7 64q0 32 7 63t22 55t37.5 38.5t53.5 14.5t53.5 -15t37.5 -39.5t22 -55t7 -61.5q0 -33 -7 -63.5t-22 -54.5t-37.5 -38t-53.5 -14t-54 14zM86 77q9 -19 23.5 -31.5t35.5 -12.5t35.5 12.5t23.5 32t13 43.5t4 46q0 23 -4 47t-13 43.5
t-23.5 32t-35.5 12.5t-35.5 -12.5t-23.5 -32t-13.5 -43.5t-4.5 -47q0 -22 4.5 -46t13.5 -44z" />
    <glyph glyph-name="oneinferior" unicode="&#x2081;" 
d="M161 2v281l-80 -46l-20 34l104 61h42v-330h-46z" />
    <glyph glyph-name="twoinferior" unicode="&#x2082;" 
d="M39 2v27l56 54.5t51 53.5t40.5 55t14.5 52q0 25 -15 40t-43 15q-26 0 -43.5 -12t-32.5 -37l-36 20q18 29 43.5 48.5t71.5 19.5q51 0 76.5 -24t25.5 -65q0 -38 -19 -68.5t-46 -61.5q-16 -18 -39 -40.5l-40 -38.5h153v-38h-218z" />
    <glyph glyph-name="threeinferior" unicode="&#x2083;" 
d="M63 77q14 -20 32 -31t45 -11q32 0 51 15.5t19 41.5q0 32 -23.5 47.5t-58.5 16.5v33q32 3 54 17.5t22 40.5q0 23 -17.5 38t-47.5 15q-43 0 -70 -41l-33 22q18 27 45.5 42t63.5 15q45 0 75.5 -24t30.5 -64q0 -28 -17 -47t-43 -29q29 -8 47 -27t18 -54q0 -46 -33.5 -71
t-81.5 -25q-77 0 -114 59z" />
    <glyph glyph-name="fourinferior" unicode="&#x2084;" 
d="M16 92v37l176 201h37v-203h43v-35h-43v-90h-45v90h-168zM63 127h121v139z" />
    <glyph glyph-name="fiveinferior" unicode="&#x2085;" 
d="M66 71q10 -16 26.5 -26t42.5 -10q33 0 51.5 17.5t18.5 53.5q0 41 -29.5 58.5t-71.5 19.5q-13 1 -26 1h-26v145h178v-38h-137v-70h21q16 -1 31.5 -3.5t29.5 -7.5q34 -11 54 -36t20 -67q0 -53 -32 -82t-80 -29q-37 0 -61.5 13t-37.5 33z" />
    <glyph glyph-name="sixinferior" unicode="&#x2086;" 
d="M220 304q-43 -9 -80 -35t-56 -68q11 8 28 13t36 5q48 0 76 -31t28 -78q0 -48 -29.5 -80.5t-78.5 -32.5q-28 0 -49 10.5t-35 29t-21 43t-7 52.5q0 40 13.5 75t37.5 61.5t56.5 44.5t71.5 26zM106 177q-15 -6 -29 -17q-1 -5 -1.5 -13.5t-0.5 -17.5q0 -17 4 -34t12.5 -31
t21.5 -22.5t32 -8.5q28 0 45.5 22t17.5 53q0 32 -16.5 53.5t-49.5 21.5q-20 0 -36 -6z" />
    <glyph glyph-name="seveninferior" unicode="&#x2087;" 
d="M88 2l121 289h-176v39h225v-32l-124 -296h-46z" />
    <glyph glyph-name="eightinferior" unicode="&#x2088;" 
d="M49 143q17 20 45 30q-23 10 -39.5 29t-16.5 48q0 40 30 64t76 24q45 0 75 -24t30 -64q0 -30 -16 -48.5t-39 -28.5q27 -10 43.5 -30t16.5 -51q0 -46 -32.5 -70.5t-77.5 -24.5q-47 0 -79.5 24.5t-32.5 69.5q0 32 17 52zM83 250q0 -26 17 -41t43 -15t43 15t17 41t-17 39.5
t-42 13.5q-26 0 -43.5 -13.5t-17.5 -39.5zM77 92q0 -29 19 -43.5t48 -14.5q28 0 47 14.5t19 43.5q0 28 -19 45t-48 17q-28 0 -47 -17t-19 -45z" />
    <glyph glyph-name="nineinferior" unicode="&#x2089;" 
d="M64 28q45 12 81 35.5t57 71.5q-26 -17 -65 -17q-48 0 -76 30.5t-28 79.5q0 22 8 42t22 35t33.5 24t43.5 9q56 0 84.5 -39t28.5 -96q0 -42 -13.5 -77t-37.5 -62t-57 -45t-72 -26zM179 160q17 6 28 14q1 7 1.5 15.5t0.5 16.5q0 18 -4 35t-12.5 30.5t-21.5 21.5t-31 8
q-29 0 -45.5 -21.5t-16.5 -50.5q0 -34 16.5 -54t50.5 -20q17 0 34 5z" />
    <glyph glyph-name="Euro" unicode="&#x20ac;" horiz-adv-x="517" 
d="M16 223v45h78q-1 12 -1.5 28.5t-0.5 30.5v29.5t1 29.5h-77v46h81q13 115 67 178t139 63q37 0 65 -8.5t49 -24t36 -37t27 -46.5l-47 -22q-19 39 -48.5 65t-80.5 26q-62 0 -102 -49t-49 -145h172v-46h-175q-1 -14 -1 -29v-30q0 -14 0.5 -30t1.5 -29h174v-45h-170
q14 -100 55.5 -143t99.5 -43q49 0 78.5 25t50.5 67l43 -25q-12 -24 -27.5 -45t-36.5 -36.5t-48 -24.5t-61 -9q-83 0 -138.5 56t-71.5 178h-83z" />
    <glyph glyph-name="afii61289" unicode="&#x2113;" horiz-adv-x="456" 
d="M180 289q54 60 85.5 123.5t31.5 132.5q0 48 -16 67.5t-38 19.5q-26 0 -44.5 -33t-18.5 -109v-201zM180 190q0 -41 6 -66.5t16.5 -39.5t25 -19.5t31.5 -5.5q32 0 61.5 16.5t45.5 39.5l19.5 -19.5t20.5 -18.5q-27 -40 -65.5 -63t-90.5 -23q-70 0 -108 39.5t-38 127.5
q-13 -10 -24.5 -18l-24.5 -17q-5 11 -11.5 22l-13.5 22q19 13 37 27.5l36 30.5v212q0 71 9.5 119.5t28 78t45 42.5t61.5 13q51 0 84 -37.5t33 -106.5q0 -91 -48 -172.5t-136 -163.5v-20z" />
    <glyph glyph-name="afii61352" unicode="&#x2116;" horiz-adv-x="1010" 
d="M752 310q-30 16 -49.5 42.5t-29 60.5t-9.5 69q0 34 10 67t29.5 59t49.5 42t71 16q40 0 70 -15.5t50 -41t30 -59t10 -70.5q0 -35 -10 -68t-30 -59.5t-50 -42.5t-70 -16q-41 0 -72 16zM83 0v667h62l364 -546v546h55v-667h-39l-388 578v-578h-54zM742 382q14 -20 34.5 -32
t47.5 -12q28 0 49 12t34 31.5t19.5 45.5t6.5 54q0 27 -6.5 52.5t-19.5 45t-34 31t-49 11.5q-29 0 -49.5 -11.5t-33.5 -30.5t-19 -44.5t-6 -52.5q0 -28 6.5 -54t19.5 -46z" />
    <glyph glyph-name="trademark" unicode="&#x2122;" horiz-adv-x="574" 
d="M269 380v287h49l90 -209l84 209h48v-287h-42v213l-75 -187l-18 -28l-94 213v-211h-42zM106 380v250h-92v37h224v-37h-92v-250h-40z" />
    <glyph glyph-name="uni2126" unicode="&#x2126;" horiz-adv-x="668" 
d="M48 0v49h150q-28 22 -54 50.5t-46.5 65.5t-33 83.5t-12.5 103.5q0 69 19 129t55 104.5t88.5 70t120.5 25.5q69 0 122 -25t88.5 -68.5t53.5 -102.5t18 -128q0 -58 -12 -105t-32.5 -84.5t-47 -67t-54.5 -51.5h151v-49h-222v51q70 45 115 121.5t45 180.5q0 60 -14.5 111
t-42.5 88.5t-70 58.5t-97 21t-97 -21.5t-71 -59.5t-44 -89t-15 -111q0 -52 12.5 -96.5t34.5 -82t51.5 -68t63.5 -53.5v-51h-223z" />
    <glyph glyph-name="estimated" unicode="&#x212e;" horiz-adv-x="647" 
d="M137 118q0 -10 4 -18.5t10 -15.5q0 -2 2 -2q33 -32 76 -49t92 -17q57 0 104.5 23t82.5 63h42q-39 -47 -98.5 -74.5t-130.5 -27.5q-60 0 -113 20.5t-93 56t-63 83.5t-23 102t23 101.5t63 83t93 56t113 20.5q61 0 114.5 -21t92.5 -57.5t61.5 -85.5t22.5 -104h-469
q-6 0 -6 -8v-129zM137 275q0 -7 6 -7h354q7 0 7 7v131q0 9 -3.5 18t-8.5 16q-35 34 -79 51.5t-92 17.5q-99 0 -170 -69q-6 -7 -10 -16t-4 -18v-131z" />
    <glyph glyph-name="onethird" unicode="&#x2153;" horiz-adv-x="725" 
d="M140 337v281l-80 -46l-20 34l104 61h42v-330h-46zM57 -5l-30 34l618 641l32 -32zM466 80q14 -20 32 -31t45 -11q32 0 51 15.5t19 41.5q0 32 -23.5 47.5t-58.5 16.5v33q32 3 54 17.5t22 40.5q0 23 -17.5 38t-47.5 15q-43 0 -70 -41l-33 22q18 27 45.5 42t63.5 15
q45 0 75.5 -24t30.5 -64q0 -28 -17 -47t-43 -29q29 -8 47 -27t18 -54q0 -46 -33.5 -71t-81.5 -25q-77 0 -114 59z" />
    <glyph glyph-name="twothirds" unicode="&#x2154;" horiz-adv-x="725" 
d="M55 337v27l56 54.5t51 53.5t40.5 55t14.5 52q0 25 -15 40t-43 15q-26 0 -43.5 -12t-32.5 -37l-36 20q18 29 43.5 48.5t71.5 19.5q51 0 76.5 -24t25.5 -65q0 -38 -19 -68.5t-46 -61.5q-16 -18 -39 -40.5l-40 -38.5h153v-38h-218zM479 78q14 -20 32 -31t45 -11
q32 0 51 15.5t19 41.5q0 32 -23.5 47.5t-58.5 16.5v33q32 3 54 17.5t22 40.5q0 23 -17.5 38t-47.5 15q-43 0 -70 -41l-33 22q18 27 45.5 42t63.5 15q45 0 75.5 -24t30.5 -64q0 -28 -17 -47t-43 -29q29 -8 47 -27t18 -54q0 -46 -33.5 -71t-81.5 -25q-77 0 -114 59zM77 -5
l-30 34l618 641l32 -32z" />
    <glyph glyph-name="onefifth" unicode="&#x2155;" horiz-adv-x="725" 
d="M139 337v281l-80 -46l-20 34l104 61h42v-330h-46zM57 -5l-30 34l618 641l32 -32zM486 72q10 -16 26.5 -26t42.5 -10q33 0 51.5 17.5t18.5 53.5q0 41 -29.5 58.5t-71.5 19.5q-13 1 -26 1h-26v145h178v-38h-137v-70h21q16 -1 31.5 -3.5t29.5 -7.5q34 -11 54 -36t20 -67
q0 -53 -32 -82t-80 -29q-37 0 -61.5 13t-37.5 33z" />
    <glyph glyph-name="twofifths" unicode="&#x2156;" horiz-adv-x="725" 
d="M67 -5l-30 34l618 641l32 -32zM45 337v27l56 54.5t51 53.5t40.5 55t14.5 52q0 25 -15 40t-43 15q-26 0 -43.5 -12t-32.5 -37l-36 20q18 29 43.5 48.5t71.5 19.5q51 0 76.5 -24t25.5 -65q0 -38 -19 -68.5t-46 -61.5q-16 -18 -39 -40.5l-40 -38.5h153v-38h-218zM493 72
q10 -16 26.5 -26t42.5 -10q33 0 51.5 17.5t18.5 53.5q0 41 -29.5 58.5t-71.5 19.5q-13 1 -26 1h-26v145h178v-38h-137v-70h21q16 -1 31.5 -3.5t29.5 -7.5q34 -11 54 -36t20 -67q0 -53 -32 -82t-80 -29q-37 0 -61.5 13t-37.5 33z" />
    <glyph glyph-name="threefifths" unicode="&#x2157;" horiz-adv-x="725" 
d="M69 -5l-30 34l618 641l32 -32zM85 412q14 -20 32 -31t45 -11q32 0 51 15.5t19 41.5q0 32 -23.5 47.5t-58.5 16.5v33q32 3 54 17.5t22 40.5q0 23 -17.5 38t-47.5 15q-43 0 -70 -41l-33 22q18 27 45.5 42t63.5 15q45 0 75.5 -24t30.5 -64q0 -28 -17 -47t-43 -29
q29 -8 47 -27t18 -54q0 -46 -33.5 -71t-81.5 -25q-77 0 -114 59zM484 72q10 -16 26.5 -26t42.5 -10q33 0 51.5 17.5t18.5 53.5q0 41 -29.5 58.5t-71.5 19.5q-13 1 -26 1h-26v145h178v-38h-137v-70h21q16 -1 31.5 -3.5t29.5 -7.5q34 -11 54 -36t20 -67q0 -53 -32 -82t-80 -29
q-37 0 -61.5 13t-37.5 33z" />
    <glyph glyph-name="fourfifths" unicode="&#x2158;" horiz-adv-x="725" 
d="M67 -5l-30 34l618 641l32 -32zM37 427v37l176 201h37v-203h43v-35h-43v-90h-45v90h-168zM84 462h121v139zM494 72q10 -16 26.5 -26t42.5 -10q33 0 51.5 17.5t18.5 53.5q0 41 -29.5 58.5t-71.5 19.5q-13 1 -26 1h-26v145h178v-38h-137v-70h21q16 -1 31.5 -3.5t29.5 -7.5
q34 -11 54 -36t20 -67q0 -53 -32 -82t-80 -29q-37 0 -61.5 13t-37.5 33z" />
    <glyph glyph-name="onesixth" unicode="&#x2159;" horiz-adv-x="725" 
d="M68 -5l-30 34l618 641l32 -32zM138 337v281l-80 -46l-20 34l104 61h42v-330h-46zM628 305q-43 -9 -80 -35t-56 -68q11 8 28 13t36 5q48 0 76 -31t28 -78q0 -48 -29.5 -80.5t-78.5 -32.5q-28 0 -49 10.5t-35 29t-21 43t-7 52.5q0 40 13.5 75t37.5 61.5t56.5 44.5t71.5 26z
M514 178q-15 -6 -29 -17q-1 -5 -1.5 -13.5t-0.5 -17.5q0 -17 4 -34t12.5 -31t21.5 -22.5t32 -8.5q28 0 45.5 22t17.5 53q0 32 -16.5 53.5t-49.5 21.5q-20 0 -36 -6z" />
    <glyph glyph-name="fivesixths" unicode="&#x215a;" horiz-adv-x="725" 
d="M82 406q10 -16 26.5 -26t42.5 -10q33 0 51.5 17.5t18.5 53.5q0 41 -29.5 58.5t-71.5 19.5q-13 1 -26 1h-26v145h178v-38h-137v-70h21q16 -1 31.5 -3.5t29.5 -7.5q34 -11 54 -36t20 -67q0 -53 -32 -82t-80 -29q-37 0 -61.5 13t-37.5 33zM75 -5l-30 34l618 641l32 -32z
M630 305q-43 -9 -80 -35t-56 -68q11 8 28 13t36 5q48 0 76 -31t28 -78q0 -48 -29.5 -80.5t-78.5 -32.5q-28 0 -49 10.5t-35 29t-21 43t-7 52.5q0 40 13.5 75t37.5 61.5t56.5 44.5t71.5 26zM516 178q-15 -6 -29 -17q-1 -5 -1.5 -13.5t-0.5 -17.5q0 -17 4 -34t12.5 -31
t21.5 -22.5t32 -8.5q28 0 45.5 22t17.5 53q0 32 -16.5 53.5t-49.5 21.5q-20 0 -36 -6z" />
    <glyph glyph-name="oneeighth" unicode="&#x215b;" horiz-adv-x="725" 
d="M150 337v281l-80 -46l-20 34l104 61h42v-330h-46zM67 -5l-30 34l618 641l32 -32zM465 146q17 20 45 30q-23 10 -39.5 29t-16.5 48q0 40 30 64t76 24q45 0 75 -24t30 -64q0 -30 -16 -48.5t-39 -28.5q27 -10 43.5 -30t16.5 -51q0 -46 -32.5 -70.5t-77.5 -24.5
q-47 0 -79.5 24.5t-32.5 69.5q0 32 17 52zM499 253q0 -26 17 -41t43 -15t43 15t17 41t-17 39.5t-42 13.5q-26 0 -43.5 -13.5t-17.5 -39.5zM493 95q0 -29 19 -43.5t48 -14.5q28 0 47 14.5t19 43.5q0 28 -19 45t-48 17q-28 0 -47 -17t-19 -45z" />
    <glyph glyph-name="threeeighths" unicode="&#x215c;" horiz-adv-x="725" 
d="M89 412q14 -20 32 -31t45 -11q32 0 51 15.5t19 41.5q0 32 -23.5 47.5t-58.5 16.5v33q32 3 54 17.5t22 40.5q0 23 -17.5 38t-47.5 15q-43 0 -70 -41l-33 22q18 27 45.5 42t63.5 15q45 0 75.5 -24t30.5 -64q0 -28 -17 -47t-43 -29q29 -8 47 -27t18 -54q0 -46 -33.5 -71
t-81.5 -25q-77 0 -114 59zM78 -5l-30 34l618 641l32 -32zM478 144q17 20 45 30q-23 10 -39.5 29t-16.5 48q0 40 30 64t76 24q45 0 75 -24t30 -64q0 -30 -16 -48.5t-39 -28.5q27 -10 43.5 -30t16.5 -51q0 -46 -32.5 -70.5t-77.5 -24.5q-47 0 -79.5 24.5t-32.5 69.5
q0 32 17 52zM512 251q0 -26 17 -41t43 -15t43 15t17 41t-17 39.5t-42 13.5q-26 0 -43.5 -13.5t-17.5 -39.5zM506 93q0 -29 19 -43.5t48 -14.5q28 0 47 14.5t19 43.5q0 28 -19 45t-48 17q-28 0 -47 -17t-19 -45z" />
    <glyph glyph-name="fiveeighths" unicode="&#x215d;" horiz-adv-x="725" 
d="M80 -5l-30 34l618 641l32 -32zM96 406q10 -16 26.5 -26t42.5 -10q33 0 51.5 17.5t18.5 53.5q0 41 -29.5 58.5t-71.5 19.5q-13 1 -26 1h-26v145h178v-38h-137v-70h21q16 -1 31.5 -3.5t29.5 -7.5q34 -11 54 -36t20 -67q0 -53 -32 -82t-80 -29q-37 0 -61.5 13t-37.5 33z
M478 144q17 20 45 30q-23 10 -39.5 29t-16.5 48q0 40 30 64t76 24q45 0 75 -24t30 -64q0 -30 -16 -48.5t-39 -28.5q27 -10 43.5 -30t16.5 -51q0 -46 -32.5 -70.5t-77.5 -24.5q-47 0 -79.5 24.5t-32.5 69.5q0 32 17 52zM512 251q0 -26 17 -41t43 -15t43 15t17 41t-17 39.5
t-42 13.5q-26 0 -43.5 -13.5t-17.5 -39.5zM506 93q0 -29 19 -43.5t48 -14.5q28 0 47 14.5t19 43.5q0 28 -19 45t-48 17q-28 0 -47 -17t-19 -45z" />
    <glyph glyph-name="seveneighths" unicode="&#x215e;" horiz-adv-x="725" 
d="M67 -5l-30 34l618 641l32 -32zM114 337l121 289h-176v39h225v-32l-124 -296h-46zM477 144q17 20 45 30q-23 10 -39.5 29t-16.5 48q0 40 30 64t76 24q45 0 75 -24t30 -64q0 -30 -16 -48.5t-39 -28.5q27 -10 43.5 -30t16.5 -51q0 -46 -32.5 -70.5t-77.5 -24.5
q-47 0 -79.5 24.5t-32.5 69.5q0 32 17 52zM511 251q0 -26 17 -41t43 -15t43 15t17 41t-17 39.5t-42 13.5q-26 0 -43.5 -13.5t-17.5 -39.5zM505 93q0 -29 19 -43.5t48 -14.5q28 0 47 14.5t19 43.5q0 28 -19 45t-48 17q-28 0 -47 -17t-19 -45z" />
    <glyph glyph-name="partialdiff" unicode="&#x2202;" horiz-adv-x="514" 
d="M105 673q63 -5 115 -22t102 -52q12 -8 23.5 -18t22.5 -21q45 -48 72 -119t27 -161q0 -71 -16 -125.5t-44.5 -91t-67.5 -55.5t-84 -19q-44 0 -82.5 15.5t-66.5 47t-44 78.5t-16 109q0 59 15 105.5t43 78.5t66 49t85 17q45 0 75 -10t53 -24q-16 40 -45 70.5t-68 53.5
q-38 22 -83.5 36t-90.5 19zM410 350q-6 29 -12 50q-30 20 -64 32.5t-77 12.5q-71 0 -114.5 -53.5t-43.5 -152.5q0 -51 12 -89.5t33 -64.5t49.5 -39t61.5 -13t62.5 16t51 47t34.5 77t13 106q0 42 -6 71z" />
    <glyph glyph-name="Delta" unicode="&#x2206;" horiz-adv-x="579" 
d="M10 0l255 667h44l260 -667h-559zM86 48h407l-207 543z" />
    <glyph glyph-name="product" unicode="&#x220f;" horiz-adv-x="616" 
d="M93 0v618h-82v49h594v-49h-82v-618h-55v618h-320v-618h-55z" />
    <glyph glyph-name="summation" unicode="&#x2211;" horiz-adv-x="479" 
d="M36 0v51l280 285l-278 279v52h412v-49h-345l282 -282l-285 -287h356v-49h-422z" />
    <glyph glyph-name="minus" unicode="&#x2212;" horiz-adv-x="517" 
d="M33 307v49h450v-49h-450z" />
    <glyph glyph-name="uni2215" unicode="&#x2215;" horiz-adv-x="460" 
d="M0 8l419 746l41 -24l-417 -749z" />
    <glyph glyph-name="uni2219" unicode="&#x2219;" horiz-adv-x="273" 
d="M136 317q-20 0 -33 15.5t-13 36.5t13 36.5t33 15.5t33.5 -15.5t13.5 -36.5t-13.5 -36.5t-33.5 -15.5z" />
    <glyph glyph-name="radical" unicode="&#x221a;" horiz-adv-x="517" 
d="M205 0l-112 234h-71v47h107l95 -205l221 641l48 -16l-242 -701h-46z" />
    <glyph glyph-name="infinity" unicode="&#x221e;" horiz-adv-x="532" 
d="M326 227q-30 21 -61 80q-28 -59 -60.5 -79.5t-62.5 -20.5q-33 0 -56.5 12.5t-39 33.5t-23 48.5t-7.5 57.5q0 74 35 113t91 39q37 0 67.5 -21.5t56.5 -82.5q25 56 53 79.5t72 23.5q54 0 89.5 -39.5t35.5 -111.5q0 -26 -7 -53t-22.5 -49t-39 -36t-56.5 -14q-34 0 -65 20z
M330 438q-22 -32 -43 -80q10 -22 21 -42t23 -35t26.5 -24t32.5 -9q22 0 37 11t24.5 27.5t14 36t4.5 37.5q0 52 -24 81.5t-58 29.5q-36 0 -58 -33zM227 325l15 34q-25 54 -46.5 82.5t-52.5 28.5q-20 0 -35 -9.5t-25 -25t-15 -35.5t-5 -41q0 -53 22 -82t58 -29q20 0 36 12
t28 29t20 36z" />
    <glyph glyph-name="integral" unicode="&#x222b;" horiz-adv-x="346" 
d="M7 -148q33 0 58.5 6.5t43 22.5t27 43.5t9.5 69.5v495q0 100 48.5 141.5t145.5 42.5v-46q-32 0 -57.5 -6t-43.5 -22t-27.5 -43.5t-9.5 -70.5v-494q0 -101 -49 -143t-145 -42v46z" />
    <glyph glyph-name="approxequal" unicode="&#x2248;" horiz-adv-x="517" 
d="M32 412q21 13 52.5 23.5t62.5 10.5q30 0 58.5 -5t63.5 -15q29 -8 52 -12.5t46 -4.5q29 0 51.5 8t45.5 21l22 -40q-19 -14 -51 -25.5t-67 -11.5q-26 0 -53.5 5t-53.5 13q-34 10 -60.5 14.5t-52.5 4.5q-28 0 -50.5 -8t-44.5 -19zM32 231q21 13 52.5 23.5t62.5 10.5
q30 0 58.5 -5t63.5 -15q29 -8 52 -12.5t46 -4.5q29 0 51.5 8t45.5 21l22 -40q-19 -14 -51 -25.5t-67 -11.5q-26 0 -53.5 5t-53.5 13q-34 10 -60.5 14.5t-52.5 4.5q-28 0 -50.5 -8t-44.5 -19z" />
    <glyph glyph-name="notequal" unicode="&#x2260;" horiz-adv-x="517" 
d="M48 115l75 81h-90v49h136l121 132h-257v49h303l106 116l35 -32l-77 -84h84v-49h-130l-122 -132h252v-49h-298l-103 -113z" />
    <glyph glyph-name="lessequal" unicode="&#x2264;" horiz-adv-x="517" 
d="M54 311v44l393 155l19 -48l-331 -128l338 -133l-19 -50zM32 0v48h452v-48h-452z" />
    <glyph glyph-name="greaterequal" unicode="&#x2265;" horiz-adv-x="517" 
d="M66 151l-19 50l338 133l-331 128l20 48l393 -155v-44zM32 0v48h452v-48h-452z" />
    <glyph glyph-name="lozenge" unicode="&#x25ca;" horiz-adv-x="532" 
d="M265 -16l-210 373l210 363l212 -363zM269 78l150 280l-154 266l-152 -265z" />
    <glyph glyph-name="fi" unicode="&#xf001;" horiz-adv-x="447" 
d="M337 0v476h52v-476h-52zM88 0v432h-71v44h71v55q0 38 12 66t32 46.5t47 27.5t56 9q46 0 75 -13.5t45 -26.5l-26 -38q-14 11 -37 22.5t-56 11.5q-41 0 -69 -24t-28 -85v-51h112v-44h-111v-432h-52z" />
    <glyph glyph-name="fl" unicode="&#xf002;" horiz-adv-x="458" 
d="M88 0v432h-71v44h71v46q0 39 13 68.5t36 49t54.5 29t68.5 9.5q49 0 79 -9.5t50 -18.5v-650h-52v617q-11 6 -31 10.5t-43 4.5q-56 0 -90 -25.5t-34 -89.5v-41h107v-44h-106v-432h-52z" />
    <glyph glyph-name="oneseventh" unicode="&#xf506;" horiz-adv-x="725" 
d="M41 -5l-30 34l618 641l32 -32zM138 337v281l-80 -46l-20 34l104 61h42v-330h-46zM512 3l121 289h-176v39h225v-32l-124 -296h-46z" />
    <glyph glyph-name="twosevenths" unicode="&#xf507;" horiz-adv-x="725" 
d="M72 -5l-30 34l618 641l32 -32zM40 337v27l56 54.5t51 53.5t40.5 55t14.5 52q0 25 -15 40t-43 15q-26 0 -43.5 -12t-32.5 -37l-36 20q18 29 43.5 48.5t71.5 19.5q51 0 76.5 -24t25.5 -65q0 -38 -19 -68.5t-46 -61.5q-16 -18 -39 -40.5l-40 -38.5h153v-38h-218zM516 3
l121 289h-176v39h225v-32l-124 -296h-46z" />
    <glyph glyph-name="threesevenths" unicode="&#xf508;" horiz-adv-x="725" 
d="M60 -5l-30 34l618 641l32 -32zM84 412q14 -20 32 -31t45 -11q32 0 51 15.5t19 41.5q0 32 -23.5 47.5t-58.5 16.5v33q32 3 54 17.5t22 40.5q0 23 -17.5 38t-47.5 15q-43 0 -70 -41l-33 22q18 27 45.5 42t63.5 15q45 0 75.5 -24t30.5 -64q0 -28 -17 -47t-43 -29
q29 -8 47 -27t18 -54q0 -46 -33.5 -71t-81.5 -25q-77 0 -114 59zM518 3l121 289h-176v39h225v-32l-124 -296h-46z" />
    <glyph glyph-name="foursevenths" unicode="&#xf509;" horiz-adv-x="725" 
d="M67 -5l-30 34l618 641l32 -32zM25 427v37l176 201h37v-203h43v-35h-43v-90h-45v90h-168zM72 462h121v139zM524 3l121 289h-176v39h225v-32l-124 -296h-46z" />
    <glyph glyph-name="fivesevenths" unicode="&#xf50a;" horiz-adv-x="725" 
d="M53 -5l-30 34l618 641l32 -32zM88 406q10 -16 26.5 -26t42.5 -10q33 0 51.5 17.5t18.5 53.5q0 41 -29.5 58.5t-71.5 19.5q-13 1 -26 1h-26v145h178v-38h-137v-70h21q16 -1 31.5 -3.5t29.5 -7.5q34 -11 54 -36t20 -67q0 -53 -32 -82t-80 -29q-37 0 -61.5 13t-37.5 33z
M513 3l121 289h-176v39h225v-32l-124 -296h-46z" />
    <glyph glyph-name="sixsevenths" unicode="&#xf50b;" horiz-adv-x="725" 
d="M61 -5l-30 34l618 641l32 -32zM239 639q-43 -9 -80 -35t-56 -68q11 8 28 13t36 5q48 0 76 -31t28 -78q0 -48 -29.5 -80.5t-78.5 -32.5q-28 0 -49 10.5t-35 29t-21 43t-7 52.5q0 40 13.5 75t37.5 61.5t56.5 44.5t71.5 26zM125 512q-15 -6 -29 -17q-1 -5 -1.5 -13.5
t-0.5 -17.5q0 -17 4 -34t12.5 -31t21.5 -22.5t32 -8.5q28 0 45.5 22t17.5 53q0 32 -16.5 53.5t-49.5 21.5q-20 0 -36 -6zM516 3l121 289h-176v39h225v-32l-124 -296h-46z" />
    <glyph glyph-name="oneninth" unicode="&#xf50c;" horiz-adv-x="725" 
d="M58 -5l-30 34l618 641l32 -32zM138 337v281l-80 -46l-20 34l104 61h42v-330h-46zM488 29q45 12 81 35.5t57 71.5q-26 -17 -65 -17q-48 0 -76 30.5t-28 79.5q0 22 8 42t22 35t33.5 24t43.5 9q56 0 84.5 -39t28.5 -96q0 -42 -13.5 -77t-37.5 -62t-57 -45t-72 -26zM603 161
q17 6 28 14q1 7 1.5 15.5t0.5 16.5q0 18 -4 35t-12.5 30.5t-21.5 21.5t-31 8q-29 0 -45.5 -21.5t-16.5 -50.5q0 -34 16.5 -54t50.5 -20q17 0 34 5z" />
    <glyph glyph-name="twoninths" unicode="&#xf50d;" horiz-adv-x="725" 
d="M82 -5l-30 34l618 641l32 -32zM40 337v27l56 54.5t51 53.5t40.5 55t14.5 52q0 25 -15 40t-43 15q-26 0 -43.5 -12t-32.5 -37l-36 20q18 29 43.5 48.5t71.5 19.5q51 0 76.5 -24t25.5 -65q0 -38 -19 -68.5t-46 -61.5q-16 -18 -39 -40.5l-40 -38.5h153v-38h-218zM492 29
q45 12 81 35.5t57 71.5q-26 -17 -65 -17q-48 0 -76 30.5t-28 79.5q0 22 8 42t22 35t33.5 24t43.5 9q56 0 84.5 -39t28.5 -96q0 -42 -13.5 -77t-37.5 -62t-57 -45t-72 -26zM607 161q17 6 28 14q1 7 1.5 15.5t0.5 16.5q0 18 -4 35t-12.5 30.5t-21.5 21.5t-31 8
q-29 0 -45.5 -21.5t-16.5 -50.5q0 -34 16.5 -54t50.5 -20q17 0 34 5z" />
    <glyph glyph-name="fourninths" unicode="&#xf50e;" horiz-adv-x="725" 
d="M90 -5l-30 34l618 641l32 -32zM35 427v37l176 201h37v-203h43v-35h-43v-90h-45v90h-168zM82 462h121v139zM500 29q45 12 81 35.5t57 71.5q-26 -17 -65 -17q-48 0 -76 30.5t-28 79.5q0 22 8 42t22 35t33.5 24t43.5 9q56 0 84.5 -39t28.5 -96q0 -42 -13.5 -77t-37.5 -62
t-57 -45t-72 -26zM615 161q17 6 28 14q1 7 1.5 15.5t0.5 16.5q0 18 -4 35t-12.5 30.5t-21.5 21.5t-31 8q-29 0 -45.5 -21.5t-16.5 -50.5q0 -34 16.5 -54t50.5 -20q17 0 34 5z" />
    <glyph glyph-name="fiveninths" unicode="&#xf50f;" horiz-adv-x="725" 
d="M69 -5l-30 34l618 641l32 -32zM86 406q10 -16 26.5 -26t42.5 -10q33 0 51.5 17.5t18.5 53.5q0 41 -29.5 58.5t-71.5 19.5q-13 1 -26 1h-26v145h178v-38h-137v-70h21q16 -1 31.5 -3.5t29.5 -7.5q34 -11 54 -36t20 -67q0 -53 -32 -82t-80 -29q-37 0 -61.5 13t-37.5 33z
M489 29q45 12 81 35.5t57 71.5q-26 -17 -65 -17q-48 0 -76 30.5t-28 79.5q0 22 8 42t22 35t33.5 24t43.5 9q56 0 84.5 -39t28.5 -96q0 -42 -13.5 -77t-37.5 -62t-57 -45t-72 -26zM604 161q17 6 28 14q1 7 1.5 15.5t0.5 16.5q0 18 -4 35t-12.5 30.5t-21.5 21.5t-31 8
q-29 0 -45.5 -21.5t-16.5 -50.5q0 -34 16.5 -54t50.5 -20q17 0 34 5z" />
    <glyph glyph-name="sevenninths" unicode="&#xf510;" horiz-adv-x="725" 
d="M48 -5l-30 34l618 641l32 -32zM102 337l121 289h-176v39h225v-32l-124 -296h-46zM482 29q45 12 81 35.5t57 71.5q-26 -17 -65 -17q-48 0 -76 30.5t-28 79.5q0 22 8 42t22 35t33.5 24t43.5 9q56 0 84.5 -39t28.5 -96q0 -42 -13.5 -77t-37.5 -62t-57 -45t-72 -26zM597 161
q17 6 28 14q1 7 1.5 15.5t0.5 16.5q0 18 -4 35t-12.5 30.5t-21.5 21.5t-31 8q-29 0 -45.5 -21.5t-16.5 -50.5q0 -34 16.5 -54t50.5 -20q17 0 34 5z" />
    <glyph glyph-name="eightninths" unicode="&#xf511;" horiz-adv-x="725" 
d="M79 -5l-30 34l618 641l32 -32zM75 478q17 20 45 30q-23 10 -39.5 29t-16.5 48q0 40 30 64t76 24q45 0 75 -24t30 -64q0 -30 -16 -48.5t-39 -28.5q27 -10 43.5 -30t16.5 -51q0 -46 -32.5 -70.5t-77.5 -24.5q-47 0 -79.5 24.5t-32.5 69.5q0 32 17 52zM109 585q0 -26 17 -41
t43 -15t43 15t17 41t-17 39.5t-42 13.5q-26 0 -43.5 -13.5t-17.5 -39.5zM103 427q0 -29 19 -43.5t48 -14.5q28 0 47 14.5t19 43.5q0 28 -19 45t-48 17q-28 0 -47 -17t-19 -45zM492 29q45 12 81 35.5t57 71.5q-26 -17 -65 -17q-48 0 -76 30.5t-28 79.5q0 22 8 42t22 35
t33.5 24t43.5 9q56 0 84.5 -39t28.5 -96q0 -42 -13.5 -77t-37.5 -62t-57 -45t-72 -26zM607 161q17 6 28 14q1 7 1.5 15.5t0.5 16.5q0 18 -4 35t-12.5 30.5t-21.5 21.5t-31 8q-29 0 -45.5 -21.5t-16.5 -50.5q0 -34 16.5 -54t50.5 -20q17 0 34 5z" />
    <glyph glyph-name="a.smcp" unicode="&#xf605;" horiz-adv-x="490" 
d="M14 0l210 522h41l213 -522h-55l-68 163h-221l-66 -163h-54zM150 209h188l-95 243z" />
    <glyph glyph-name="b.smcp" unicode="&#xf606;" horiz-adv-x="462" 
d="M76 0v522h155q80 0 123 -32.5t43 -99.5q0 -90 -103 -113q62 -5 96.5 -38t34.5 -93q0 -34 -12 -61t-33.5 -46t-51.5 -29t-66 -10h-186zM127 297h96q59 0 90 25t31 70q0 46 -29.5 67t-84.5 21h-103v-183zM127 44h131q55 0 84.5 27t29.5 76q0 57 -39 81.5t-107 24.5h-99
v-209z" />
    <glyph glyph-name="c.smcp" unicode="&#xf607;" horiz-adv-x="489" 
d="M461 95q-12 -21 -29 -40.5t-39.5 -33.5t-51 -22.5t-65.5 -8.5q-54 0 -96.5 19t-71.5 54t-44 84.5t-15 111.5q0 66 17.5 117t47.5 85.5t70.5 52.5t87.5 18q71 0 115 -29.5t70 -77.5l-44 -23q-18 34 -52 59.5t-87 25.5q-36 0 -67.5 -14.5t-54 -43.5t-35.5 -72t-13 -99
q0 -50 12 -91.5t35 -71t55.5 -45.5t73.5 -16q56 0 88 24.5t52 58.5z" />
    <glyph glyph-name="d.smcp" unicode="&#xf608;" horiz-adv-x="527" 
d="M74 0v522h136q35 0 70.5 -5.5t67.5 -18.5q65 -26 101 -84t36 -146q0 -94 -36.5 -154t-99.5 -89q-31 -14 -65.5 -19.5t-71.5 -5.5h-138zM125 43h76q46 0 83.5 8t66.5 28q41 27 62 72t21 115q0 64 -22 107.5t-61 69.5q-27 18 -63.5 27t-78.5 9h-84v-436z" />
    <glyph glyph-name="e.smcp" unicode="&#xf609;" horiz-adv-x="431" 
d="M76 0v522h320v-44h-268v-178h193v-44h-194v-212h286v-44h-337z" />
    <glyph glyph-name="f.smcp" unicode="&#xf60a;" horiz-adv-x="402" 
d="M76 0v522h315v-44h-263v-186h193v-45h-194v-247h-51z" />
    <glyph glyph-name="g.smcp" unicode="&#xf60b;" horiz-adv-x="515" 
d="M466 20q-36 -14 -80.5 -22t-94.5 -8q-54 0 -99 17.5t-76.5 51.5t-49 84.5t-17.5 115.5q0 66 18 116.5t49.5 85.5t73.5 53t90 18q39 0 68 -8t50.5 -21.5t37 -31.5t27.5 -39l-43 -23q-18 32 -52.5 55.5t-88.5 23.5q-35 0 -66.5 -14t-55.5 -42.5t-38.5 -72t-14.5 -101.5
q0 -51 14 -93t39 -71t59.5 -45t75.5 -16q36 0 69 6t53 13v155h-105v43h157v-230z" />
    <glyph glyph-name="h.smcp" unicode="&#xf60c;" horiz-adv-x="555" 
d="M76 0v522h52v-229h299v229h52v-522h-52v248h-299v-248h-52z" />
    <glyph glyph-name="i.smcp" unicode="&#xf60d;" horiz-adv-x="203" 
d="M75 0v522h52v-522h-52z" />
    <glyph glyph-name="j.smcp" unicode="&#xf60e;" horiz-adv-x="205" 
d="M-25 -62q47 10 76 36t29 75v473h52v-472q0 -35 -11.5 -61t-31.5 -45t-46.5 -31t-56.5 -17z" />
    <glyph glyph-name="k.smcp" unicode="&#xf60f;" horiz-adv-x="472" 
d="M76 0v522h52v-244l261 244h64l-217 -205l233 -317h-62l-209 283l-70 -65v-218h-52z" />
    <glyph glyph-name="l.smcp" unicode="&#xf610;" horiz-adv-x="417" 
d="M76 0v522h52v-477h271v-45h-323z" />
    <glyph glyph-name="m.smcp" unicode="&#xf611;" horiz-adv-x="628" 
d="M76 0v522h66l178 -432l170 432h64v-522h-51v429l-174 -437h-19l-183 437v-429h-51z" />
    <glyph glyph-name="n.smcp" unicode="&#xf612;" horiz-adv-x="566" 
d="M76 0v522h55l307 -429v429h52v-522h-44l-319 442v-442h-51z" />
    <glyph glyph-name="o.smcp" unicode="&#xf613;" horiz-adv-x="560" 
d="M177 13q-43 23 -71.5 60.5t-42.5 86.5t-14 101q0 53 15 102t44 86.5t72 60t100 22.5q59 0 102.5 -23t72 -61.5t42.5 -87t14 -99.5t-14 -99.5t-42.5 -87t-72 -61.5t-103.5 -23q-59 0 -102 23zM147 105q22 -32 55 -52t78 -20q46 0 79.5 20.5t55.5 53t32.5 73t10.5 81.5
t-10.5 81.5t-32 72.5t-55.5 52t-80 20q-47 0 -80 -20t-55 -52t-32 -72.5t-10 -81.5q0 -42 11 -82.5t33 -73.5z" />
    <glyph glyph-name="p.smcp" unicode="&#xf614;" horiz-adv-x="470" 
d="M76 0v522h179q87 0 132.5 -40t45.5 -113q0 -37 -13.5 -65.5t-37 -47.5t-56 -28.5t-71.5 -9.5h-127v-218h-52zM127 261h129q58 0 91 28t33 79q0 54 -30.5 83t-94.5 29h-128v-219z" />
    <glyph glyph-name="q.smcp" unicode="&#xf615;" horiz-adv-x="560" 
d="M431 -105q-64 3 -111 23.5t-69 73.5q-52 6 -90 30.5t-63 61.5t-37 83t-12 95q0 52 14.5 101t43.5 86.5t72.5 60t100.5 22.5q60 0 103.5 -23t72 -61t42 -86.5t13.5 -99.5q0 -48 -12 -93.5t-37 -82.5t-63.5 -62.5t-90.5 -31.5q11 -29 46.5 -40.5t80.5 -13.5zM147 105
q22 -32 55 -52t78 -20q46 0 79.5 20.5t55.5 53t32.5 73.5t10.5 82t-10.5 81t-32.5 72t-55.5 52t-79.5 20t-79.5 -20t-55 -52t-32 -72t-10.5 -81q0 -42 11 -83t33 -74z" />
    <glyph glyph-name="r.smcp" unicode="&#xf616;" horiz-adv-x="475" 
d="M76 0v522h181q85 0 129.5 -37.5t44.5 -105.5q0 -66 -40 -100t-108 -42l157 -237h-58l-158 236h-96v-236h-52zM127 278h124q62 0 95 24.5t33 76.5q0 50 -32 75t-94 25h-126v-201z" />
    <glyph glyph-name="s.smcp" unicode="&#xf617;" horiz-adv-x="438" 
d="M70 106q51 -74 146 -74q57 0 91.5 25t34.5 76q0 50 -38 77.5t-110 50.5q-27 9 -53.5 21t-47.5 28.5t-34 39.5t-13 54t13 54.5t36.5 40t55 25t67.5 8.5q34 0 61 -6.5t48 -17t37 -25.5t29 -31l-39 -29q-23 29 -55.5 47t-80.5 18q-50 0 -84.5 -20t-34.5 -62q0 -21 10 -36
t27 -27t39 -21t46 -17q38 -13 70 -28t55.5 -35t36.5 -46.5t13 -62.5q0 -34 -13.5 -60.5t-38 -45t-58.5 -28t-75 -9.5q-122 0 -182 87z" />
    <glyph glyph-name="t.smcp" unicode="&#xf618;" horiz-adv-x="429" 
d="M188 0v478h-173v44h399v-44h-174v-478h-52z" />
    <glyph glyph-name="u.smcp" unicode="&#xf619;" horiz-adv-x="543" 
d="M120 188q0 -70 39 -112t113 -42q75 0 114 41.5t39 110.5v336h51v-348h-1q0 -45 -15 -79t-42 -57.5t-64 -35.5t-81 -12q-46 0 -83.5 12t-64.5 35.5t-41.5 57.5t-14.5 79v348h51v-334z" />
    <glyph glyph-name="v.smcp" unicode="&#xf61a;" horiz-adv-x="471" 
d="M219 0l-213 522h56l176 -436l173 436h54l-212 -522h-34z" />
    <glyph glyph-name="w.smcp" unicode="&#xf61b;" horiz-adv-x="641" 
d="M150 0l-142 522h51l115 -423l129 423h34l132 -426l113 426h51l-142 -522h-37l-134 427l-135 -427h-35z" />
    <glyph glyph-name="x.smcp" unicode="&#xf61c;" horiz-adv-x="420" 
d="M5 0l175 267l-160 255h59l131 -213l132 213h57l-161 -252l176 -270h-57l-149 229l-147 -229h-56z" />
    <glyph glyph-name="y.smcp" unicode="&#xf61d;" horiz-adv-x="450" 
d="M198 0v251l-191 271h58l159 -229l165 229h56l-196 -270v-252h-51z" />
    <glyph glyph-name="z.smcp" unicode="&#xf61e;" horiz-adv-x="468" 
d="M38 0v45l327 431h-311v46h367v-48l-323 -429h335v-45h-395z" />
    <glyph glyph-name="ae.smcp" unicode="&#xf61f;" horiz-adv-x="663" 
d="M10 0l305 522h311v-44h-236v-178h163v-44h-163v-212h253v-44h-306v171h-174l-100 -171h-53zM186 213h151v261z" />
    <glyph glyph-name="eng.smcp" unicode="&#xf620;" horiz-adv-x="566" 
d="M76 0v522h55l307 -429v429h52v-522q0 -74 -26.5 -119.5t-79.5 -76.5l-26 39q24 13 39 31.5t23.5 41t12 47t3.5 50.5l-309 429v-442h-51z" />
    <glyph glyph-name="oe.smcp" unicode="&#xf621;" horiz-adv-x="724" 
d="M342 0q-141 0 -217.5 71t-76.5 197q0 124 75.5 189t215.5 65h348v-44h-256v-178h181v-44h-182v-212h274v-44h-362zM378 44v435h-58q-109 0 -164 -57t-55 -157q0 -51 16.5 -92t46.5 -69.5t72 -44t93 -15.5h49z" />
    <glyph glyph-name="eth.smcp" unicode="&#xf622;" horiz-adv-x="534" 
d="M80 0v246h-62v43h62v233h141q32 0 63.5 -4.5t58.5 -15.5q69 -26 109.5 -84.5t40.5 -149.5q0 -103 -44 -166t-120 -88q-23 -8 -51 -11t-57 -3h-141zM133 43h79q25 0 49.5 2.5t45.5 10.5q61 20 96.5 70.5t35.5 138.5q0 110 -60.5 162t-163.5 52h-82v-190h145v-43h-145v-203
z" />
    <glyph glyph-name="hbar.smcp" unicode="&#xf623;" horiz-adv-x="555" 
d="M76 0v392h-58v44h58v86h52v-86h299v86h52v-86h62v-44h-62v-392h-52v248h-299v-248h-52zM128 293h299v99h-299v-99z" />
    <glyph glyph-name="ij.smcp" unicode="&#xf624;" horiz-adv-x="397" 
d="M75 0v522h52v-522h-52zM167 -62q47 10 76 36t29 75v473h52v-472q0 -35 -11.5 -61t-31.5 -45t-46.5 -31t-56.5 -17z" />
    <glyph glyph-name="idotaccent.smcp" unicode="&#xf625;" horiz-adv-x="203" 
d="M75 0v522h52v-522h-52zM103 590q-17 0 -28.5 14.5t-11.5 34.5t11.5 34t28.5 14t28.5 -14.5t11.5 -33.5q0 -20 -11.5 -34.5t-28.5 -14.5z" />
    <glyph glyph-name="dotlessi.smcp" unicode="&#xf626;" horiz-adv-x="203" 
d="M75 0v522h52v-522h-52z" />
    <glyph glyph-name="oslash.smcp" unicode="&#xf627;" horiz-adv-x="554" 
d="M52 11q12 16 24.5 30.5l25.5 30.5q-29 38 -43.5 87t-14.5 102t15 102t44.5 86.5t73 60t100.5 22.5q48 0 86 -16t66 -44l25 30l24 30l34 -28l-54 -65q26 -38 38.5 -84t12.5 -94q0 -51 -14 -99.5t-42.5 -87t-72.5 -61.5t-103 -23q-46 0 -82.5 13.5t-63.5 38.5l-47 -57z
M398 434q-22 24 -52 39t-69 15q-47 0 -80.5 -20t-55 -52.5t-32 -73t-10.5 -81.5q0 -38 9 -76t29 -70zM421 396l-129 -157.5l-130 -157.5q21 -23 49.5 -36t65.5 -13q46 0 79 20.5t55 53t32.5 73.5t10.5 82q0 35 -8 70.5t-25 65.5v-1z" />
    <glyph glyph-name="thorn.smcp" unicode="&#xf628;" horiz-adv-x="447" 
d="M68 0v522h52v-94h120q85 0 131.5 -39t46.5 -116q0 -38 -13.5 -66t-37.5 -47.5t-56.5 -29t-70.5 -9.5h-120v-121h-52zM120 165h123q58 0 90.5 28.5t32.5 79.5q0 52 -32 81t-93 29h-121v-218z" />
    <glyph glyph-name="tbar.smcp" unicode="&#xf629;" horiz-adv-x="429" 
d="M188 0v252h-126v44h126v182h-173v44h399v-44h-174v-182h128v-44h-128v-252h-52z" />
    <glyph glyph-name="kgreenlandic.smcp" unicode="&#xf62a;" horiz-adv-x="472" 
d="M76 0v522h52v-244l261 244h64l-217 -205l233 -317h-62l-209 283l-70 -65v-218h-52z" />
    <glyph glyph-name="lslash.smcp" unicode="&#xf62b;" horiz-adv-x="421" 
d="M83 0v231l-61 -39l-20 35l81 51v244h51v-213l98 62l22 -35l-120 -76v-215h271v-45h-322z" />
    <glyph glyph-name="ampersand.smcp" unicode="&#xf62c;" horiz-adv-x="505" 
d="M418 0l-75 97q-27 -46 -65 -76t-94 -30q-37 0 -65 12.5t-47 32.5t-28.5 46.5t-9.5 54.5q0 52 32 98t101 78l-22 33q-11 17 -21 36.5t-10 39.5q0 23 9.5 41.5t25.5 31t37 19.5t45 7q23 0 44 -6.5t36.5 -19t24.5 -30.5t9 -41q0 -39 -30.5 -69.5t-77.5 -53.5l50.5 -63
l50.5 -64l24 48q17 31 39.5 61t48.5 51l24 -33q-26 -23 -47 -54t-38 -65l-21 -43l104 -139h-54zM193 282q-53 -27 -81.5 -61.5t-28.5 -82.5q0 -20 7.5 -39t21 -33.5t33 -23.5t43.5 -9q41 0 71 26.5t56 69.5zM213 333q35 14 58.5 38t23.5 53t-19 43.5t-46 14.5t-46 -14.5
t-19 -41.5q0 -15 8.5 -31l16.5 -30z" />
    <glyph glyph-name="f_i.smcp" unicode="&#xf62d;" horiz-adv-x="595" 
d="M79 0v522h315v-44h-263v-186h193v-45h-194v-247h-51zM467 0v522h52v-522h-52z" />
    <glyph glyph-name="f_l.smcp" unicode="&#xf62e;" horiz-adv-x="806" 
d="M79 0v522h315v-44h-263v-186h193v-45h-194v-247h-51zM465 0v522h52v-477h271v-45h-323z" />
    <glyph glyph-name="f_f.smcp" unicode="&#xf62f;" horiz-adv-x="777" 
d="M451 0v522h315v-44h-263v-186h193v-45h-194v-247h-51zM76 0v522h315v-44h-263v-186h193v-45h-194v-247h-51z" />
    <glyph glyph-name="f_f_i.smcp" unicode="&#xf630;" horiz-adv-x="953" 
d="M451 0v522h315v-44h-263v-186h193v-45h-194v-247h-51zM76 0v522h315v-44h-263v-186h193v-45h-194v-247h-51zM825 0v522h52v-522h-52z" />
    <glyph glyph-name="f_f_l.smcp" unicode="&#xf631;" horiz-adv-x="1160" 
d="M451 0v522h315v-44h-263v-186h193v-45h-194v-247h-51zM76 0v522h315v-44h-263v-186h193v-45h-194v-247h-51zM819 0v522h52v-477h271v-45h-323z" />
    <glyph glyph-name="f_b.smcp" unicode="&#xf632;" horiz-adv-x="839" 
d="M76 0v522h315v-44h-263v-186h193v-45h-194v-247h-51zM453 0v522h155q80 0 123 -32.5t43 -99.5q0 -90 -103 -113q62 -5 96.5 -38t34.5 -93q0 -34 -12 -61t-33.5 -46t-51.5 -29t-66 -10h-186zM504 297h96q59 0 90 25t31 70q0 46 -29.5 67t-84.5 21h-103v-183zM504 44h131
q55 0 84.5 27t29.5 76q0 57 -39 81.5t-107 24.5h-99v-209z" />
    <glyph glyph-name="f_j.smcp" unicode="&#xf633;" horiz-adv-x="583" 
d="M76 0v522h315v-44h-263v-186h193v-45h-194v-247h-51zM353 -62q47 10 76 36t29 75v473h52v-472q0 -35 -11.5 -61t-31.5 -45t-46.5 -31t-56.5 -17z" />
    </font>
</defs>
</svg>
