<?xml version="1.0" standalone="no"?>
<!DOCTYPE svg PUBLIC "-//W3C//DTD SVG 1.1//EN" "http://www.w3.org/Graphics/SVG/1.1/DTD/svg11.dtd" >
<svg xmlns="http://www.w3.org/2000/svg" xmlns:xlink="http://www.w3.org/1999/xlink" version="1.1">
<metadata>
Created by FontForge 20170910 at Sun Jul 11 10:56:15 2010
 By Jimmy Wärting
Copyright 2000-2007 Dalton Maag Ltd. All rights reserved. No modification without the prior permission of Dalton Maag Ltd.
</metadata>
<defs>
<font id="InterFaceCorp-Black" horiz-adv-x="600" >
  <font-face 
    font-family="InterFace Corp Black"
    font-weight="400"
    font-stretch="normal"
    units-per-em="1000"
    panose-1="2 11 10 3 3 2 3 2 2 4"
    ascent="800"
    descent="-200"
    x-height="493"
    cap-height="668"
    bbox="-252 -240 1347 959"
    underline-thickness="20"
    underline-position="-133"
    unicode-range="U+0008-FB04"
  />
<missing-glyph horiz-adv-x="500" 
d="M50 0v750h400v-750h-400zM400 50v650h-300v-650h300z" />
    <glyph glyph-name="f_b" unicode="fb" horiz-adv-x="927" 
d="M73 0v353h-67v140h67v15q0 37 16.5 69t49.5 54.5t83.5 35.5t119.5 13q84 0 147.5 -10t98.5 -18v-163q18 7 43 11t58 4q48 0 87.5 -17.5t67 -49.5t43 -77.5t15.5 -101.5q0 -67 -20 -117.5t-57.5 -84t-90.5 -50.5t-119 -17q-81 0 -138 11.5t-100 28.5v512q-15 4 -40 4
q-29 0 -41.5 -12.5t-12.5 -27.5v-12h69v-140h-68v-353h-211zM588 142q8 -2 15.5 -3t23.5 -1q31 0 49.5 25.5t18.5 82.5q0 54 -18.5 80t-49.5 26q-14 0 -22.5 -2.5t-16.5 -4.5v-203z" />
    <glyph glyph-name="f_j" unicode="fj" horiz-adv-x="653" 
d="M340 -87q13 9 25 17t20.5 19t13.5 26t5 38v480h210v-491q0 -45 -12 -79.5t-33 -60t-50.5 -43t-64.5 -28.5zM73 0v353h-67v140h67v15q0 36 14.5 67t44 54.5t73 37t101.5 13.5q74 0 114 -9t63 -19l-47 -127q-18 8 -40.5 14t-49.5 6q-32 0 -47.5 -12.5t-15.5 -32.5v-7h70
v-140h-69v-353h-211z" />
    <glyph glyph-name="f_k" unicode="fk" horiz-adv-x="930" 
d="M73 0v353h-67v140h67v15q0 37 16.5 69t49.5 54.5t83.5 35.5t119.5 13q84 0 147.5 -10t98.5 -18v-286l124 127h211l-146 -164l163 -329h-227l-86 195l-39 -44v-151h-211v541q-15 4 -40 4q-29 0 -41.5 -12.5t-12.5 -27.5v-12h69v-140h-68v-353h-211z" />
    <glyph glyph-name="f_t" unicode="ft" horiz-adv-x="788" 
d="M73 0v353h-67v140h67v15q0 78 49.5 125t146.5 47q27 0 52 -3.5t46 -8.5t37 -10.5t25 -9.5l-43 -114q-11 4 -24 7.5t-32 3.5q-23 0 -35 -12.5t-12 -27.5v-12h157v122h211v-122h110v-140h-110v-187q0 -16 8 -24q7 -7 21 -7q17 0 31.5 6.5t26.5 15.5l54 -115
q-33 -23 -78.5 -37.5t-105.5 -14.5q-47 0 -79 12.5t-51.5 34.5t-28.5 51t-9 62v203h-156v-353h-211z" />
    <glyph glyph-name="f_h" unicode="fh" horiz-adv-x="934" 
d="M73 0v353h-67v140h67v15q0 37 16.5 69t49.5 54.5t83.5 35.5t119.5 13q84 0 147.5 -10t98.5 -18v-181q20 13 51 23t71 10q85 0 135.5 -45.5t50.5 -133.5v-325h-211v298q0 55 -45 55q-17 0 -29.5 -5.5t-22.5 -13.5v-334h-211v541q-15 4 -40 4q-29 0 -41.5 -12.5
t-12.5 -27.5v-12h69v-140h-68v-353h-211z" />
    <glyph glyph-name="f_f" unicode="ff" horiz-adv-x="748" 
d="M73 0v353h-67v140h67v15q0 78 49.5 125t146.5 47q27 0 52 -3.5t46 -8.5t37 -10.5t25 -9.5l-43 -114q-11 4 -24 7.5t-32 3.5q-23 0 -35 -12.5t-12 -27.5v-12h148v15q0 78 49.5 125t146.5 47q27 0 52 -3.5t46 -8.5t37 -10.5t25 -9.5l-43 -114q-11 4 -24 7.5t-32 3.5
q-23 0 -35 -12.5t-12 -27.5v-12h99v-140h-98v-353h-211v353h-147v-353h-211z" />
    <glyph glyph-name="f_i" unicode="fi" horiz-adv-x="628" 
d="M378 0v493h210v-493h-210zM73 0v353h-67v140h67v15q0 36 14.5 67t44 54.5t73 37t101.5 13.5q74 0 114 -9t63 -19l-47 -127q-18 8 -40.5 14t-49.5 6q-32 0 -47.5 -12.5t-15.5 -32.5v-7h70v-140h-69v-353h-211z" />
    <glyph glyph-name="f_l" unicode="fl" horiz-adv-x="628" 
d="M73 0v353h-67v140h67v15q0 37 16.5 69t49.5 54.5t83.5 35.5t119.5 13q84 0 147.5 -10t98.5 -18v-652h-211v541q-15 4 -40 4q-29 0 -41.5 -12.5t-12.5 -27.5v-12h69v-140h-68v-353h-211z" />
    <glyph glyph-name="f_f_i" unicode="ffi" horiz-adv-x="985" 
d="M73 0v353h-67v140h67v15q0 78 49.5 125t146.5 47q27 0 52 -3.5t46 -8.5t37 -10.5t25 -9.5l-43 -114q-1 0 -1.5 0.5t-1.5 0.5q-11 4 -23.5 7t-29.5 3q-23 0 -35 -12.5t-12 -27.5v-12h148v15q0 36 14.5 67t44 54.5t73 37t101.5 13.5q74 0 114 -9t63 -19l-47 -127
q-18 8 -40.5 14t-49.5 6q-32 0 -47.5 -12.5t-15.5 -32.5v-7h70v-140h-69v-353h-211v353h-147v-353h-211zM736 0v493h210v-493h-210z" />
    <glyph glyph-name="f_f_l" unicode="ffl" horiz-adv-x="1006" 
d="M73 0v353h-67v140h67v15q0 78 49.5 125t146.5 47q27 0 52 -3.5t46 -8.5t37 -10.5t25 -9.5l-43 -114q-11 4 -24 7.5t-32 3.5q-23 0 -35 -12.5t-12 -27.5v-12h168v15q0 37 16.5 69t49.5 54.5t83.5 35.5t119.5 13q84 0 147.5 -10t98.5 -18v-652h-211v541q-15 4 -40 4
q-29 0 -41.5 -12.5t-12.5 -27.5v-12h69v-140h-68v-353h-211v353h-167v-353h-211z" />
    <glyph glyph-name=".notdef" horiz-adv-x="500" 
d="M50 0v750h400v-750h-400zM400 50v650h-300v-650h300z" />
    <glyph glyph-name=".null" horiz-adv-x="0" 
 />
    <glyph glyph-name=".null" horiz-adv-x="0" 
 />
    <glyph glyph-name=".null" horiz-adv-x="0" 
 />
    <glyph glyph-name="nonmarkingreturn" unicode="&#x9;" horiz-adv-x="155" 
 />
    <glyph glyph-name="nonmarkingreturn" unicode="&#xd;" horiz-adv-x="155" 
 />
    <glyph glyph-name="space" unicode=" " horiz-adv-x="155" 
 />
    <glyph glyph-name="exclam" unicode="!" horiz-adv-x="282" 
d="M35 230v437h212v-437h-212zM66 13q-29 24 -29 67t29.5 66.5t74.5 23.5t74.5 -23.5t29.5 -66.5t-29.5 -66.5t-74.5 -23.5t-75 23z" />
    <glyph glyph-name="quotedbl" unicode="&#x22;" horiz-adv-x="408" 
d="M228 371v296h155v-296h-155zM25 371v296h155v-296h-155z" />
    <glyph glyph-name="numbersign" unicode="#" horiz-adv-x="676" 
d="M119 8v112h-99v151h99v107h-99v150h99v113h174v-113h90v113h173v-113h100v-150h-100v-107h100v-151h-100v-112h-173v112h-90v-112h-174zM289 267h98v115h-98v-115z" />
    <glyph glyph-name="dollar" unicode="$" 
d="M225 -169v160q-55 4 -111.5 30t-101.5 74l150 108q24 -21 59 -36.5t67 -15.5q33 0 53.5 8.5t20.5 26.5q0 9 -3.5 17t-16.5 16.5t-38.5 18t-68.5 21.5q-50 14 -86.5 31t-61 40t-36.5 55.5t-12 77.5q0 84 47.5 138t138.5 69v183h151v-182q64 -9 107 -33t78 -64l-144 -106
q-19 21 -47 34t-59 13q-65 0 -65 -32q0 -11 5 -19t17.5 -15t34.5 -14t56 -16q42 -12 80.5 -28t68 -40.5t46.5 -60.5t17 -88q0 -46 -14.5 -81.5t-40 -62t-61.5 -43t-79 -23.5v-161h-151z" />
    <glyph glyph-name="percent" unicode="%" horiz-adv-x="852" 
d="M512 40q-24 24 -36.5 54.5t-12.5 65.5q0 34 12.5 65.5t36.5 55t58.5 37.5t79.5 14t79.5 -14t58.5 -37.5t36.5 -55t12.5 -65.5q0 -35 -12.5 -65.5t-36.5 -54t-58.5 -37t-79.5 -13.5t-79.5 13.5t-58.5 36.5zM133 -20l-90 93l675 612l92 -89zM64 383q-24 24 -36.5 54.5
t-12.5 65.5q0 34 12.5 65.5t36.5 55t58.5 37.5t79.5 14t79.5 -14t58.5 -37.5t36.5 -55t12.5 -65.5q0 -35 -12.5 -65.5t-36.5 -54t-58.5 -37t-79.5 -13.5t-79.5 13.5t-58.5 36.5zM606 162q0 -32 13.5 -45.5t30.5 -13.5t30.5 13.5t13.5 45.5q0 31 -13.5 45t-30.5 14t-30.5 -14
t-13.5 -45zM158 505q0 -32 13.5 -45.5t30.5 -13.5t30.5 13.5t13.5 45.5q0 31 -13.5 45t-30.5 14t-30.5 -14t-13.5 -45z" />
    <glyph glyph-name="ampersand" unicode="&#x26;" horiz-adv-x="700" 
d="M464 0l-42 57q-17 -13 -35.5 -25t-41.5 -21.5t-51.5 -15t-65.5 -5.5q-47 0 -86 15.5t-67.5 43.5t-44 66.5t-15.5 84.5q0 41 11.5 73t32 56.5t49 43.5t61.5 34q-20 25 -33 52.5t-13 60.5q0 35 16.5 64.5t45 50.5t67.5 33t84 12q93 0 149 -33.5t88 -97.5l-142 -73
q-13 25 -28.5 41t-37.5 16q-16 0 -26 -8t-10 -23q0 -9 7.5 -20.5t16.5 -23.5l92 -123q32 42 72 75t85 53l91 -139q-49 -29 -82.5 -60.5t-60.5 -69.5l143 -194h-229zM264 279q-23 -12 -37.5 -29.5t-14.5 -46.5q0 -27 15.5 -40.5t36.5 -13.5q38 0 67 38z" />
    <glyph glyph-name="quotesingle" unicode="'" horiz-adv-x="205" 
d="M25 371v296h155v-296h-155z" />
    <glyph glyph-name="parenleft" unicode="(" horiz-adv-x="366" 
d="M279 -70q-43 21 -86.5 56.5t-78.5 86t-57 117.5t-22 151t22 151t57 117.5t78.5 86t86.5 56.5l87 -100q-24 -20 -45.5 -49t-38 -68t-26 -87.5t-9.5 -106.5t9.5 -106.5t26 -87.5t38 -68t45.5 -49z" />
    <glyph glyph-name="parenright" unicode=")" horiz-adv-x="366" 
d="M0 30q24 20 45.5 49t38 68t26 87.5t9.5 106.5t-9.5 106.5t-26 87.5t-38 68t-45.5 49l87 100q43 -21 86.5 -56.5t78.5 -86t57 -117.5t22 -151t-22 -151t-57 -117.5t-78.5 -86t-86.5 -56.5z" />
    <glyph glyph-name="asterisk" unicode="*" horiz-adv-x="455" 
d="M80 383l-51 86l109 66l-111 68l57 81l92 -59v100h99v-100l95 59l58 -81l-110 -67l107 -67l-51 -86l-99 61v-105h-99v105z" />
    <glyph glyph-name="plus" unicode="+" 
d="M215 74v178h-172v160h172v181h169v-181h173v-160h-173v-178h-169z" />
    <glyph glyph-name="comma" unicode="," horiz-adv-x="258" 
d="M2 -50q20 5 44.5 17t37.5 23q-10 3 -20.5 10t-19 17.5t-14 25t-5.5 34.5q0 38 26 65t78 27q48 0 76 -27t28 -76q0 -60 -50 -110.5t-155 -78.5z" />
    <glyph glyph-name="hyphen" unicode="-" horiz-adv-x="330" 
d="M18 201v159h294v-159h-294z" />
    <glyph glyph-name="period" unicode="." horiz-adv-x="258" 
d="M54 13q-29 24 -29 67t29.5 66.5t74.5 23.5t74.5 -23.5t29.5 -66.5t-29.5 -66.5t-74.5 -23.5t-75 23z" />
    <glyph glyph-name="slash" unicode="/" horiz-adv-x="527" 
d="M0 33l378 734l149 -74l-378 -734z" />
    <glyph glyph-name="zero" unicode="0" 
d="M176 10q-53 25 -88 70t-52 108.5t-17 141.5t17 141.5t52 108.5t88 69.5t124 24.5t124 -24.5t88 -69.5t52 -108.5t17 -141.5t-17 -141.5t-52 -108.5t-88 -69.5t-124 -24.5t-124 24zM252 193q16 -39 48 -39t48 39.5t16 136.5t-16 136.5t-48 39.5t-48 -39.5t-16 -136.5
t16 -137z" />
    <glyph glyph-name="one" unicode="1" 
d="M242 0v426l-113 -63l-85 160l259 139h156v-662h-217z" />
    <glyph glyph-name="two" unicode="2" 
d="M48 0v118q66 61 126 121.5t106 118.5q48 60 48 97q0 44 -48 44q-30 0 -50 -22.5t-36 -50.5l-169 84q16 31 39 60.5t55 52.5t75.5 37t100.5 14q118 0 182.5 -53.5t64.5 -150.5q0 -48 -16 -89t-42.5 -77t-60 -68.5t-68.5 -64.5h206v-171h-513z" />
    <glyph glyph-name="three" unicode="3" 
d="M164 226q15 -29 41.5 -47t64.5 -18q81 0 81 48q0 31 -29 45.5t-93 14.5v130q34 0 55.5 5t34 13t17 18t4.5 20q0 21 -17 33t-51 12t-56.5 -15.5t-39.5 -42.5l-156 100q17 26 41.5 49.5t59.5 44.5q31 18 73 28t103 10q55 0 102.5 -12t82 -35.5t54 -57.5t19.5 -77
q0 -36 -9 -61.5t-23.5 -43.5t-33 -29t-38.5 -18q22 -6 43 -18t37 -30.5t25.5 -45t9.5 -60.5q0 -49 -21 -86t-57.5 -62.5t-86.5 -38.5t-108 -13q-57 0 -102.5 10.5t-81 29t-61.5 43.5t-44 55z" />
    <glyph glyph-name="four" unicode="4" 
d="M15 132v161l306 369h187v-381h73v-149h-73v-132h-201v132h-292zM179 281h128v166z" />
    <glyph glyph-name="five" unicode="5" 
d="M59 290v372h461v-165h-277v-65h12q68 0 123.5 -12.5t94.5 -39t60.5 -68.5t21.5 -102q0 -56 -19.5 -98t-54.5 -70t-84.5 -42t-109.5 -14q-114 0 -183 38t-96 98l168 97q15 -25 39 -42t60 -17q33 0 51 13t18 41q0 37 -35 56.5t-123 19.5h-127z" />
    <glyph glyph-name="six" unicode="6" 
d="M494 535q-79 -14 -136.5 -42.5t-81.5 -64.5q15 6 38.5 10t55.5 4q46 0 84.5 -16t65.5 -44.5t42 -68t15 -87.5q0 -53 -18.5 -97t-53 -75.5t-85.5 -49.5t-115 -18q-62 0 -113 20.5t-87.5 58.5t-56.5 91.5t-20 119.5q0 105 41 180t122 129q57 38 125.5 61t134.5 33zM265 300
q-14 -3 -23 -8q-1 -5 -3.5 -16.5t-2.5 -28.5q0 -52 18.5 -72.5t47.5 -20.5t46 19t17 57q0 32 -18 53t-45 21q-22 0 -37 -4z" />
    <glyph glyph-name="seven" unicode="7" 
d="M92 0l238 491h-288v171h527v-141l-259 -521h-218z" />
    <glyph glyph-name="eight" unicode="8" 
d="M60 287q26 34 70 57q-18 10 -33.5 22t-27 29t-18 40.5t-6.5 57.5q0 36 16 69t48 57.5t80 39.5t112 15t112 -15t79.5 -39.5t47.5 -57.5t16 -69q0 -34 -6.5 -57.5t-17.5 -40.5t-26.5 -29t-33.5 -22q44 -23 69 -56.5t25 -95.5q0 -42 -15.5 -79.5t-48 -65.5t-82.5 -44.5
t-119 -16.5t-119 16.5t-82.5 44.5t-48.5 65.5t-16 79.5q0 62 25 95zM242 465q0 -28 16.5 -44t42.5 -16t42 16t16 45t-16 44.5t-42 15.5t-42.5 -16t-16.5 -45zM253 158q18 -19 48 -19t47.5 19t17.5 49t-17.5 49t-47.5 19t-48 -19t-18 -49t18 -49z" />
    <glyph glyph-name="nine" unicode="9" 
d="M108 128q35 7 69 19t63 26.5t51.5 31.5t34.5 34q-14 -6 -39.5 -10t-54.5 -4q-47 0 -85 15t-65 42.5t-42 66t-15 86.5q0 52 18.5 96.5t53 76t85 49.5t115.5 18q64 0 115.5 -20t87.5 -57.5t55 -90t19 -116.5q0 -91 -32.5 -161t-95.5 -124q-54 -48 -127.5 -77t-161.5 -45z
M337 367q13 3 23 6q1 6 2.5 16.5t1.5 30.5q0 38 -16 65t-53 27q-29 0 -43.5 -22t-14.5 -50q0 -36 20.5 -55.5t49.5 -19.5q17 0 30 2z" />
    <glyph glyph-name="colon" unicode=":" horiz-adv-x="258" 
d="M54 285q-29 24 -29 67t29.5 66.5t74.5 23.5t74.5 -23.5t29.5 -66.5t-29.5 -66.5t-74.5 -23.5t-75 23zM54 13q-29 24 -29 67t29.5 66.5t74.5 23.5t74.5 -23.5t29.5 -66.5t-29.5 -66.5t-74.5 -23.5t-75 23z" />
    <glyph glyph-name="semicolon" unicode=";" horiz-adv-x="258" 
d="M54 285q-29 24 -29 67t29.5 66.5t74.5 23.5t74.5 -23.5t29.5 -66.5t-29.5 -66.5t-74.5 -23.5t-75 23zM2 -50q20 5 44.5 17t37.5 23q-10 3 -20.5 10t-19 17.5t-14 25t-5.5 34.5q0 38 26 65t78 27q48 0 76 -27t28 -76q0 -60 -50 -110.5t-155 -78.5z" />
    <glyph glyph-name="less" unicode="&#x3c;" 
d="M29 242v159l494 176l49 -163l-311 -90l321 -96l-50 -170z" />
    <glyph glyph-name="equal" unicode="=" 
d="M43 366v160h514v-160h-514zM43 127v160h514v-160h-514z" />
    <glyph glyph-name="greater" unicode="&#x3e;" 
d="M68 58l-50 170l321 96l-311 90l49 163l494 -176v-159z" />
    <glyph glyph-name="question" unicode="?" horiz-adv-x="488" 
d="M125 230v37q0 45 16 75.5t42 50.5q22 17 37.5 29.5t26 23t15.5 20.5t5 21q0 15 -10 25t-30 10q-24 0 -46 -21t-36 -45l-150 93q17 28 39 52t51.5 41.5t67.5 27.5t88 10q55 0 98.5 -13.5t73.5 -37.5t45.5 -57.5t15.5 -73.5q0 -58 -23.5 -95.5t-62.5 -66.5
q-34 -26 -46.5 -46t-12.5 -52v-8h-204zM154 13q-29 24 -29 67t29.5 66.5t74.5 23.5t74.5 -23.5t29.5 -66.5t-29.5 -66.5t-74.5 -23.5t-75 23z" />
    <glyph glyph-name="at" unicode="@" horiz-adv-x="877" 
d="M151 -100q-20 26 -41 62.5t-37.5 82t-27 98.5t-10.5 112q0 105 35 184.5t94.5 133t137 80.5t162.5 27q80 0 141.5 -19.5t103.5 -56.5t63.5 -89t21.5 -117v-413q0 -19 8 -25t19 -6q19 0 39 11l42 -117q-27 -15 -61.5 -25.5t-88.5 -10.5q-33 0 -63 10.5t-52 31t-35 51.5
t-13 73v33q-16 -10 -43 -18t-65 -8t-71 16.5t-57 46.5t-38 72t-14 94q0 109 54 167.5t142 58.5q34 0 57.5 -6.5t34.5 -13.5v12q0 38 -32.5 64.5t-102.5 26.5q-39 0 -80.5 -14.5t-76 -47t-56.5 -84t-22 -125.5q0 -73 20 -136.5t63 -124.5zM589 282q-6 3 -15.5 6.5t-23.5 3.5
q-23 0 -39 -18t-16 -61q0 -46 16.5 -66.5t36.5 -20.5q12 0 22.5 4.5t18.5 10.5v141z" />
    <glyph glyph-name="A" unicode="A" horiz-adv-x="700" 
d="M-10 0l248 667h225l247 -667h-229l-35 99h-196l-35 -99h-225zM287 255h120l-60 190z" />
    <glyph glyph-name="B" unicode="B" horiz-adv-x="623" 
d="M50 0v667h287q54 0 98.5 -11t76 -32.5t48.5 -54t17 -75.5q0 -33 -8.5 -56.5t-22 -40.5t-29.5 -28t-30 -18q21 -6 43 -18t40 -31t29.5 -46t11.5 -62q0 -44 -16 -79.5t-46.5 -61t-74.5 -39.5t-99 -14h-325zM260 410h56q30 0 43.5 15t13.5 38t-13.5 35.5t-43.5 12.5h-56
v-101zM260 165h76q28 0 44 11.5t16 38.5t-15.5 39t-44.5 12h-76v-101z" />
    <glyph glyph-name="C" unicode="C" horiz-adv-x="661" 
d="M639 167q-17 -38 -41 -71t-58.5 -57.5t-82 -38.5t-110.5 -14q-76 0 -135 25t-99.5 71t-61.5 109.5t-21 141.5q0 84 24.5 148.5t67 108.5t100.5 67t126 23q75 0 123.5 -17t85.5 -49q30 -26 49.5 -56.5t32.5 -64.5l-188 -90q-6 20 -14 38.5t-19.5 32.5t-28 22.5t-38.5 8.5
q-54 0 -77.5 -45.5t-23.5 -126.5q0 -79 29 -124.5t75 -45.5q45 0 69.5 27.5t36.5 66.5z" />
    <glyph glyph-name="D" unicode="D" horiz-adv-x="681" 
d="M50 0v667h254q83 0 148 -24t110 -67.5t68.5 -104.5t23.5 -136q0 -74 -23.5 -135.5t-68.5 -105.5t-110 -69t-148 -25h-254zM265 180h40q54 0 91.5 39t37.5 116q0 79 -37.5 116t-91.5 37h-40v-308z" />
    <glyph glyph-name="E" unicode="E" horiz-adv-x="581" 
d="M50 0v667h488v-180h-273v-74h220v-159h-220v-73h293v-181h-508z" />
    <glyph glyph-name="F" unicode="F" horiz-adv-x="541" 
d="M50 0v667h481v-180h-266v-92h213v-178h-213v-217h-215z" />
    <glyph glyph-name="G" unicode="G" horiz-adv-x="677" 
d="M350 232v145h284v-351q-51 -18 -121 -29t-151 -11q-80 0 -142 24.5t-104 70t-64 109.5t-22 144t22 144t63.5 109t100.5 69t134 24q81 0 130 -17t83 -46q23 -19 40.5 -43t28.5 -47l-187 -89q-10 26 -31 46.5t-58 20.5q-46 0 -76 -43t-30 -131q0 -48 9.5 -82t25.5 -55
t38 -30.5t48 -9.5q15 0 30 1.5t32 3.5v73h-83z" />
    <glyph glyph-name="H" unicode="H" horiz-adv-x="695" 
d="M50 0v667h215v-233h165v233h215v-667h-215v251h-165v-251h-215z" />
    <glyph glyph-name="I" unicode="I" horiz-adv-x="315" 
d="M50 0v667h215v-667h-215z" />
    <glyph glyph-name="J" unicode="J" horiz-adv-x="321" 
d="M-26 -26q38 11 60 30.5t22 54.5v608h215v-614q0 -51 -18 -92t-50.5 -71t-78 -49.5t-100.5 -28.5z" />
    <glyph glyph-name="K" unicode="K" horiz-adv-x="699" 
d="M50 0v667h215v-200l169 200h251l-225 -260l249 -407h-262l-137 254l-45 -44v-210h-215z" />
    <glyph glyph-name="L" unicode="L" horiz-adv-x="535" 
d="M50 0v667h215v-486h270v-181h-485z" />
    <glyph glyph-name="M" unicode="M" horiz-adv-x="824" 
d="M50 0v667h222l140 -359l140 359h222v-667h-205v288l-111 -292h-92l-111 292v-288h-205z" />
    <glyph glyph-name="N" unicode="N" horiz-adv-x="700" 
d="M50 0v667h216l174 -301v301h210v-667h-199l-191 325v-325h-210z" />
    <glyph glyph-name="O" unicode="O" horiz-adv-x="710" 
d="M215 11q-60 26 -101.5 72.5t-62.5 110t-21 140.5q0 76 21 140t62.5 109.5t102 71t139.5 25.5t139.5 -25.5t102 -71t62.5 -109.5t21 -140q0 -77 -21 -140.5t-62.5 -110t-102 -72t-139.5 -25.5t-140 25zM276 207q27 -45 79 -45t78.5 45t26.5 127q0 81 -26.5 125.5
t-78.5 44.5t-78.5 -44.5t-26.5 -125.5q0 -82 26 -127z" />
    <glyph glyph-name="P" unicode="P" horiz-adv-x="609" 
d="M50 0v667h282q62 0 111.5 -15.5t84 -45.5t53 -73t18.5 -98t-18.5 -98t-53 -73t-84 -46t-111.5 -16h-70v-202h-212zM262 373h63q29 0 45 18t16 44t-16 43t-45 17h-63v-122z" />
    <glyph glyph-name="Q" unicode="Q" horiz-adv-x="710" 
d="M552 -173q-57 1 -105.5 12.5t-86 33t-62 53.5t-33.5 74q-117 27 -176 114t-59 220q0 76 21 140t62.5 109.5t102 71t139.5 25.5t139.5 -25.5t102 -71t62.5 -109.5t21 -140q0 -129 -54 -214t-162 -118q10 -17 40 -27.5t70 -10.5zM276 207q27 -45 79 -45t78.5 45t26.5 127
q0 81 -26.5 125.5t-78.5 44.5t-78.5 -44.5t-26.5 -125.5q0 -82 26 -127z" />
    <glyph glyph-name="R" unicode="R" horiz-adv-x="653" 
d="M50 0v667h315q59 0 106 -16t79.5 -45t49.5 -69t17 -88q0 -69 -23.5 -113.5t-71.5 -73.5l134 -262h-240l-96 218h-58v-218h-212zM262 386h79q35 0 49 16.5t14 39.5t-14 38.5t-49 15.5h-79v-110z" />
    <glyph glyph-name="S" unicode="S" horiz-adv-x="597" 
d="M176 215q21 -28 51 -46t67 -18q36 0 56.5 8.5t20.5 25.5q0 10 -4.5 17.5t-17 14.5t-35.5 15t-59 18q-53 14 -95 31.5t-71.5 42.5t-45 59t-15.5 82q0 49 19 89t54.5 68t86.5 43t114 15q90 0 148.5 -23t97.5 -62q17 -17 29 -35l-160 -102q-6 10 -16 20.5t-24 19.5t-32.5 15
t-40.5 6q-36 0 -52.5 -9t-16.5 -24q0 -9 4 -16.5t18 -15t40.5 -16t70.5 -19.5q42 -10 80.5 -25t68 -40t46.5 -61.5t17 -90.5q0 -56 -23 -96.5t-62 -67t-90 -39.5t-107 -13q-91 0 -150.5 20.5t-99.5 58.5q-20 20 -40 51z" />
    <glyph glyph-name="T" unicode="T" horiz-adv-x="573" 
d="M179 0v487h-176v180h567v-180h-175v-487h-216z" />
    <glyph glyph-name="U" unicode="U" horiz-adv-x="694" 
d="M261 258q0 -49 22 -70.5t64 -21.5t64 21.5t22 70.5v409h215v-419q0 -126 -78.5 -194t-222.5 -68t-222.5 68t-78.5 194v419h215v-409z" />
    <glyph glyph-name="V" unicode="V" horiz-adv-x="697" 
d="M273 0l-283 667h254l121 -371l111 371h231l-248 -667h-186z" />
    <glyph glyph-name="W" unicode="W" horiz-adv-x="880" 
d="M172 0l-182 667h218l73 -302l80 302h158l79 -302l75 302h217l-182 -667h-174l-95 335l-92 -335h-175z" />
    <glyph glyph-name="X" unicode="X" horiz-adv-x="680" 
d="M-10 0l228 341l-213 326h244l93 -156l94 156h238l-212 -321l228 -346h-249l-103 173l-105 -173h-243z" />
    <glyph glyph-name="Y" unicode="Y" horiz-adv-x="686" 
d="M237 0v253l-247 414h245l111 -210l107 210h243l-244 -413v-254h-215z" />
    <glyph glyph-name="Z" unicode="Z" horiz-adv-x="619" 
d="M25 0v147l281 340h-268v180h544v-150l-279 -336h290v-181h-568z" />
    <glyph glyph-name="bracketleft" unicode="[" horiz-adv-x="385" 
d="M66 -143v879h319v-140h-114v-599h114v-140h-319z" />
    <glyph glyph-name="backslash" unicode="\" horiz-adv-x="527" 
d="M378 -41l-378 734l149 74l378 -734z" />
    <glyph glyph-name="bracketright" unicode="]" horiz-adv-x="385" 
d="M0 -143v140h114v599h-114v140h319v-879h-319z" />
    <glyph glyph-name="asciicircum" unicode="^" horiz-adv-x="552" 
d="M12 302l185 365h158l185 -365l-161 -39l-103 229l-103 -229z" />
    <glyph glyph-name="underscore" unicode="_" horiz-adv-x="560" 
d="M0 -240v156h560v-156h-560z" />
    <glyph glyph-name="grave" unicode="`" horiz-adv-x="300" 
d="M0 623l59 124l241 -118l-49 -95z" />
    <glyph glyph-name="a" unicode="a" horiz-adv-x="533" 
d="M326 0l-20 39q-20 -16 -54.5 -30.5t-85.5 -14.5q-70 0 -111 39t-41 105q0 35 12.5 62t34.5 46.5t51.5 31t63.5 16.5q38 6 63 7t51 2v10q0 26 -17.5 39t-43.5 13q-54 0 -90 -30l-98 92q17 16 37 30t47 24.5t62.5 16.5t82.5 6q106 0 165.5 -49t59.5 -149v-306h-169z
M290 217q-11 0 -20 -0.5t-21 -2.5q-22 -4 -32.5 -18t-10.5 -33q0 -18 11.5 -29.5t31.5 -11.5q13 0 22.5 3t18.5 8v84z" />
    <glyph glyph-name="b" unicode="b" horiz-adv-x="590" 
d="M40 667h211v-178q18 7 43 11t58 4q48 0 87.5 -17.5t67 -49.5t43 -77.5t15.5 -101.5q0 -67 -20 -117.5t-57.5 -84t-90.5 -50.5t-119 -17q-81 0 -138 11.5t-100 28.5v638zM251 142q8 -2 15.5 -3t23.5 -1q31 0 49.5 25.5t18.5 82.5q0 54 -18.5 80t-49.5 26q-14 0 -22.5 -2.5
t-16.5 -4.5v-203z" />
    <glyph glyph-name="c" unicode="c" horiz-adv-x="548" 
d="M358 287q-7 30 -21 49t-40 19q-29 0 -46.5 -26t-17.5 -83q0 -55 18 -82.5t46 -27.5t44.5 19.5t22.5 53.5l172 -72q-28 -68 -87 -107.5t-164 -39.5q-57 0 -105 17.5t-82.5 50t-53.5 79.5t-19 107t18.5 108t53 82t83 52t108.5 18q103 0 161 -42t84 -112z" />
    <glyph glyph-name="d" unicode="d" horiz-adv-x="590" 
d="M372 0l-11 39q-7 -9 -16.5 -17.5t-24 -15.5t-34.5 -11.5t-48 -4.5q-47 0 -86 18.5t-67.5 52t-44 80.5t-15.5 105t16 105.5t45 81.5t69 52.5t88 18.5q29 0 54 -4t42 -12v179h211v-667h-178zM339 345q-6 4 -14 7t-25 3q-29 0 -48.5 -28.5t-19.5 -80.5q0 -60 19 -85.5
t47 -25.5q29 0 41 15v195z" />
    <glyph glyph-name="e" unicode="e" horiz-adv-x="516" 
d="M227 211q1 -29 22 -51.5t63 -22.5q32 0 52 10.5t31 23.5l122 -93q-13 -17 -32 -32.5t-46 -28t-64 -20t-86 -7.5q-56 0 -104 16.5t-83.5 48.5t-56 79.5t-20.5 110.5q0 61 19.5 109t54 81.5t82.5 51t105 17.5q115 0 182 -71t67 -222h-308zM346 308q-2 32 -16.5 53t-40.5 21
q-28 0 -43.5 -21.5t-17.5 -52.5h118z" />
    <glyph glyph-name="f" unicode="f" horiz-adv-x="390" 
d="M73 0v353h-67v140h67v15q0 78 49.5 125t146.5 47q27 0 52 -3.5t46 -8.5t37 -10.5t25 -9.5l-43 -114q-11 4 -24 7.5t-32 3.5q-23 0 -35 -12.5t-12 -27.5v-12h99v-140h-98v-353h-211z" />
    <glyph glyph-name="g" unicode="g" horiz-adv-x="568" 
d="M492 420q14 -11 29 -37t15 -61q0 -43 -18.5 -74.5t-50 -52.5t-74.5 -31t-92 -10q-37 0 -62.5 4.5t-31.5 7.5q-5 -4 -10.5 -12.5t-5.5 -16.5q0 -6 2.5 -11t10 -8.5t22.5 -5.5t41 -3q55 -2 89.5 -4t56.5 -5t37 -7.5t32 -10.5q42 -14 64 -44.5t22 -81.5q0 -28 -10 -52
t-27 -41q-35 -33 -97 -48.5t-150 -15.5q-133 0 -198 36t-65 95q0 22 7.5 38.5t18.5 27t23.5 17t22.5 9.5q-26 16 -39.5 36t-13.5 58q0 14 6 28.5t14.5 26.5t18 21.5t17.5 12.5q-25 14 -45.5 46.5t-20.5 70.5q0 50 19 84.5t51.5 56.5t76.5 31.5t94 9.5q37 0 60.5 -3.5
t45.5 -10.5l60 66l104 -78zM241 286q14 -16 42 -16t41 16t13 36t-13 36.5t-41 16.5t-42 -16.5t-14 -36.5t14 -36zM247 -24q-26 1 -44 3q-5 -7 -8.5 -14t-3.5 -16q0 -20 26.5 -31.5t77.5 -11.5t73.5 7.5t22.5 24.5q0 14 -14.5 22.5t-52.5 10.5q-51 3 -77 5z" />
    <glyph glyph-name="h" unicode="h" horiz-adv-x="597" 
d="M40 0v667h211v-196q20 13 51 23t71 10q85 0 135.5 -45.5t50.5 -133.5v-325h-211v298q0 55 -45 55q-17 0 -29.5 -5.5t-22.5 -13.5v-334h-211z" />
    <glyph glyph-name="i" unicode="i" horiz-adv-x="290" 
d="M67 543q-28 20 -28 60q0 39 28.5 58t77.5 19t77.5 -19t28.5 -58q0 -40 -28.5 -59.5t-77.5 -19.5t-78 19zM40 0v493h210v-493h-210z" />
    <glyph glyph-name="j" unicode="j" horiz-adv-x="287" 
d="M64 543q-28 20 -28 60q0 39 28.5 58t77.5 19t77.5 -19t28.5 -58q0 -40 -28.5 -59.5t-77.5 -19.5t-78 19zM-27 -87q13 9 24.5 17.5t20.5 19t14 25.5t5 38v480h210v-491q0 -45 -12 -79.5t-33 -60t-50.5 -43t-64.5 -28.5z" />
    <glyph glyph-name="k" unicode="k" horiz-adv-x="593" 
d="M40 0v667h211v-301l124 127h211l-146 -164l163 -329h-227l-86 195l-39 -44v-151h-211z" />
    <glyph glyph-name="l" unicode="l" horiz-adv-x="291" 
d="M40 0v667h211v-667h-211z" />
    <glyph glyph-name="m" unicode="m" horiz-adv-x="881" 
d="M40 0v493h180l11 -44q19 19 53.5 37t82.5 18q51 0 86.5 -15.5t55.5 -42.5q32 29 69 43.5t85 14.5q85 0 132.5 -45.5t47.5 -133.5v-325h-211v304q0 24 -9 36.5t-32 12.5q-14 0 -25 -5.5t-19 -12.5v-335h-211v304q0 24 -9 36.5t-32 12.5q-14 0 -25 -5.5t-19 -12.5v-335
h-211z" />
    <glyph glyph-name="n" unicode="n" horiz-adv-x="597" 
d="M40 0v493h180l11 -44q19 19 55 37t87 18q85 0 135.5 -45.5t50.5 -133.5v-325h-211v298q0 55 -45 55q-17 0 -29.5 -5.5t-22.5 -13.5v-334h-211z" />
    <glyph glyph-name="o" unicode="o" horiz-adv-x="584" 
d="M97 61q-34 34 -53 81.5t-19 106.5q0 58 19 105.5t53.5 80.5t84 51t110.5 18t110.5 -18t84 -51t53.5 -80.5t19 -105.5q0 -59 -19 -106.5t-53.5 -81.5t-84 -52.5t-110.5 -18.5t-110.5 18.5t-84.5 52.5zM248 168q15 -32 44 -32t44 32t15 81q0 48 -15 77t-44 29t-44 -29
t-15 -77q0 -49 15 -81z" />
    <glyph glyph-name="p" unicode="p" horiz-adv-x="590" 
d="M40 -189v682h178l11 -38q6 6 15.5 14.5t24 16t35 13t48.5 5.5q47 0 86 -18.5t67.5 -52t44 -81t15.5 -105.5t-16 -105.5t-45 -81.5t-69 -52.5t-88 -18.5q-29 0 -54 4t-42 12v-194h-211zM251 148q6 -4 14 -7t25 -3q29 0 48.5 28.5t19.5 80.5q0 60 -19 86t-47 26
q-29 0 -41 -15v-196z" />
    <glyph glyph-name="q" unicode="q" horiz-adv-x="586" 
d="M335 -189v185q-12 -2 -32 -4t-54 -2q-47 0 -88 16.5t-71 48.5t-47.5 77.5t-17.5 104.5q0 67 22 117.5t61.5 83.5t93 49.5t116.5 16.5q78 0 135 -7t93 -14v-672h-211zM335 350q-8 1 -16 1.5t-16 0.5q-29 0 -50 -29t-21 -83t22 -78t48 -24q11 0 19.5 2t13.5 4v206z" />
    <glyph glyph-name="r" unicode="r" horiz-adv-x="422" 
d="M40 0v493h185l12 -45q16 20 43.5 35t60.5 15q26 0 50.5 -6.5t38.5 -14.5l-54 -159q-14 7 -29.5 11t-34.5 4t-36.5 -7.5t-24.5 -14.5v-311h-211z" />
    <glyph glyph-name="s" unicode="s" horiz-adv-x="514" 
d="M108 157q20 -15 54.5 -29t74.5 -14q18 0 30 2t20 5q14 6 14 17q0 7 -4 12.5t-14.5 11t-29 11t-47.5 13.5q-39 11 -70.5 24t-53.5 31.5t-33.5 43.5t-11.5 60q0 39 18.5 68.5t50 50t74.5 30.5t93 10q45 0 80.5 -6t63 -16t47.5 -22.5t34 -25.5l-102 -91q-17 13 -44.5 26
t-65.5 13q-15 0 -24 -1.5t-17 -5.5q-13 -6 -13 -18q0 -5 1 -9.5t9.5 -9t26 -10.5t50.5 -14q40 -10 73 -22.5t57 -31t37 -45t13 -64.5q0 -44 -20 -74.5t-53.5 -49.5t-77 -28t-90.5 -9q-97 0 -158.5 21t-90.5 51z" />
    <glyph glyph-name="t" unicode="t" horiz-adv-x="423" 
d="M6 353v140h69v122h211v-122h110v-140h-110v-187q0 -16 8 -24q7 -7 21 -7q17 0 31.5 6.5t26.5 15.5l54 -115q-33 -23 -78.5 -37.5t-105.5 -14.5q-47 0 -79 12.5t-51.5 34.5t-28.5 51t-9 62v203h-69z" />
    <glyph glyph-name="u" unicode="u" horiz-adv-x="597" 
d="M377 0l-11 44q-19 -19 -55 -37t-87 -18q-85 0 -135.5 45.5t-50.5 133.5v325h211v-298q0 -55 45 -55q17 0 29.5 5.5t22.5 13.5v334h211v-493h-180z" />
    <glyph glyph-name="v" unicode="v" horiz-adv-x="593" 
d="M210 0l-218 493h233l80 -265l76 265h220l-210 -493h-181z" />
    <glyph glyph-name="w" unicode="w" horiz-adv-x="791" 
d="M166 0l-174 493h214l60 -234l59 234h142l58 -234l60 234h214l-174 -493h-165l-65 238l-64 -238h-165z" />
    <glyph glyph-name="x" unicode="x" horiz-adv-x="572" 
d="M-5 0l178 244l-181 249h232l68 -120l67 120h215l-172 -245l178 -248h-232l-65 119l-71 -119h-217z" />
    <glyph glyph-name="y" unicode="y" horiz-adv-x="593" 
d="M63 -41q14 -6 33.5 -11t36.5 -5q38 0 52 32l20 47l-213 471h233l77 -249l79 249h220l-239 -564q-29 -68 -71.5 -99t-110.5 -31q-65 0 -101 10t-62 22z" />
    <glyph glyph-name="z" unicode="z" horiz-adv-x="547" 
d="M26 0v118l222 233h-211v142h477v-128l-213 -223h221v-142h-496z" />
    <glyph glyph-name="braceleft" unicode="{" horiz-adv-x="420" 
d="M100 206q0 39 -18 57.5t-67 23.5v94q49 5 67 23.5t18 57.5v92q0 30 6 56t21 47t42 36.5t69 23.5q35 7 75.5 10t86.5 4l11 -130q-62 -4 -87 -21.5t-25 -55.5v-83q0 -45 -24.5 -71.5t-66.5 -35.5q42 -9 66.5 -35.5t24.5 -71.5v-83q0 -37 24.5 -54.5t87.5 -22.5l-11 -130
q-46 1 -86.5 4t-75.5 10q-42 8 -69 23.5t-42 36.5t-21 47t-6 56v92z" />
    <glyph glyph-name="bar" unicode="|" horiz-adv-x="290" 
d="M60 -74v812h170v-812h-170z" />
    <glyph glyph-name="braceright" unicode="}" horiz-adv-x="420" 
d="M9 67q63 5 87.5 22.5t24.5 54.5v83q0 45 24.5 71.5t66.5 35.5q-42 9 -66.5 35.5t-24.5 71.5v83q0 38 -25 55.5t-87 21.5l11 130q46 -1 86.5 -4t75.5 -10q42 -8 69 -23.5t42 -36.5t21 -47t6 -56v-92q0 -39 18 -57.5t67 -23.5v-94q-49 -5 -67 -23.5t-18 -57.5v-92
q0 -30 -6 -56t-21 -47t-42 -36.5t-69 -23.5q-35 -7 -75.5 -10t-86.5 -4z" />
    <glyph glyph-name="asciitilde" unicode="~" horiz-adv-x="474" 
d="M-2 444q1 43 10.5 81.5t28 66.5t46 44.5t63.5 16.5q33 0 57 -11t42 -23.5t33 -23.5t31 -11q36 0 42 68h125q-4 -94 -40 -151t-102 -57q-33 0 -56.5 11t-42 24t-35 24t-36.5 11t-29 -17.5t-12 -52.5h-125z" />
    <glyph glyph-name="uni00A0" unicode="&#xa0;" horiz-adv-x="155" 
 />
    <glyph glyph-name="exclamdown" unicode="&#xa1;" horiz-adv-x="282" 
d="M66 336q-29 24 -29 67t29.5 66.5t74.5 23.5t74.5 -23.5t29.5 -66.5t-29.5 -66.5t-74.5 -23.5t-75 23zM35 -189v442h212v-442h-212z" />
    <glyph glyph-name="cent" unicode="&#xa2;" 
d="M247 -11v107q-38 10 -72.5 28t-60 46.5t-40.5 68t-15 92.5q0 52 14 92t39 68t59.5 46t75.5 27v103h164v-101q21 -2 43 -8t41.5 -14.5t35.5 -17.5t26 -17l-83 -136q-20 14 -48 26.5t-70 12.5t-68 -23t-26 -58q0 -38 27 -61.5t63 -23.5q33 0 64.5 11.5t55.5 29.5l74 -139
q-29 -23 -67.5 -36.5t-67.5 -18.5v-104h-164z" />
    <glyph glyph-name="sterling" unicode="&#xa3;" 
d="M92 0v246h-78v149h78v31q0 115 62 181.5t196 66.5q58 0 98.5 -12t68 -32.5t44 -47t26.5 -55.5l-185 -52q-5 14 -16.5 27t-33.5 13q-27 0 -39.5 -16t-12.5 -37v-67h211v-149h-211v-85h276v-161h-484z" />
    <glyph glyph-name="currency" unicode="&#xa4;" horiz-adv-x="738" 
d="M0 97l160 152q-31 55 -31 119q0 62 28 114l-157 148l90 81l148 -141q29 17 62 25t67 8q35 0 68.5 -8t63.5 -26l149 142l90 -81l-158 -148q14 -26 20 -54t6 -57q0 -67 -31 -120l163 -154l-86 -83l-161 152q-29 -16 -61 -23t-65 -7q-31 0 -61.5 7t-58.5 22l-159 -151z
M281 281q16 -17 37.5 -26.5t48.5 -9.5t49 9.5t38 26.5t24.5 39.5t8.5 48.5t-8.5 49t-24.5 40t-38 26.5t-49 9.5t-49 -9.5t-37.5 -26.5t-24 -39.5t-8.5 -49.5q0 -26 8.5 -48.5t24.5 -39.5z" />
    <glyph glyph-name="yen" unicode="&#xa5;" 
d="M192 0v193h-150v149h106l-148 320h225l72 -236l68 236h223l-146 -320h98v-149h-141v-193h-207z" />
    <glyph glyph-name="brokenbar" unicode="&#xa6;" horiz-adv-x="290" 
d="M60 429v309h170v-309h-170zM60 -74v309h170v-309h-170z" />
    <glyph glyph-name="section" unicode="&#xa7;" horiz-adv-x="513" 
d="M143 339q-48 20 -76 58t-28 110q0 34 15 65.5t43.5 55.5t69 38t92.5 14q42 0 75 -5.5t59.5 -14.5t48.5 -21t43 -26l-81 -130q-23 17 -56.5 30t-66.5 13q-28 0 -44.5 -8t-16.5 -24q0 -15 14 -26.5t47 -23.5l53 -20q43 -16 71.5 -49t28.5 -78q0 -35 -19 -69zM101 53
q23 -17 59.5 -30t68.5 -13q38 0 53 8t15 24q0 15 -15 26.5t-48 24.5l-61 23q-42 16 -70.5 49t-28.5 78q0 17 4 34t14 35l280 -114q51 -21 78.5 -58.5t27.5 -108.5q0 -34 -15.5 -65.5t-45 -56t-71.5 -39t-95 -14.5q-75 0 -132 19.5t-99 47.5z" />
    <glyph glyph-name="dieresis" unicode="&#xa8;" horiz-adv-x="428" 
d="M263 574q-24 22 -24 57t24.5 58t70.5 23q45 0 69 -23t24 -58t-24 -57t-69 -22q-46 0 -71 22zM24 574q-24 22 -24 57t24.5 58t70.5 23q45 0 69 -23t24 -58t-24 -57t-69 -22q-46 0 -71 22z" />
    <glyph glyph-name="copyright" unicode="&#xa9;" horiz-adv-x="775" 
d="M238 -45q-64 32 -107.5 84.5t-65 119.5t-21.5 138q0 70 21.5 136.5t65 119t107.5 84.5t150 32q85 0 149.5 -32t107.5 -84.5t64.5 -119t21.5 -136.5q0 -71 -21.5 -138t-64.5 -119.5t-107.5 -84.5t-149.5 -32q-86 0 -150 32zM195 93q33 -41 81.5 -65.5t111.5 -24.5
t111.5 24.5t81 65.5t49 94t16.5 110q0 56 -16.5 109t-49 94t-81 65.5t-111.5 24.5q-64 0 -112.5 -24.5t-81 -65.5t-49 -94t-16.5 -109q0 -57 16.5 -110t49.5 -94zM565 167q-32 -57 -73 -78.5t-96 -21.5q-45 0 -82.5 15.5t-64.5 45t-41.5 71.5t-14.5 96q0 58 16.5 101.5
t44 72t63.5 42.5t75 14q63 0 103.5 -26t65.5 -80l-84 -46q-15 31 -33.5 48.5t-49.5 17.5q-19 0 -37 -8.5t-31.5 -26.5t-22 -45t-8.5 -64q0 -66 30.5 -103.5t73.5 -37.5q23 0 43 12t41 50z" />
    <glyph glyph-name="ordfeminine" unicode="&#xaa;" horiz-adv-x="371" 
d="M225 302l-4 26q-13 -12 -34 -22.5t-50 -10.5q-23 0 -44.5 7t-38.5 20.5t-27 34.5t-10 50q0 31 16.5 53.5t43.5 37.5t63 23t75 11v10q0 11 -10 18.5t-27 7.5q-16 0 -29.5 -5.5t-24.5 -13.5l-74 71q11 7 24 15t30 14.5t39.5 10.5t52.5 4q73 0 111 -35.5t38 -101.5v-225
h-120zM216 452l-22 -4t-19 -5q-31 -10 -31 -35q0 -13 5.5 -19.5t22.5 -6.5q12 0 23.5 5.5t20.5 14.5v50z" />
    <glyph glyph-name="guillemotleft" unicode="&#xab;" horiz-adv-x="574" 
d="M437 42l-168 208l151 210l133 -92l-84 -112l98 -114zM169 25l-164 225l150 233l150 -88l-100 -139l107 -143z" />
    <glyph glyph-name="logicalnot" unicode="&#xac;" 
d="M43 252v160h514v-318h-169v158h-345z" />
    <glyph glyph-name="uni00AD" unicode="&#xad;" horiz-adv-x="330" 
d="M18 201v159h294v-159h-294z" />
    <glyph glyph-name="registered" unicode="&#xae;" horiz-adv-x="776" 
d="M238 -45q-64 32 -107 84.5t-64.5 119.5t-21.5 138q0 70 21.5 136.5t65 119t107.5 84.5t150 32q85 0 149 -32t107 -84.5t64.5 -119t21.5 -136.5q0 -71 -21.5 -138t-64.5 -119.5t-107.5 -84.5t-149.5 -32q-86 0 -150 32zM195 93q33 -41 81.5 -65.5t112.5 -24.5
q63 0 111 24.5t81 65.5t49.5 94t16.5 110q0 56 -16.5 109t-49 94t-81 65.5t-111.5 24.5q-64 0 -112.5 -24.5t-81.5 -65.5t-49.5 -94t-16.5 -109q0 -57 16.5 -110t49.5 -94zM245 102v406h152q81 0 120 -32.5t39 -95.5q0 -51 -23 -79.5t-58 -40.5l85 -158h-99l-77 147h-46
v-147h-93zM338 334h52q38 0 54 10t16 39q0 24 -14.5 32t-51.5 8h-56v-89z" />
    <glyph glyph-name="macron" unicode="&#xaf;" horiz-adv-x="324" 
d="M0 577v115h324v-115h-324z" />
    <glyph glyph-name="degree" unicode="&#xb0;" horiz-adv-x="396" 
d="M77 392q-22 21 -34.5 50.5t-12.5 65.5t12.5 65.5t35 50t53 32t67.5 11.5t67.5 -11.5t53 -32t35 -50t12.5 -65.5t-12.5 -65.5t-34.5 -50.5t-53 -32.5t-68 -11.5t-68 11.5t-53 32.5zM144 507q0 -31 17 -46.5t37 -15.5t37 15.5t17 46.5q0 32 -17 47.5t-37 15.5t-37 -15.5
t-17 -47.5z" />
    <glyph glyph-name="plusminus" unicode="&#xb1;" 
d="M43 327v160h172v181h169v-181h173v-160h-173v-122h-169v122h-172zM43 0v160h514v-160h-514z" />
    <glyph glyph-name="twosuperior" unicode="&#xb2;" horiz-adv-x="370" 
d="M35 325v61q38 29 79.5 60.5t72.5 57.5q14 12 21 22t7 24q0 26 -32 26q-17 0 -29.5 -13t-20.5 -27l-116 47q10 17 27 33.5t39.5 29.5t51 21t61.5 8t61.5 -8.5t49.5 -23.5t33.5 -35t12.5 -44t-10 -44t-26 -37.5t-37.5 -32.5t-43.5 -30h115v-95h-316z" />
    <glyph glyph-name="threesuperior" unicode="&#xb3;" horiz-adv-x="370" 
d="M116 445q8 -13 22.5 -21t34.5 -8q44 0 44 24q0 13 -13 18.5t-51 5.5v68q37 0 47.5 6t10.5 17q0 22 -37 22q-15 0 -29.5 -7.5t-23.5 -18.5l-93 55q13 15 28 27.5t34.5 22t45 14.5t58.5 5q72 0 111.5 -25t39.5 -70q0 -36 -19.5 -53t-41.5 -26q27 -6 47 -23.5t20 -55.5
q0 -48 -42.5 -76.5t-120.5 -28.5q-66 0 -106 19.5t-63 52.5z" />
    <glyph glyph-name="acute" unicode="&#xb4;" horiz-adv-x="300" 
d="M49 534l-49 95l241 118l59 -124z" />
    <glyph glyph-name="mu" unicode="&#xb5;" horiz-adv-x="638" 
d="M45 -188v681h211v-257v-18.5t1 -18.5q2 -27 12.5 -41t36.5 -14q20 0 32 13t14 48q1 9 1 20v20v248h211v-296q0 -43 10.5 -57.5t29.5 -14.5q18 0 39 7l10 -126q-21 -8 -43.5 -12t-45.5 -4q-51 0 -82 18.5t-44 49.5q-16 -37 -43 -53q-16 -9 -31 -12t-28 -3q-32 0 -54.5 11
t-32.5 25v-214h-204z" />
    <glyph glyph-name="paragraph" unicode="&#xb6;" horiz-adv-x="530" 
d="M355 -145v812h109v-812h-109zM200 -145v397q-41 5 -75 23t-58 45.5t-37.5 63t-13.5 74.5q0 42 15.5 79.5t43.5 66.5t66.5 46t85.5 17h80v-812h-107z" />
    <glyph glyph-name="periodcentered" unicode="&#xb7;" horiz-adv-x="326" 
d="M89 296q-29 29 -29 72t29.5 71.5t74.5 28.5t74.5 -28.5t29.5 -71.5t-29.5 -71.5t-74.5 -28.5t-75 28z" />
    <glyph glyph-name="cedilla" unicode="&#xb8;" horiz-adv-x="230" 
d="M-7 -206l68 149h162l-89 -149h-141z" />
    <glyph glyph-name="onesuperior" unicode="&#xb9;" horiz-adv-x="365" 
d="M129 325v210l-62 -33l-47 89l142 73h111v-339h-144z" />
    <glyph glyph-name="ordmasculine" unicode="&#xba;" horiz-adv-x="413" 
d="M126 309q-34 15 -57 40t-34.5 59t-11.5 72q0 39 12 72.5t35 58t57 39t78 14.5t78 -14.5t57.5 -39t35.5 -58t12 -72.5q0 -38 -11.5 -72t-35 -59t-57.5 -39.5t-79 -14.5t-79 14zM171 421q13 -18 34 -18t34.5 18.5t13.5 58.5q0 42 -13 60.5t-35 18.5q-21 0 -34 -18.5
t-13 -60.5q0 -40 13 -59z" />
    <glyph glyph-name="guillemotright" unicode="&#xbb;" horiz-adv-x="574" 
d="M269 113l100 139l-107 143l143 88l164 -225l-150 -233zM21 140l84 112l-98 114l130 100l168 -208l-151 -210z" />
    <glyph glyph-name="onequarter" unicode="&#xbc;" horiz-adv-x="920" 
d="M189 -20l-90 93l675 612l92 -89zM157 325v210l-62 -33l-47 89l142 73h111v-339h-144zM524 62v93l158 192h142v-198h40v-87h-40v-59h-149v59h-151zM604 149h71v86z" />
    <glyph glyph-name="onehalf" unicode="&#xbd;" horiz-adv-x="920" 
d="M145 -20l-90 93l675 612l92 -89zM126 325v210l-62 -33l-47 89l142 73h111v-339h-144zM554 3v61q38 29 79.5 60.5t72.5 57.5q14 12 21 22t7 24q0 26 -32 26q-17 0 -29.5 -13t-20.5 -27l-116 47q10 17 27 33.5t39.5 29.5t51 21t61.5 8t61.5 -8.5t49.5 -23.5t33.5 -35
t12.5 -44t-10 -44t-26 -37.5t-37.5 -32.5t-43.5 -30h115v-95h-316z" />
    <glyph glyph-name="threequarters" unicode="&#xbe;" horiz-adv-x="920" 
d="M189 -20l-90 93l675 612l92 -89zM130 445q8 -13 22.5 -21t34.5 -8q44 0 44 24q0 13 -13 18.5t-51 5.5v68q37 0 47.5 6t10.5 17q0 22 -37 22q-15 0 -29.5 -7.5t-23.5 -18.5l-93 55q13 15 28 27.5t34.5 22t45 14.5t58.5 5q72 0 111.5 -25t39.5 -70q0 -36 -19.5 -53
t-41.5 -26q27 -6 47 -23.5t20 -55.5q0 -48 -42.5 -76.5t-120.5 -28.5q-66 0 -106 19.5t-63 52.5zM529 62v93l158 192h142v-198h40v-87h-40v-59h-149v59h-151zM609 149h71v86z" />
    <glyph glyph-name="questiondown" unicode="&#xbf;" horiz-adv-x="488" 
d="M184 336q-29 24 -29 67t29.5 66.5t74.5 23.5t74.5 -23.5t29.5 -66.5t-29.5 -66.5t-74.5 -23.5t-75 23zM159 253h204v-37q0 -45 -16 -75.5t-42 -50.5q-22 -17 -37.5 -29.5t-26 -23t-15.5 -20.5t-5 -21q0 -15 10 -25t30 -10q24 0 46 21t36 45l150 -93q-17 -28 -39 -52
t-51.5 -41.5t-68 -27.5t-87.5 -10q-56 0 -99 13.5t-73 37.5t-45.5 57.5t-15.5 73.5q0 58 23.5 95.5t62.5 66.5q34 26 46.5 46t12.5 52v8z" />
    <glyph glyph-name="Agrave" unicode="&#xc0;" horiz-adv-x="700" 
d="M-10 0l248 667h225l247 -667h-229l-35 99h-196l-35 -99h-225zM287 255h120l-60 190zM168 786l59 124l241 -118l-49 -95z" />
    <glyph glyph-name="Aacute" unicode="&#xc1;" horiz-adv-x="700" 
d="M-10 0l248 667h225l247 -667h-229l-35 99h-196l-35 -99h-225zM287 255h120l-60 190zM275 697l-49 95l241 118l59 -124z" />
    <glyph glyph-name="Acircumflex" unicode="&#xc2;" horiz-adv-x="700" 
d="M-10 0l248 667h225l247 -667h-229l-35 99h-196l-35 -99h-225zM287 255h120l-60 190zM227 703l-60 80l122 99h128l122 -102l-69 -77l-117 71z" />
    <glyph glyph-name="Atilde" unicode="&#xc3;" horiz-adv-x="700" 
d="M-10 0l248 667h225l247 -667h-229l-35 99h-196l-35 -99h-225zM287 255h120l-60 190zM137 752q17 64 50 99.5t78 35.5q19 0 37 -6.5t35 -14.5t33 -14.5t31 -6.5q24 0 36 12.5t19 32.5l92 -30q-5 -29 -15 -54t-25.5 -44t-37 -30t-49.5 -11q-21 0 -40 6.5t-36.5 14.5
t-34 14.5t-31.5 6.5q-21 0 -32 -11t-22 -37z" />
    <glyph glyph-name="Adieresis" unicode="&#xc4;" horiz-adv-x="700" 
d="M-10 0l248 667h225l247 -667h-229l-35 99h-196l-35 -99h-225zM287 255h120l-60 190zM399 737q-24 22 -24 57t24.5 58t70.5 23q45 0 69 -23t24 -58t-24 -57t-69 -22q-46 0 -71 22zM160 737q-24 22 -24 57t24.5 58t70.5 23q45 0 69 -23t24 -58t-24 -57t-69 -22
q-46 0 -71 22z" />
    <glyph glyph-name="Aring" unicode="&#xc5;" horiz-adv-x="700" 
d="M288 674q-26 11 -43 28.5t-25.5 40.5t-8.5 47t8.5 47.5t25.5 41.5t43 29t62 11t62 -11t43 -29t25.5 -41.5t8.5 -47.5t-8.5 -47t-25.5 -40.5t-43 -28.5q-10 -4 -21 -7h72l247 -667h-229l-35 99h-196l-35 -99h-225l248 667h71q-12 3 -21 7zM287 255h120l-60 190zM299 791
q0 -22 14 -35.5t37 -13.5t37 13.5t14 35.5q0 23 -14 36.5t-37 13.5t-37 -13.5t-14 -36.5z" />
    <glyph glyph-name="AE" unicode="&#xc6;" horiz-adv-x="957" 
d="M-10 0l379 668h545v-181h-260v-74h207v-159h-207v-73h280v-181h-490v99h-177l-52 -99h-225zM329 255h115v215z" />
    <glyph glyph-name="Ccedilla" unicode="&#xc7;" horiz-adv-x="661" 
d="M639 167q-17 -38 -41 -71t-58.5 -57.5t-82 -38.5t-110.5 -14q-76 0 -135 25t-99.5 71t-61.5 109.5t-21 141.5q0 84 24.5 148.5t67 108.5t100.5 67t126 23q75 0 123.5 -17t85.5 -49q30 -26 49.5 -56.5t32.5 -64.5l-188 -90q-6 20 -14 38.5t-19.5 32.5t-28 22.5t-38.5 8.5
q-54 0 -77.5 -45.5t-23.5 -126.5q0 -79 29 -124.5t75 -45.5q45 0 69.5 27.5t36.5 66.5zM202 -206l68 149h162l-89 -149h-141z" />
    <glyph glyph-name="Egrave" unicode="&#xc8;" horiz-adv-x="581" 
d="M50 0v667h488v-180h-273v-74h220v-159h-220v-73h293v-181h-508zM142 786l59 124l241 -118l-49 -95z" />
    <glyph glyph-name="Eacute" unicode="&#xc9;" horiz-adv-x="581" 
d="M50 0v667h488v-180h-273v-74h220v-159h-220v-73h293v-181h-508zM202 697l-49 95l241 118l59 -124z" />
    <glyph glyph-name="Ecircumflex" unicode="&#xca;" horiz-adv-x="581" 
d="M50 0v667h488v-180h-273v-74h220v-159h-220v-73h293v-181h-508zM170 703l-60 80l122 99h128l122 -102l-69 -77l-117 71z" />
    <glyph glyph-name="Edieresis" unicode="&#xcb;" horiz-adv-x="581" 
d="M50 0v667h488v-180h-273v-74h220v-159h-220v-73h293v-181h-508zM353 737q-24 22 -24 57t24.5 58t70.5 23q45 0 69 -23t24 -58t-24 -57t-69 -22q-46 0 -71 22zM114 737q-24 22 -24 57t24.5 58t70.5 23q45 0 69 -23t24 -58t-24 -57t-69 -22q-46 0 -71 22z" />
    <glyph glyph-name="Igrave" unicode="&#xcc;" horiz-adv-x="315" 
d="M50 0v667h215v-667h-215zM-4 786l59 124l241 -118l-49 -95z" />
    <glyph glyph-name="Iacute" unicode="&#xcd;" horiz-adv-x="315" 
d="M50 0v667h215v-667h-215zM100 697l-49 95l241 118l59 -124z" />
    <glyph glyph-name="Icircumflex" unicode="&#xce;" horiz-adv-x="315" 
d="M50 0v667h215v-667h-215zM38 703l-60 80l122 99h128l122 -102l-69 -77l-117 71z" />
    <glyph glyph-name="Idieresis" unicode="&#xcf;" horiz-adv-x="315" 
d="M50 0v667h215v-667h-215zM212 737q-24 22 -24 57t24.5 58t70.5 23q45 0 69 -23t24 -58t-24 -57t-69 -22q-46 0 -71 22zM-27 737q-24 22 -24 57t24.5 58t70.5 23q45 0 69 -23t24 -58t-24 -57t-69 -22q-46 0 -71 22z" />
    <glyph glyph-name="Eth" unicode="&#xd0;" horiz-adv-x="681" 
d="M50 0v264h-63v150h63v254h254q83 0 148 -24t110 -67.5t68.5 -105t23.5 -136.5q0 -74 -23.5 -135.5t-68.5 -105.5t-110 -69t-148 -25h-254zM265 180h40q54 0 91.5 39t37.5 116q0 79 -37.5 116t-91.5 37h-40v-74h94v-150h-94v-84z" />
    <glyph glyph-name="Ntilde" unicode="&#xd1;" horiz-adv-x="700" 
d="M50 0v667h216l174 -301v301h210v-667h-199l-191 325v-325h-210zM153 752q17 64 50 99.5t78 35.5q19 0 37 -6.5t35 -14.5t33 -14.5t31 -6.5q24 0 36 12.5t19 32.5l92 -30q-5 -29 -15 -54t-25.5 -44t-37 -30t-49.5 -11q-21 0 -40 6.5t-36.5 14.5t-34 14.5t-31.5 6.5
q-21 0 -32 -11t-22 -37z" />
    <glyph glyph-name="Ograve" unicode="&#xd2;" horiz-adv-x="710" 
d="M215 11q-60 26 -101.5 72.5t-62.5 110t-21 140.5q0 76 21 140t62.5 109.5t102 71t139.5 25.5t139.5 -25.5t102 -71t62.5 -109.5t21 -140q0 -77 -21 -140.5t-62.5 -110t-102 -72t-139.5 -25.5t-140 25zM276 207q27 -45 79 -45t78.5 45t26.5 127q0 81 -26.5 125.5
t-78.5 44.5t-78.5 -44.5t-26.5 -125.5q0 -82 26 -127zM199 786l59 124l241 -118l-49 -95z" />
    <glyph glyph-name="Oacute" unicode="&#xd3;" horiz-adv-x="710" 
d="M215 11q-60 26 -101.5 72.5t-62.5 110t-21 140.5q0 76 21 140t62.5 109.5t102 71t139.5 25.5t139.5 -25.5t102 -71t62.5 -109.5t21 -140q0 -77 -21 -140.5t-62.5 -110t-102 -72t-139.5 -25.5t-140 25zM276 207q27 -45 79 -45t78.5 45t26.5 127q0 81 -26.5 125.5
t-78.5 44.5t-78.5 -44.5t-26.5 -125.5q0 -82 26 -127zM260 697l-49 95l241 118l59 -124z" />
    <glyph glyph-name="Ocircumflex" unicode="&#xd4;" horiz-adv-x="710" 
d="M215 11q-60 26 -101.5 72.5t-62.5 110t-21 140.5q0 76 21 140t62.5 109.5t102 71t139.5 25.5t139.5 -25.5t102 -71t62.5 -109.5t21 -140q0 -77 -21 -140.5t-62.5 -110t-102 -72t-139.5 -25.5t-140 25zM276 207q27 -45 79 -45t78.5 45t26.5 127q0 81 -26.5 125.5
t-78.5 44.5t-78.5 -44.5t-26.5 -125.5q0 -82 26 -127zM230 703l-60 80l122 99h128l122 -102l-69 -77l-117 71z" />
    <glyph glyph-name="Otilde" unicode="&#xd5;" horiz-adv-x="710" 
d="M215 11q-60 26 -101.5 72.5t-62.5 110t-21 140.5q0 76 21 140t62.5 109.5t102 71t139.5 25.5t139.5 -25.5t102 -71t62.5 -109.5t21 -140q0 -77 -21 -140.5t-62.5 -110t-102 -72t-139.5 -25.5t-140 25zM276 207q27 -45 79 -45t78.5 45t26.5 127q0 81 -26.5 125.5
t-78.5 44.5t-78.5 -44.5t-26.5 -125.5q0 -82 26 -127zM142 752q17 64 50 99.5t78 35.5q19 0 37 -6.5t35 -14.5t33 -14.5t31 -6.5q24 0 36 12.5t19 32.5l92 -30q-5 -29 -15 -54t-25.5 -44t-37 -30t-49.5 -11q-21 0 -40 6.5t-36.5 14.5t-34 14.5t-31.5 6.5q-21 0 -32 -11
t-22 -37z" />
    <glyph glyph-name="Odieresis" unicode="&#xd6;" horiz-adv-x="710" 
d="M215 11q-60 26 -101.5 72.5t-62.5 110t-21 140.5q0 76 21 140t62.5 109.5t102 71t139.5 25.5t139.5 -25.5t102 -71t62.5 -109.5t21 -140q0 -77 -21 -140.5t-62.5 -110t-102 -72t-139.5 -25.5t-140 25zM276 207q27 -45 79 -45t78.5 45t26.5 127q0 81 -26.5 125.5
t-78.5 44.5t-78.5 -44.5t-26.5 -125.5q0 -82 26 -127zM405 737q-24 22 -24 57t24.5 58t70.5 23q45 0 69 -23t24 -58t-24 -57t-69 -22q-46 0 -71 22zM166 737q-24 22 -24 57t24.5 58t70.5 23q45 0 69 -23t24 -58t-24 -57t-69 -22q-46 0 -71 22z" />
    <glyph glyph-name="multiply" unicode="&#xd7;" 
d="M176 94l-113 113l121 122l-128 128l120 120l128 -128l122 122l113 -113l-122 -123l126 -125l-120 -120l-125 126z" />
    <glyph glyph-name="Oslash" unicode="&#xd8;" horiz-adv-x="710" 
d="M32 44l59 68q-61 89 -61 222q0 76 21 140t62.5 109.5t102 71t139.5 25.5q57 0 102.5 -13t83.5 -37l56 65l92 -79l-63 -72q54 -86 54 -210q0 -77 -21 -140.5t-62.5 -110t-102 -72t-139.5 -25.5q-102 0 -175 43l-56 -64zM276 207q27 -45 79 -45t78.5 45t26.5 127
q0 81 -26.5 125.5t-78.5 44.5t-78.5 -44.5t-26.5 -125.5q0 -82 26 -127z" />
    <glyph glyph-name="Ugrave" unicode="&#xd9;" horiz-adv-x="694" 
d="M261 258q0 -49 22 -70.5t64 -21.5t64 21.5t22 70.5v409h215v-419q0 -126 -78.5 -194t-222.5 -68t-222.5 68t-78.5 194v419h215v-409zM179 786l59 124l241 -118l-49 -95z" />
    <glyph glyph-name="Uacute" unicode="&#xda;" horiz-adv-x="694" 
d="M261 258q0 -49 22 -70.5t64 -21.5t64 21.5t22 70.5v409h215v-419q0 -126 -78.5 -194t-222.5 -68t-222.5 68t-78.5 194v419h215v-409zM260 697l-49 95l241 118l59 -124z" />
    <glyph glyph-name="Ucircumflex" unicode="&#xdb;" horiz-adv-x="694" 
d="M261 258q0 -49 22 -70.5t64 -21.5t64 21.5t22 70.5v409h215v-419q0 -126 -78.5 -194t-222.5 -68t-222.5 68t-78.5 194v419h215v-409zM225 703l-60 80l122 99h128l122 -102l-69 -77l-117 71z" />
    <glyph glyph-name="Udieresis" unicode="&#xdc;" horiz-adv-x="694" 
d="M261 258q0 -49 22 -70.5t64 -21.5t64 21.5t22 70.5v409h215v-419q0 -126 -78.5 -194t-222.5 -68t-222.5 68t-78.5 194v419h215v-409zM398 737q-24 22 -24 57t24.5 58t70.5 23q45 0 69 -23t24 -58t-24 -57t-69 -22q-46 0 -71 22zM159 737q-24 22 -24 57t24.5 58t70.5 23
q45 0 69 -23t24 -58t-24 -57t-69 -22q-46 0 -71 22z" />
    <glyph glyph-name="Yacute" unicode="&#xdd;" horiz-adv-x="686" 
d="M237 0v253l-247 414h245l111 -210l107 210h243l-244 -413v-254h-215zM267 697l-49 95l241 118l59 -124z" />
    <glyph glyph-name="Thorn" unicode="&#xde;" horiz-adv-x="609" 
d="M50 0v668h212v-93h70q62 0 111.5 -16t84 -46t53 -73t18.5 -98t-18.5 -98t-53 -73t-84 -46t-111.5 -16h-70v-109h-212zM262 280h63q29 0 45 18t16 44t-16 43t-45 17h-63v-122z" />
    <glyph glyph-name="germandbls" unicode="&#xdf;" horiz-adv-x="719" 
d="M73 0v353h-67v140h67q10 88 72.5 137.5t182.5 49.5q62 0 107.5 -15t75 -41.5t44 -63.5t14.5 -80v-92q27 -7 52.5 -20.5t45.5 -36t32 -55.5t12 -79q0 -97 -55 -152t-155 -55q-65 0 -105.5 15.5t-70.5 40.5l69 96q14 -11 30 -19t34 -8q24 0 39.5 17t15.5 57q0 48 -36.5 72
t-105.5 30v197q0 26 -11 41.5t-32 15.5q-44 0 -44 -51v-494h-211z" />
    <glyph glyph-name="agrave" unicode="&#xe0;" horiz-adv-x="533" 
d="M326 0l-20 39q-20 -16 -54.5 -30.5t-85.5 -14.5q-70 0 -111 39t-41 105q0 35 12.5 62t34.5 46.5t51.5 31t63.5 16.5q38 6 63 7t51 2v10q0 26 -17.5 39t-43.5 13q-54 0 -90 -30l-98 92q17 16 37 30t47 24.5t62.5 16.5t82.5 6q106 0 165.5 -49t59.5 -149v-306h-169z
M290 217q-11 0 -20 -0.5t-21 -2.5q-22 -4 -32.5 -18t-10.5 -33q0 -18 11.5 -29.5t31.5 -11.5q13 0 22.5 3t18.5 8v84zM107 623l59 124l241 -118l-49 -95z" />
    <glyph glyph-name="aacute" unicode="&#xe1;" horiz-adv-x="533" 
d="M326 0l-20 39q-20 -16 -54.5 -30.5t-85.5 -14.5q-70 0 -111 39t-41 105q0 35 12.5 62t34.5 46.5t51.5 31t63.5 16.5q38 6 63 7t51 2v10q0 26 -17.5 39t-43.5 13q-54 0 -90 -30l-98 92q17 16 37 30t47 24.5t62.5 16.5t82.5 6q106 0 165.5 -49t59.5 -149v-306h-169z
M290 217q-11 0 -20 -0.5t-21 -2.5q-22 -4 -32.5 -18t-10.5 -33q0 -18 11.5 -29.5t31.5 -11.5q13 0 22.5 3t18.5 8v84zM160 534l-49 95l241 118l59 -124z" />
    <glyph glyph-name="acircumflex" unicode="&#xe2;" horiz-adv-x="533" 
d="M326 0l-20 39q-20 -16 -54.5 -30.5t-85.5 -14.5q-70 0 -111 39t-41 105q0 35 12.5 62t34.5 46.5t51.5 31t63.5 16.5q38 6 63 7t51 2v10q0 26 -17.5 39t-43.5 13q-54 0 -90 -30l-98 92q17 16 37 30t47 24.5t62.5 16.5t82.5 6q106 0 165.5 -49t59.5 -149v-306h-169z
M290 217q-11 0 -20 -0.5t-21 -2.5q-22 -4 -32.5 -18t-10.5 -33q0 -18 11.5 -29.5t31.5 -11.5q13 0 22.5 3t18.5 8v84zM139 540l-60 80l122 99h128l122 -102l-69 -77l-117 71z" />
    <glyph glyph-name="atilde" unicode="&#xe3;" horiz-adv-x="533" 
d="M326 0l-20 39q-20 -16 -54.5 -30.5t-85.5 -14.5q-70 0 -111 39t-41 105q0 35 12.5 62t34.5 46.5t51.5 31t63.5 16.5q38 6 63 7t51 2v10q0 26 -17.5 39t-43.5 13q-54 0 -90 -30l-98 92q17 16 37 30t47 24.5t62.5 16.5t82.5 6q106 0 165.5 -49t59.5 -149v-306h-169z
M290 217q-11 0 -20 -0.5t-21 -2.5q-22 -4 -32.5 -18t-10.5 -33q0 -18 11.5 -29.5t31.5 -11.5q13 0 22.5 3t18.5 8v84zM61 589q17 64 50 99.5t78 35.5q19 0 37 -6.5t35 -14.5t33 -14.5t31 -6.5q24 0 36 12.5t19 32.5l92 -30q-5 -29 -15 -54t-25.5 -44t-37 -30t-49.5 -11
q-21 0 -40 6.5t-36.5 14.5t-34 14.5t-31.5 6.5q-21 0 -32 -11t-22 -37z" />
    <glyph glyph-name="adieresis" unicode="&#xe4;" horiz-adv-x="533" 
d="M326 0l-20 39q-20 -16 -54.5 -30.5t-85.5 -14.5q-70 0 -111 39t-41 105q0 35 12.5 62t34.5 46.5t51.5 31t63.5 16.5q38 6 63 7t51 2v10q0 26 -17.5 39t-43.5 13q-54 0 -90 -30l-98 92q17 16 37 30t47 24.5t62.5 16.5t82.5 6q106 0 165.5 -49t59.5 -149v-306h-169z
M290 217q-11 0 -20 -0.5t-21 -2.5q-22 -4 -32.5 -18t-10.5 -33q0 -18 11.5 -29.5t31.5 -11.5q13 0 22.5 3t18.5 8v84zM315 574q-24 22 -24 57t24.5 58t70.5 23q45 0 69 -23t24 -58t-24 -57t-69 -22q-46 0 -71 22zM76 574q-24 22 -24 57t24.5 58t70.5 23q45 0 69 -23t24 -58
t-24 -57t-69 -22q-46 0 -71 22z" />
    <glyph glyph-name="aring" unicode="&#xe5;" horiz-adv-x="533" 
d="M326 0l-20 39q-20 -16 -54.5 -30.5t-85.5 -14.5q-70 0 -111 39t-41 105q0 35 12.5 62t34.5 46.5t51.5 31t63.5 16.5q38 6 63 7t51 2v10q0 26 -17.5 39t-43.5 13q-54 0 -90 -30l-98 92q17 16 37 30t47 24.5t62.5 16.5t82.5 6q106 0 165.5 -49t59.5 -149v-306h-169z
M290 217q-11 0 -20 -0.5t-21 -2.5q-22 -4 -32.5 -18t-10.5 -33q0 -18 11.5 -29.5t31.5 -11.5q13 0 22.5 3t18.5 8v84zM204 548q-26 11 -43 28.5t-25.5 40.5t-8.5 47t8.5 47.5t25.5 41.5t43 29t62 11t62 -11t43 -29t25.5 -41.5t8.5 -47.5t-8.5 -47t-25.5 -40.5t-43 -28.5
t-62 -11t-62 11zM215 665q0 -22 14 -35.5t37 -13.5t37 13.5t14 35.5q0 23 -14 36.5t-37 13.5t-37 -13.5t-14 -36.5z" />
    <glyph glyph-name="ae" unicode="&#xe6;" horiz-adv-x="826" 
d="M41 427q38 34 89 55.5t127 21.5q31 0 54.5 -4t42 -11.5t33 -17t27.5 -20.5q20 18 55 35.5t93 17.5q115 0 179.5 -71t64.5 -222h-303q2 -29 23 -51.5t59 -22.5q31 0 50 11t31 23l122 -93q-30 -36 -80 -62t-130 -26q-37 0 -65.5 6.5t-50 16t-37 21.5t-26.5 23
q-34 -27 -78.5 -45t-115.5 -18q-91 0 -141 36.5t-50 102.5q0 67 43.5 105.5t116.5 52.5q38 8 64 9.5t52 2.5v10q0 26 -17.5 39t-43.5 13q-29 0 -50.5 -8t-39.5 -22zM619 308q-2 31 -16.5 52.5t-40.5 21.5q-28 0 -43.5 -21.5t-17.5 -52.5h118zM290 217q-11 0 -20 -0.5
t-21 -2.5q-20 -4 -31.5 -18t-11.5 -33q0 -16 12.5 -28.5t30.5 -12.5q13 0 22.5 3t18.5 8v84z" />
    <glyph glyph-name="ccedilla" unicode="&#xe7;" horiz-adv-x="548" 
d="M358 287q-7 30 -21 49t-40 19q-29 0 -46.5 -26t-17.5 -83q0 -55 18 -82.5t46 -27.5t44.5 19.5t22.5 53.5l172 -72q-28 -68 -87 -107.5t-164 -39.5q-57 0 -105 17.5t-82.5 50t-53.5 79.5t-19 107t18.5 108t53 82t83 52t108.5 18q103 0 161 -42t84 -112zM141 -206l68 149
h162l-89 -149h-141z" />
    <glyph glyph-name="egrave" unicode="&#xe8;" horiz-adv-x="516" 
d="M227 211q1 -29 22 -51.5t63 -22.5q32 0 52 10.5t31 23.5l122 -93q-13 -17 -32 -32.5t-46 -28t-64 -20t-86 -7.5q-56 0 -104 16.5t-83.5 48.5t-56 79.5t-20.5 110.5q0 61 19.5 109t54 81.5t82.5 51t105 17.5q115 0 182 -71t67 -222h-308zM346 308q-2 32 -16.5 53t-40.5 21
q-28 0 -43.5 -21.5t-17.5 -52.5h118zM122 623l59 124l241 -118l-49 -95z" />
    <glyph glyph-name="eacute" unicode="&#xe9;" horiz-adv-x="516" 
d="M227 211q1 -29 22 -51.5t63 -22.5q32 0 52 10.5t31 23.5l122 -93q-13 -17 -32 -32.5t-46 -28t-64 -20t-86 -7.5q-56 0 -104 16.5t-83.5 48.5t-56 79.5t-20.5 110.5q0 61 19.5 109t54 81.5t82.5 51t105 17.5q115 0 182 -71t67 -222h-308zM346 308q-2 32 -16.5 53t-40.5 21
q-28 0 -43.5 -21.5t-17.5 -52.5h118zM178 534l-49 95l241 118l59 -124z" />
    <glyph glyph-name="ecircumflex" unicode="&#xea;" horiz-adv-x="516" 
d="M227 211q1 -29 22 -51.5t63 -22.5q32 0 52 10.5t31 23.5l122 -93q-13 -17 -32 -32.5t-46 -28t-64 -20t-86 -7.5q-56 0 -104 16.5t-83.5 48.5t-56 79.5t-20.5 110.5q0 61 19.5 109t54 81.5t82.5 51t105 17.5q115 0 182 -71t67 -222h-308zM346 308q-2 32 -16.5 53t-40.5 21
q-28 0 -43.5 -21.5t-17.5 -52.5h118zM157 540l-60 80l122 99h128l122 -102l-69 -77l-117 71z" />
    <glyph glyph-name="edieresis" unicode="&#xeb;" horiz-adv-x="516" 
d="M227 211q1 -29 22 -51.5t63 -22.5q32 0 52 10.5t31 23.5l122 -93q-13 -17 -32 -32.5t-46 -28t-64 -20t-86 -7.5q-56 0 -104 16.5t-83.5 48.5t-56 79.5t-20.5 110.5q0 61 19.5 109t54 81.5t82.5 51t105 17.5q115 0 182 -71t67 -222h-308zM346 308q-2 32 -16.5 53t-40.5 21
q-28 0 -43.5 -21.5t-17.5 -52.5h118zM331 574q-24 22 -24 57t24.5 58t70.5 23q45 0 69 -23t24 -58t-24 -57t-69 -22q-46 0 -71 22zM92 574q-24 22 -24 57t24.5 58t70.5 23q45 0 69 -23t24 -58t-24 -57t-69 -22q-46 0 -71 22z" />
    <glyph glyph-name="igrave" unicode="&#xec;" horiz-adv-x="290" 
d="M40 0v493h210v-493h-210zM-11 623l59 124l241 -118l-49 -95z" />
    <glyph glyph-name="iacute" unicode="&#xed;" horiz-adv-x="290" 
d="M40 0v493h210v-493h-210zM49 534l-49 95l241 118l59 -124z" />
    <glyph glyph-name="icircumflex" unicode="&#xee;" horiz-adv-x="290" 
d="M40 0v493h210v-493h-210zM23 540l-60 80l122 99h128l122 -102l-69 -77l-117 71z" />
    <glyph glyph-name="idieresis" unicode="&#xef;" horiz-adv-x="290" 
d="M40 0v493h210v-493h-210zM199 574q-24 22 -24 57t24.5 58t70.5 23q45 0 69 -23t24 -58t-24 -57t-69 -22q-46 0 -71 22zM-40 574q-24 22 -24 57t24.5 58t70.5 23q45 0 69 -23t24 -58t-24 -57t-69 -22q-46 0 -71 22z" />
    <glyph glyph-name="eth" unicode="&#xf0;" horiz-adv-x="578" 
d="M160 698q19 -2 42 -6.5t45.5 -11t42.5 -14t33 -15.5l53 57l106 -79l-49 -55q57 -57 90 -130t33 -176q0 -62 -18 -113.5t-53 -88t-85.5 -56.5t-114.5 -20q-57 0 -105 17.5t-83 50.5t-55 81t-20 110q0 48 20 89t55.5 72t84.5 50.5t108 23.5q-23 28 -71 51.5t-100 35.5z
M339 327q-2 12 -4 19q-20 -1 -39 -6.5t-33.5 -17t-23 -29t-8.5 -43.5q0 -57 16 -85.5t43 -28.5q29 0 44 27t15 90q0 11 -1.5 24t-3.5 26t-5 24z" />
    <glyph glyph-name="ntilde" unicode="&#xf1;" horiz-adv-x="597" 
d="M40 0v493h180l11 -44q19 19 55 37t87 18q85 0 135.5 -45.5t50.5 -133.5v-325h-211v298q0 55 -45 55q-17 0 -29.5 -5.5t-22.5 -13.5v-334h-211zM91 589q17 64 50 99.5t78 35.5q19 0 37 -6.5t35 -14.5t33 -14.5t31 -6.5q24 0 36 12.5t19 32.5l92 -30q-5 -29 -15 -54
t-25.5 -44t-37 -30t-49.5 -11q-21 0 -40 6.5t-36.5 14.5t-34 14.5t-31.5 6.5q-21 0 -32 -11t-22 -37z" />
    <glyph glyph-name="ograve" unicode="&#xf2;" horiz-adv-x="584" 
d="M97 61q-34 34 -53 81.5t-19 106.5q0 58 19 105.5t53.5 80.5t84 51t110.5 18t110.5 -18t84 -51t53.5 -80.5t19 -105.5q0 -59 -19 -106.5t-53.5 -81.5t-84 -52.5t-110.5 -18.5t-110.5 18.5t-84.5 52.5zM248 168q15 -32 44 -32t44 32t15 81q0 48 -15 77t-44 29t-44 -29
t-15 -77q0 -49 15 -81zM128 623l59 124l241 -118l-49 -95z" />
    <glyph glyph-name="oacute" unicode="&#xf3;" horiz-adv-x="584" 
d="M97 61q-34 34 -53 81.5t-19 106.5q0 58 19 105.5t53.5 80.5t84 51t110.5 18t110.5 -18t84 -51t53.5 -80.5t19 -105.5q0 -59 -19 -106.5t-53.5 -81.5t-84 -52.5t-110.5 -18.5t-110.5 18.5t-84.5 52.5zM248 168q15 -32 44 -32t44 32t15 81q0 48 -15 77t-44 29t-44 -29
t-15 -77q0 -49 15 -81zM190 534l-49 95l241 118l59 -124z" />
    <glyph glyph-name="ocircumflex" unicode="&#xf4;" horiz-adv-x="584" 
d="M97 61q-34 34 -53 81.5t-19 106.5q0 58 19 105.5t53.5 80.5t84 51t110.5 18t110.5 -18t84 -51t53.5 -80.5t19 -105.5q0 -59 -19 -106.5t-53.5 -81.5t-84 -52.5t-110.5 -18.5t-110.5 18.5t-84.5 52.5zM248 168q15 -32 44 -32t44 32t15 81q0 48 -15 77t-44 29t-44 -29
t-15 -77q0 -49 15 -81zM166 540l-60 80l122 99h128l122 -102l-69 -77l-117 71z" />
    <glyph glyph-name="otilde" unicode="&#xf5;" horiz-adv-x="584" 
d="M97 61q-34 34 -53 81.5t-19 106.5q0 58 19 105.5t53.5 80.5t84 51t110.5 18t110.5 -18t84 -51t53.5 -80.5t19 -105.5q0 -59 -19 -106.5t-53.5 -81.5t-84 -52.5t-110.5 -18.5t-110.5 18.5t-84.5 52.5zM248 168q15 -32 44 -32t44 32t15 81q0 48 -15 77t-44 29t-44 -29
t-15 -77q0 -49 15 -81zM90 589q17 64 50 99.5t78 35.5q19 0 37 -6.5t35 -14.5t33 -14.5t31 -6.5q24 0 36 12.5t19 32.5l92 -30q-5 -29 -15 -54t-25.5 -44t-37 -30t-49.5 -11q-21 0 -40 6.5t-36.5 14.5t-34 14.5t-31.5 6.5q-21 0 -32 -11t-22 -37z" />
    <glyph glyph-name="odieresis" unicode="&#xf6;" horiz-adv-x="584" 
d="M97 61q-34 34 -53 81.5t-19 106.5q0 58 19 105.5t53.5 80.5t84 51t110.5 18t110.5 -18t84 -51t53.5 -80.5t19 -105.5q0 -59 -19 -106.5t-53.5 -81.5t-84 -52.5t-110.5 -18.5t-110.5 18.5t-84.5 52.5zM248 168q15 -32 44 -32t44 32t15 81q0 48 -15 77t-44 29t-44 -29
t-15 -77q0 -49 15 -81zM344 574q-24 22 -24 57t24.5 58t70.5 23q45 0 69 -23t24 -58t-24 -57t-69 -22q-46 0 -71 22zM105 574q-24 22 -24 57t24.5 58t70.5 23q45 0 69 -23t24 -58t-24 -57t-69 -22q-46 0 -71 22z" />
    <glyph glyph-name="divide" unicode="&#xf7;" 
d="M235 474q-26 25 -26 62q0 38 26 62.5t65 24.5t65 -24.5t26 -62.5q0 -37 -26 -62t-65 -25t-65 25zM43 252v160h514v-160h-514zM235 65q-26 25 -26 63q0 37 26 62t65 25t65 -25t26 -62q0 -38 -26 -62.5t-65 -24.5t-65 24z" />
    <glyph glyph-name="oslash" unicode="&#xf8;" horiz-adv-x="584" 
d="M56 -18l49 71q-38 32 -59 81t-21 112q0 58 19 105t53.5 79.5t84 50t110.5 17.5q29 0 53 -3.5t48 -11.5l50 76l82 -55l-47 -68q81 -65 81 -190q0 -59 -19 -106t-53.5 -80.5t-84 -51.5t-110.5 -18q-58 0 -103 15l-51 -78zM248 166q15 -30 44 -30t44 30.5t15 79.5
q0 48 -15 75.5t-44 27.5t-44 -27.5t-15 -75.5q0 -49 15 -80z" />
    <glyph glyph-name="ugrave" unicode="&#xf9;" horiz-adv-x="597" 
d="M377 0l-11 44q-19 -19 -55 -37t-87 -18q-85 0 -135.5 45.5t-50.5 133.5v325h211v-298q0 -55 45 -55q17 0 29.5 5.5t22.5 13.5v334h211v-493h-180zM132 623l59 124l241 -118l-49 -95z" />
    <glyph glyph-name="uacute" unicode="&#xfa;" horiz-adv-x="597" 
d="M377 0l-11 44q-19 -19 -55 -37t-87 -18q-85 0 -135.5 45.5t-50.5 133.5v325h211v-298q0 -55 45 -55q17 0 29.5 5.5t22.5 13.5v334h211v-493h-180zM203 534l-49 95l241 118l59 -124z" />
    <glyph glyph-name="ucircumflex" unicode="&#xfb;" horiz-adv-x="597" 
d="M377 0l-11 44q-19 -19 -55 -37t-87 -18q-85 0 -135.5 45.5t-50.5 133.5v325h211v-298q0 -55 45 -55q17 0 29.5 5.5t22.5 13.5v334h211v-493h-180zM173 540l-60 80l122 99h128l122 -102l-69 -77l-117 71z" />
    <glyph glyph-name="udieresis" unicode="&#xfc;" horiz-adv-x="597" 
d="M377 0l-11 44q-19 -19 -55 -37t-87 -18q-85 0 -135.5 45.5t-50.5 133.5v325h211v-298q0 -55 45 -55q17 0 29.5 5.5t22.5 13.5v334h211v-493h-180zM349 574q-24 22 -24 57t24.5 58t70.5 23q45 0 69 -23t24 -58t-24 -57t-69 -22q-46 0 -71 22zM110 574q-24 22 -24 57
t24.5 58t70.5 23q45 0 69 -23t24 -58t-24 -57t-69 -22q-46 0 -71 22z" />
    <glyph glyph-name="yacute" unicode="&#xfd;" horiz-adv-x="593" 
d="M63 -41q14 -6 33.5 -11t36.5 -5q38 0 52 32l20 47l-213 471h233l77 -249l79 249h220l-239 -564q-29 -68 -71.5 -99t-110.5 -31q-65 0 -101 10t-62 22zM198 534l-49 95l241 118l59 -124z" />
    <glyph glyph-name="thorn" unicode="&#xfe;" horiz-adv-x="590" 
d="M40 -188v856h211v-188q16 6 44 11.5t57 5.5q47 0 86 -18t67.5 -51t44 -79.5t15.5 -104.5t-16 -105t-45 -80.5t-69 -51.5t-88 -18q-29 0 -54 4t-42 12v-193h-211zM251 148q6 -4 14 -7t25 -3q29 0 48.5 27t19.5 79q0 59 -19 81.5t-47 22.5q-27 0 -41 -11v-189z" />
    <glyph glyph-name="ydieresis" unicode="&#xff;" horiz-adv-x="593" 
d="M63 -41q14 -6 33.5 -11t36.5 -5q38 0 52 32l20 47l-213 471h233l77 -249l79 249h220l-239 -564q-29 -68 -71.5 -99t-110.5 -31q-65 0 -101 10t-62 22zM351 574q-24 22 -24 57t24.5 58t70.5 23q45 0 69 -23t24 -58t-24 -57t-69 -22q-46 0 -71 22zM112 574q-24 22 -24 57
t24.5 58t70.5 23q45 0 69 -23t24 -58t-24 -57t-69 -22q-46 0 -71 22z" />
    <glyph glyph-name="Amacron" unicode="&#x100;" horiz-adv-x="700" 
d="M-10 0l248 667h225l247 -667h-229l-35 99h-196l-35 -99h-225zM287 255h120l-60 190zM187 743v115h324v-115h-324z" />
    <glyph glyph-name="amacron" unicode="&#x101;" horiz-adv-x="533" 
d="M326 0l-20 39q-20 -16 -54.5 -30.5t-85.5 -14.5q-70 0 -111 39t-41 105q0 35 12.5 62t34.5 46.5t51.5 31t63.5 16.5q38 6 63 7t51 2v10q0 26 -17.5 39t-43.5 13q-54 0 -90 -30l-98 92q17 16 37 30t47 24.5t62.5 16.5t82.5 6q106 0 165.5 -49t59.5 -149v-306h-169z
M290 217q-11 0 -20 -0.5t-21 -2.5q-22 -4 -32.5 -18t-10.5 -33q0 -18 11.5 -29.5t31.5 -11.5q13 0 22.5 3t18.5 8v84zM111 577v115h324v-115h-324z" />
    <glyph glyph-name="Abreve" unicode="&#x102;" horiz-adv-x="700" 
d="M-10 0l248 667h225l247 -667h-229l-35 99h-196l-35 -99h-225zM287 255h120l-60 190zM274 907q4 -83 77 -83q26 0 49 18.5t29 64.5h97q-2 -54 -18.5 -89.5t-41.5 -56.5t-55.5 -30t-59.5 -9q-33 0 -63.5 9t-54.5 30.5t-39 57t-17 88.5h97z" />
    <glyph glyph-name="abreve" unicode="&#x103;" horiz-adv-x="533" 
d="M326 0l-20 39q-20 -16 -54.5 -30.5t-85.5 -14.5q-70 0 -111 39t-41 105q0 35 12.5 62t34.5 46.5t51.5 31t63.5 16.5q38 6 63 7t51 2v10q0 26 -17.5 39t-43.5 13q-54 0 -90 -30l-98 92q17 16 37 30t47 24.5t62.5 16.5t82.5 6q106 0 165.5 -49t59.5 -149v-306h-169z
M290 217q-11 0 -20 -0.5t-21 -2.5q-22 -4 -32.5 -18t-10.5 -33q0 -18 11.5 -29.5t31.5 -11.5q13 0 22.5 3t18.5 8v84zM200 741q4 -83 77 -83q26 0 49 18.5t29 64.5h97q-2 -54 -18.5 -89.5t-41.5 -56.5t-55.5 -30t-59.5 -9q-33 0 -63.5 9t-54.5 30.5t-39 57t-17 88.5h97z" />
    <glyph glyph-name="Aogonek" unicode="&#x104;" horiz-adv-x="700" 
d="M710 -200q-18 -8 -41 -15t-54 -7q-70 0 -102 29.5t-32 75.5q0 26 10 47.5t24 38.5t30 30q1 1 2 1h-66l-35 99h-196l-35 -99h-225l248 667h225l247 -667h-45q-20 -16 -37 -36q-21 -26 -21 -53q0 -32 32 -32q11 0 20.5 3t17.5 7zM287 255h120l-60 190z" />
    <glyph glyph-name="aogonek" unicode="&#x105;" horiz-adv-x="533" 
d="M522 -199q-18 -8 -41 -15t-54 -7q-70 0 -102 29.5t-32 75.5q0 26 10 47.5t24 38.5t30 30h1h-32l-20 39q-20 -16 -54.5 -30.5t-85.5 -14.5q-70 0 -111 39t-41 105q0 35 12.5 62t34.5 46.5t51.5 31t63.5 16.5q38 6 63 7t51 2v10q0 26 -17.5 39t-43.5 13q-54 0 -90 -30
l-98 92q17 16 37 30t47 24.5t62.5 16.5t82.5 6q106 0 165.5 -49t59.5 -149v-306h-20q-19 -15 -35 -35q-21 -26 -21 -53q0 -32 32 -32q11 0 20.5 3t17.5 7zM290 217q-11 0 -20 -0.5t-21 -2.5q-22 -4 -32.5 -18t-10.5 -33q0 -18 11.5 -29.5t31.5 -11.5q13 0 22.5 3t18.5 8v84z
" />
    <glyph glyph-name="Cacute" unicode="&#x106;" horiz-adv-x="661" 
d="M639 167q-17 -38 -41 -71t-58.5 -57.5t-82 -38.5t-110.5 -14q-76 0 -135 25t-99.5 71t-61.5 109.5t-21 141.5q0 84 24.5 148.5t67 108.5t100.5 67t126 23q75 0 123.5 -17t85.5 -49q30 -26 49.5 -56.5t32.5 -64.5l-188 -90q-6 20 -14 38.5t-19.5 32.5t-28 22.5t-38.5 8.5
q-54 0 -77.5 -45.5t-23.5 -126.5q0 -79 29 -124.5t75 -45.5q45 0 69.5 27.5t36.5 66.5zM247 700l-49 95l241 118l59 -124z" />
    <glyph glyph-name="cacute" unicode="&#x107;" horiz-adv-x="548" 
d="M358 287q-7 30 -21 49t-40 19q-29 0 -46.5 -26t-17.5 -83q0 -55 18 -82.5t46 -27.5t44.5 19.5t22.5 53.5l172 -72q-28 -68 -87 -107.5t-164 -39.5q-57 0 -105 17.5t-82.5 50t-53.5 79.5t-19 107t18.5 108t53 82t83 52t108.5 18q103 0 161 -42t84 -112zM194 534l-49 95
l241 118l59 -124z" />
    <glyph glyph-name="Ccircumflex" unicode="&#x108;" horiz-adv-x="661" 
d="M639 167q-17 -38 -41 -71t-58.5 -57.5t-82 -38.5t-110.5 -14q-76 0 -135 25t-99.5 71t-61.5 109.5t-21 141.5q0 84 24.5 148.5t67 108.5t100.5 67t126 23q75 0 123.5 -17t85.5 -49q30 -26 49.5 -56.5t32.5 -64.5l-188 -90q-6 20 -14 38.5t-19.5 32.5t-28 22.5t-38.5 8.5
q-54 0 -77.5 -45.5t-23.5 -126.5q0 -79 29 -124.5t75 -45.5q45 0 69.5 27.5t36.5 66.5zM226 706l-60 80l122 99h128l122 -102l-69 -77l-117 71z" />
    <glyph glyph-name="ccircumflex" unicode="&#x109;" horiz-adv-x="548" 
d="M358 287q-7 30 -21 49t-40 19q-29 0 -46.5 -26t-17.5 -83q0 -55 18 -82.5t46 -27.5t44.5 19.5t22.5 53.5l172 -72q-28 -68 -87 -107.5t-164 -39.5q-57 0 -105 17.5t-82.5 50t-53.5 79.5t-19 107t18.5 108t53 82t83 52t108.5 18q103 0 161 -42t84 -112zM157 540l-60 80
l122 99h128l122 -102l-69 -77l-117 71z" />
    <glyph glyph-name="Cdotaccent" unicode="&#x10a;" horiz-adv-x="661" 
d="M639 167q-17 -38 -41 -71t-58.5 -57.5t-82 -38.5t-110.5 -14q-76 0 -135 25t-99.5 71t-61.5 109.5t-21 141.5q0 84 24.5 148.5t67 108.5t100.5 67t126 23q75 0 123.5 -17t85.5 -49q30 -26 49.5 -56.5t32.5 -64.5l-188 -90q-6 20 -14 38.5t-19.5 32.5t-28 22.5t-38.5 8.5
q-54 0 -77.5 -45.5t-23.5 -126.5q0 -79 29 -124.5t75 -45.5q45 0 69.5 27.5t36.5 66.5zM288 740q-27 22 -27 57t27 58t73 23q45 0 71.5 -23t26.5 -58t-26.5 -57t-71.5 -22q-46 0 -73 22z" />
    <glyph glyph-name="cdotaccent" unicode="&#x10b;" horiz-adv-x="548" 
d="M358 287q-7 30 -21 49t-40 19q-29 0 -46.5 -26t-17.5 -83q0 -55 18 -82.5t46 -27.5t44.5 19.5t22.5 53.5l172 -72q-28 -68 -87 -107.5t-164 -39.5q-57 0 -105 17.5t-82.5 50t-53.5 79.5t-19 107t18.5 108t53 82t83 52t108.5 18q103 0 161 -42t84 -112zM222 574
q-27 22 -27 57t27 58t73 23q45 0 71.5 -23t26.5 -58t-26.5 -57t-71.5 -22q-46 0 -73 22z" />
    <glyph glyph-name="Ccaron" unicode="&#x10c;" horiz-adv-x="661" 
d="M639 167q-17 -38 -41 -71t-58.5 -57.5t-82 -38.5t-110.5 -14q-76 0 -135 25t-99.5 71t-61.5 109.5t-21 141.5q0 84 24.5 148.5t67 108.5t100.5 67t126 23q75 0 123.5 -17t85.5 -49q30 -26 49.5 -56.5t32.5 -64.5l-188 -90q-6 20 -14 38.5t-19.5 32.5t-28 22.5t-38.5 8.5
q-54 0 -77.5 -45.5t-23.5 -126.5q0 -79 29 -124.5t75 -45.5q45 0 69.5 27.5t36.5 66.5zM170 808l69 77l117 -71l126 71l60 -80l-122 -99h-128z" />
    <glyph glyph-name="ccaron" unicode="&#x10d;" horiz-adv-x="548" 
d="M358 287q-7 30 -21 49t-40 19q-29 0 -46.5 -26t-17.5 -83q0 -55 18 -82.5t46 -27.5t44.5 19.5t22.5 53.5l172 -72q-28 -68 -87 -107.5t-164 -39.5q-57 0 -105 17.5t-82.5 50t-53.5 79.5t-19 107t18.5 108t53 82t83 52t108.5 18q103 0 161 -42t84 -112zM106 642l69 77
l117 -71l126 71l60 -80l-122 -99h-128z" />
    <glyph glyph-name="Dcaron" unicode="&#x10e;" horiz-adv-x="681" 
d="M50 0v667h254q83 0 148 -24t110 -67.5t68.5 -104.5t23.5 -136q0 -74 -23.5 -135.5t-68.5 -105.5t-110 -69t-148 -25h-254zM265 180h40q54 0 91.5 39t37.5 116q0 79 -37.5 116t-91.5 37h-40v-308zM96 808l69 77l117 -71l126 71l60 -80l-122 -99h-128z" />
    <glyph glyph-name="dcaron" unicode="&#x10f;" horiz-adv-x="714" 
d="M372 0l-11 39q-7 -9 -16.5 -17.5t-24 -15.5t-34.5 -11.5t-48 -4.5q-47 0 -86 18.5t-67.5 52t-44 80.5t-15.5 105t16 105.5t45 81.5t69 52.5t88 18.5q29 0 54 -4t42 -12v179h211v-667h-178zM339 345q-6 4 -14 7t-25 3q-29 0 -48.5 -28.5t-19.5 -80.5q0 -60 19 -85.5
t47 -25.5q29 0 41 15v195zM600 457v211h142l-42 -211h-100z" />
    <glyph glyph-name="Dcroat" unicode="&#x110;" horiz-adv-x="681" 
d="M50 0v264h-63v150h63v254h254q83 0 148 -24t110 -67.5t68.5 -105t23.5 -136.5q0 -74 -23.5 -135.5t-68.5 -105.5t-110 -69t-148 -25h-254zM265 180h40q54 0 91.5 39t37.5 116q0 79 -37.5 116t-91.5 37h-40v-74h94v-150h-94v-84z" />
    <glyph glyph-name="dcroat" unicode="&#x111;" horiz-adv-x="590" 
d="M372 0l-11 39q-7 -9 -16.5 -17.5t-24 -15.5t-34.5 -11.5t-48 -4.5q-47 0 -86 18t-67.5 51.5t-44 80t-15.5 103.5q0 58 16 104.5t45 79t69 50t88 17.5q29 0 54 -4t42 -12v60h-105v91h105v39h211v-39h49v-91h-49v-538h-178zM339 335q-6 4 -14 7t-25 3q-29 0 -48.5 -25
t-19.5 -77q0 -58 19 -83t47 -25q29 0 41 15v185z" />
    <glyph glyph-name="Emacron" unicode="&#x112;" horiz-adv-x="581" 
d="M50 0v667h488v-180h-273v-74h220v-159h-220v-73h293v-181h-508zM134 743v115h324v-115h-324z" />
    <glyph glyph-name="emacron" unicode="&#x113;" horiz-adv-x="516" 
d="M227 211q1 -29 22 -51.5t63 -22.5q32 0 52 10.5t31 23.5l122 -93q-13 -17 -32 -32.5t-46 -28t-64 -20t-86 -7.5q-56 0 -104 16.5t-83.5 48.5t-56 79.5t-20.5 110.5q0 61 19.5 109t54 81.5t82.5 51t105 17.5q115 0 182 -71t67 -222h-308zM346 308q-2 32 -16.5 53t-40.5 21
q-28 0 -43.5 -21.5t-17.5 -52.5h118zM122 577v115h324v-115h-324z" />
    <glyph glyph-name="Ebreve" unicode="&#x114;" horiz-adv-x="581" 
d="M50 0v667h488v-180h-273v-74h220v-159h-220v-73h293v-181h-508zM223 907q4 -83 77 -83q26 0 49 18.5t29 64.5h97q-2 -54 -18.5 -89.5t-41.5 -56.5t-55.5 -30t-59.5 -9q-33 0 -63.5 9t-54.5 30.5t-39 57t-17 88.5h97z" />
    <glyph glyph-name="ebreve" unicode="&#x115;" horiz-adv-x="516" 
d="M227 211q1 -29 22 -51.5t63 -22.5q32 0 52 10.5t31 23.5l122 -93q-13 -17 -32 -32.5t-46 -28t-64 -20t-86 -7.5q-56 0 -104 16.5t-83.5 48.5t-56 79.5t-20.5 110.5q0 61 19.5 109t54 81.5t82.5 51t105 17.5q115 0 182 -71t67 -222h-308zM346 308q-2 32 -16.5 53t-40.5 21
q-28 0 -43.5 -21.5t-17.5 -52.5h118zM216 741q4 -83 77 -83q26 0 49 18.5t29 64.5h97q-2 -54 -18.5 -89.5t-41.5 -56.5t-55.5 -30t-59.5 -9q-33 0 -63.5 9t-54.5 30.5t-39 57t-17 88.5h97z" />
    <glyph glyph-name="Edotaccent" unicode="&#x116;" horiz-adv-x="581" 
d="M50 0v667h488v-180h-273v-74h220v-159h-220v-73h293v-181h-508zM232 740q-27 22 -27 57t27 58t73 23q45 0 71.5 -23t26.5 -58t-26.5 -57t-71.5 -22q-46 0 -73 22z" />
    <glyph glyph-name="edotaccent" unicode="&#x117;" horiz-adv-x="516" 
d="M227 211q1 -29 22 -51.5t63 -22.5q32 0 52 10.5t31 23.5l122 -93q-13 -17 -32 -32.5t-46 -28t-64 -20t-86 -7.5q-56 0 -104 16.5t-83.5 48.5t-56 79.5t-20.5 110.5q0 61 19.5 109t54 81.5t82.5 51t105 17.5q115 0 182 -71t67 -222h-308zM346 308q-2 32 -16.5 53t-40.5 21
q-28 0 -43.5 -21.5t-17.5 -52.5h118zM219 574q-27 22 -27 57t27 58t73 23q45 0 71.5 -23t26.5 -58t-26.5 -57t-71.5 -22q-46 0 -73 22z" />
    <glyph glyph-name="Eogonek" unicode="&#x118;" horiz-adv-x="581" 
d="M566 -200q-18 -8 -41 -15t-54 -7q-70 0 -102 29.5t-32 75.5q0 26 10 47.5t24 38.5t30 30q1 1 2 1h-353v667h488v-180h-273v-74h220v-159h-220v-73h293v-181h-37q-20 -16 -37 -36q-21 -26 -21 -53q0 -32 32 -32q11 0 20.5 3t17.5 7z" />
    <glyph glyph-name="eogonek" unicode="&#x119;" horiz-adv-x="555" 
d="M458 -200q-18 -8 -41 -15t-54 -7q-70 0 -102 29.5t-32 75.5q0 26 10 47.5t24 38.5q9 12 19 21q-52 1 -97 16q-48 17 -83.5 49t-56 79.5t-20.5 110.5q0 61 19.5 109t54 81.5t82.5 51t105 17.5q115 0 182 -71t67 -222h-308q1 -29 22 -51.5t63 -22.5q32 0 52 10.5t31 23.5
l122 -93q-13 -17 -32 -32.5t-46 -28.5l-14 -6v-2q-27 -19 -48.5 -45t-21.5 -53q0 -32 32 -32q11 0 20.5 3t17.5 7zM346 308q-2 32 -16.5 53t-40.5 21q-28 0 -43.5 -21.5t-17.5 -52.5h118z" />
    <glyph glyph-name="Ecaron" unicode="&#x11a;" horiz-adv-x="581" 
d="M50 0v667h488v-180h-273v-74h220v-159h-220v-73h293v-181h-508zM112 808l69 77l117 -71l126 71l60 -80l-122 -99h-128z" />
    <glyph glyph-name="ecaron" unicode="&#x11b;" horiz-adv-x="516" 
d="M227 211q1 -29 22 -51.5t63 -22.5q32 0 52 10.5t31 23.5l122 -93q-13 -17 -32 -32.5t-46 -28t-64 -20t-86 -7.5q-56 0 -104 16.5t-83.5 48.5t-56 79.5t-20.5 110.5q0 61 19.5 109t54 81.5t82.5 51t105 17.5q115 0 182 -71t67 -222h-308zM346 308q-2 32 -16.5 53t-40.5 21
q-28 0 -43.5 -21.5t-17.5 -52.5h118zM102 642l69 77l117 -71l126 71l60 -80l-122 -99h-128z" />
    <glyph glyph-name="Gcircumflex" unicode="&#x11c;" horiz-adv-x="677" 
d="M350 232v145h284v-351q-51 -18 -121 -29t-151 -11q-80 0 -142 24.5t-104 70t-64 109.5t-22 144t22 144t63.5 109t100.5 69t134 24q81 0 130 -17t83 -46q23 -19 40.5 -43t28.5 -47l-187 -89q-10 26 -31 46.5t-58 20.5q-46 0 -76 -43t-30 -131q0 -48 9.5 -82t25.5 -55
t38 -30.5t48 -9.5q15 0 30 1.5t32 3.5v73h-83zM235 706l-60 80l122 99h128l122 -102l-69 -77l-117 71z" />
    <glyph glyph-name="gcircumflex" unicode="&#x11d;" horiz-adv-x="568" 
d="M492 420q14 -11 29 -37t15 -61q0 -43 -18.5 -74.5t-50 -52.5t-74.5 -31t-92 -10q-37 0 -62.5 4.5t-31.5 7.5q-5 -4 -10.5 -12.5t-5.5 -16.5q0 -6 2.5 -11t10 -8.5t22.5 -5.5t41 -3q55 -2 89.5 -4t56.5 -5t37 -7.5t32 -10.5q42 -14 64 -44.5t22 -81.5q0 -28 -10 -52
t-27 -41q-35 -33 -97 -48.5t-150 -15.5q-133 0 -198 36t-65 95q0 22 7.5 38.5t18.5 27t23.5 17t22.5 9.5q-26 16 -39.5 36t-13.5 58q0 14 6 28.5t14.5 26.5t18 21.5t17.5 12.5q-25 14 -45.5 46.5t-20.5 70.5q0 50 19 84.5t51.5 56.5t76.5 31.5t94 9.5q37 0 60.5 -3.5
t45.5 -10.5l60 66l104 -78zM241 286q14 -16 42 -16t41 16t13 36t-13 36.5t-41 16.5t-42 -16.5t-14 -36.5t14 -36zM247 -24q-26 1 -44 3q-5 -7 -8.5 -14t-3.5 -16q0 -20 26.5 -31.5t77.5 -11.5t73.5 7.5t22.5 24.5q0 14 -14.5 22.5t-52.5 10.5q-51 3 -77 5zM144 540l-60 80
l122 99h128l122 -102l-69 -77l-117 71z" />
    <glyph glyph-name="Gbreve" unicode="&#x11e;" horiz-adv-x="677" 
d="M350 232v145h284v-351q-51 -18 -121 -29t-151 -11q-80 0 -142 24.5t-104 70t-64 109.5t-22 144t22 144t63.5 109t100.5 69t134 24q81 0 130 -17t83 -46q23 -19 40.5 -43t28.5 -47l-187 -89q-10 26 -31 46.5t-58 20.5q-46 0 -76 -43t-30 -131q0 -48 9.5 -82t25.5 -55
t38 -30.5t48 -9.5q15 0 30 1.5t32 3.5v73h-83zM285 907q4 -83 77 -83q26 0 49 18.5t29 64.5h97q-2 -54 -18.5 -89.5t-41.5 -56.5t-55.5 -30t-59.5 -9q-33 0 -63.5 9t-54.5 30.5t-39 57t-17 88.5h97z" />
    <glyph glyph-name="gbreve" unicode="&#x11f;" horiz-adv-x="568" 
d="M492 420q14 -11 29 -37t15 -61q0 -43 -18.5 -74.5t-50 -52.5t-74.5 -31t-92 -10q-37 0 -62.5 4.5t-31.5 7.5q-5 -4 -10.5 -12.5t-5.5 -16.5q0 -6 2.5 -11t10 -8.5t22.5 -5.5t41 -3q55 -2 89.5 -4t56.5 -5t37 -7.5t32 -10.5q42 -14 64 -44.5t22 -81.5q0 -28 -10 -52
t-27 -41q-35 -33 -97 -48.5t-150 -15.5q-133 0 -198 36t-65 95q0 22 7.5 38.5t18.5 27t23.5 17t22.5 9.5q-26 16 -39.5 36t-13.5 58q0 14 6 28.5t14.5 26.5t18 21.5t17.5 12.5q-25 14 -45.5 46.5t-20.5 70.5q0 50 19 84.5t51.5 56.5t76.5 31.5t94 9.5q37 0 60.5 -3.5
t45.5 -10.5l60 66l104 -78zM241 286q14 -16 42 -16t41 16t13 36t-13 36.5t-41 16.5t-42 -16.5t-14 -36.5t14 -36zM247 -24q-26 1 -44 3q-5 -7 -8.5 -14t-3.5 -16q0 -20 26.5 -31.5t77.5 -11.5t73.5 7.5t22.5 24.5q0 14 -14.5 22.5t-52.5 10.5q-51 3 -77 5zM204 741
q4 -83 77 -83q26 0 49 18.5t29 64.5h97q-2 -54 -18.5 -89.5t-41.5 -56.5t-55.5 -30t-59.5 -9q-33 0 -63.5 9t-54.5 30.5t-39 57t-17 88.5h97z" />
    <glyph glyph-name="Gdotaccent" unicode="&#x120;" horiz-adv-x="677" 
d="M350 232v145h284v-351q-51 -18 -121 -29t-151 -11q-80 0 -142 24.5t-104 70t-64 109.5t-22 144t22 144t63.5 109t100.5 69t134 24q81 0 130 -17t83 -46q23 -19 40.5 -43t28.5 -47l-187 -89q-10 26 -31 46.5t-58 20.5q-46 0 -76 -43t-30 -131q0 -48 9.5 -82t25.5 -55
t38 -30.5t48 -9.5q15 0 30 1.5t32 3.5v73h-83zM293 740q-27 22 -27 57t27 58t73 23q45 0 71.5 -23t26.5 -58t-26.5 -57t-71.5 -22q-46 0 -73 22z" />
    <glyph glyph-name="gdotaccent" unicode="&#x121;" horiz-adv-x="568" 
d="M492 420q14 -11 29 -37t15 -61q0 -43 -18.5 -74.5t-50 -52.5t-74.5 -31t-92 -10q-37 0 -62.5 4.5t-31.5 7.5q-5 -4 -10.5 -12.5t-5.5 -16.5q0 -6 2.5 -11t10 -8.5t22.5 -5.5t41 -3q55 -2 89.5 -4t56.5 -5t37 -7.5t32 -10.5q42 -14 64 -44.5t22 -81.5q0 -28 -10 -52
t-27 -41q-35 -33 -97 -48.5t-150 -15.5q-133 0 -198 36t-65 95q0 22 7.5 38.5t18.5 27t23.5 17t22.5 9.5q-26 16 -39.5 36t-13.5 58q0 14 6 28.5t14.5 26.5t18 21.5t17.5 12.5q-25 14 -45.5 46.5t-20.5 70.5q0 50 19 84.5t51.5 56.5t76.5 31.5t94 9.5q37 0 60.5 -3.5
t45.5 -10.5l60 66l104 -78zM241 286q14 -16 42 -16t41 16t13 36t-13 36.5t-41 16.5t-42 -16.5t-14 -36.5t14 -36zM247 -24q-26 1 -44 3q-5 -7 -8.5 -14t-3.5 -16q0 -20 26.5 -31.5t77.5 -11.5t73.5 7.5t22.5 24.5q0 14 -14.5 22.5t-52.5 10.5q-51 3 -77 5zM218 574
q-27 22 -27 57t27 58t73 23q45 0 71.5 -23t26.5 -58t-26.5 -57t-71.5 -22q-46 0 -73 22z" />
    <glyph glyph-name="Gcommaaccent" unicode="&#x122;" horiz-adv-x="677" 
d="M350 232v145h284v-351q-51 -18 -121 -29t-151 -11q-80 0 -142 24.5t-104 70t-64 109.5t-22 144t22 144t63.5 109t100.5 69t134 24q81 0 130 -17t83 -46q23 -19 40.5 -43t28.5 -47l-187 -89q-10 26 -31 46.5t-58 20.5q-46 0 -76 -43t-30 -131q0 -48 9.5 -82t25.5 -55
t38 -30.5t48 -9.5q15 0 30 1.5t32 3.5v73h-83zM210 -206l68 149h162l-89 -149h-141z" />
    <glyph glyph-name="gcommaaccent" unicode="&#x123;" horiz-adv-x="568" 
d="M492 420q14 -11 29 -37t15 -61q0 -43 -18.5 -74.5t-50 -52.5t-74.5 -31t-92 -10q-37 0 -62.5 4.5t-31.5 7.5q-5 -4 -10.5 -12.5t-5.5 -16.5q0 -6 2.5 -11t10 -8.5t22.5 -5.5t41 -3q55 -2 89.5 -4t56.5 -5t37 -7.5t32 -10.5q42 -14 64 -44.5t22 -81.5q0 -28 -10 -52
t-27 -41q-35 -33 -97 -48.5t-150 -15.5q-133 0 -198 36t-65 95q0 22 7.5 38.5t18.5 27t23.5 17t22.5 9.5q-26 16 -39.5 36t-13.5 58q0 14 6 28.5t14.5 26.5t18 21.5t17.5 12.5q-25 14 -45.5 46.5t-20.5 70.5q0 50 19 84.5t51.5 56.5t76.5 31.5t94 9.5q37 0 60.5 -3.5
t45.5 -10.5l60 66l104 -78zM241 286q14 -16 42 -16t41 16t13 36t-13 36.5t-41 16.5t-42 -16.5t-14 -36.5t14 -36zM247 -24q-26 1 -44 3q-5 -7 -8.5 -14t-3.5 -16q0 -20 26.5 -31.5t77.5 -11.5t73.5 7.5t22.5 24.5q0 14 -14.5 22.5t-52.5 10.5q-51 3 -77 5zM179 541l89 157
h141l-68 -157h-162z" />
    <glyph glyph-name="Hcircumflex" unicode="&#x124;" horiz-adv-x="695" 
d="M50 0v667h215v-233h165v233h215v-667h-215v251h-165v-251h-215zM226 706l-60 80l122 99h128l122 -102l-69 -77l-117 71z" />
    <glyph glyph-name="hcircumflex" unicode="&#x125;" horiz-adv-x="597" 
d="M40 0v667h211v-196q20 13 51 23t71 10q85 0 135.5 -45.5t50.5 -133.5v-325h-211v298q0 55 -45 55q-17 0 -29.5 -5.5t-22.5 -13.5v-334h-211zM81 706l-60 80l122 99h128l122 -102l-69 -77l-117 71z" />
    <glyph glyph-name="Hbar" unicode="&#x126;" horiz-adv-x="695" 
d="M50 0v469h-61v127h61v72h215v-234h165v234h215v-72h60v-127h-60v-469h-215v251h-165v-251h-215z" />
    <glyph glyph-name="hbar" unicode="&#x127;" horiz-adv-x="597" 
d="M40 0v542h-43v91h43v35h211v-35h154v-91h-154v-71q20 13 51 23t71 10q85 0 135.5 -45.5t50.5 -133.5v-325h-211v298q0 55 -45 55q-17 0 -29.5 -5.5t-22.5 -13.5v-334h-211z" />
    <glyph glyph-name="Itilde" unicode="&#x128;" horiz-adv-x="315" 
d="M50 0v667h215v-667h-215zM-51 755q17 64 50 99.5t78 35.5q19 0 37 -6.5t35 -14.5t33 -14.5t31 -6.5q24 0 36 12.5t19 32.5l92 -30q-5 -29 -15 -54t-25.5 -44t-37 -30t-49.5 -11q-21 0 -40 6.5t-36.5 14.5t-34 14.5t-31.5 6.5q-21 0 -32 -11t-22 -37z" />
    <glyph glyph-name="itilde" unicode="&#x129;" horiz-adv-x="290" 
d="M40 0v493h210v-493h-210zM-67 589q17 64 50 99.5t78 35.5q19 0 37 -6.5t35 -14.5t33 -14.5t31 -6.5q24 0 36 12.5t19 32.5l92 -30q-5 -29 -15 -54t-25.5 -44t-37 -30t-49.5 -11q-21 0 -40 6.5t-36.5 14.5t-34 14.5t-31.5 6.5q-21 0 -32 -11t-22 -37z" />
    <glyph glyph-name="Imacron" unicode="&#x12a;" horiz-adv-x="315" 
d="M50 0v667h215v-667h-215zM-7 743v115h324v-115h-324z" />
    <glyph glyph-name="imacron" unicode="&#x12b;" horiz-adv-x="290" 
d="M40 0v493h210v-493h-210zM-13 577v115h324v-115h-324z" />
    <glyph glyph-name="Ibreve" unicode="&#x12c;" horiz-adv-x="315" 
d="M50 0v667h215v-667h-215zM82 907q4 -83 77 -83q26 0 49 18.5t29 64.5h97q-2 -54 -18.5 -89.5t-41.5 -56.5t-55.5 -30t-59.5 -9q-33 0 -63.5 9t-54.5 30.5t-39 57t-17 88.5h97z" />
    <glyph glyph-name="ibreve" unicode="&#x12d;" horiz-adv-x="290" 
d="M40 0v493h210v-493h-210zM74 741q4 -83 77 -83q26 0 49 18.5t29 64.5h97q-2 -54 -18.5 -89.5t-41.5 -56.5t-55.5 -30t-59.5 -9q-33 0 -63.5 9t-54.5 30.5t-39 57t-17 88.5h97z" />
    <glyph glyph-name="Iogonek" unicode="&#x12e;" horiz-adv-x="315" 
d="M271 -200q-18 -8 -41 -15t-54 -7q-70 0 -102 29.5t-32 75.5q0 26 10 47.5t24 38.5t30 30q1 1 2 1h-58v667h215v-667h-39q-20 -16 -37 -36q-21 -26 -21 -53q0 -32 32 -32q11 0 20.5 3t17.5 7z" />
    <glyph glyph-name="iogonek" unicode="&#x12f;" horiz-adv-x="290" 
d="M254 -200q-18 -8 -41 -15t-54 -7q-70 0 -102 29.5t-32 75.5q0 26 10 47.5t24 38.5t30 30q1 1 2 1h-51v493h210v-493h-41q-20 -16 -37 -36q-21 -26 -21 -53q0 -32 32 -32q11 0 20.5 3t17.5 7zM67 543q-28 20 -28 60q0 39 28.5 58t77.5 19t77.5 -19t28.5 -58
q0 -40 -28.5 -59.5t-77.5 -19.5t-78 19z" />
    <glyph glyph-name="Idotaccent" unicode="&#x130;" horiz-adv-x="315" 
d="M50 0v667h215v-667h-215zM86 740q-27 22 -27 57t27 58t73 23q45 0 71.5 -23t26.5 -58t-26.5 -57t-71.5 -22q-46 0 -73 22z" />
    <glyph glyph-name="dotlessi" unicode="&#x131;" horiz-adv-x="290" 
d="M40 0v493h210v-493h-210z" />
    <glyph glyph-name="IJ" unicode="&#x132;" horiz-adv-x="633" 
d="M50 0v667h215v-667h-215zM286 -26q38 11 60 30.5t22 54.5v608h215v-614q0 -51 -18 -92t-50.5 -71t-78 -49.5t-100.5 -28.5z" />
    <glyph glyph-name="ij" unicode="&#x133;" horiz-adv-x="578" 
d="M67 543q-28 20 -28 60q0 39 28.5 58t77.5 19t77.5 -19t28.5 -58q0 -40 -28.5 -59.5t-77.5 -19.5t-78 19zM40 0v493h210v-493h-210zM355 543q-28 20 -28 60q0 39 28.5 58t77.5 19t77.5 -19t28.5 -58q0 -40 -28.5 -59.5t-77.5 -19.5t-78 19zM264 -87q13 9 24.5 17.5
t20.5 19t14 25.5t5 38v480h210v-491q0 -45 -12 -79.5t-33 -60t-50.5 -43t-64.5 -28.5z" />
    <glyph glyph-name="Jcircumflex" unicode="&#x134;" horiz-adv-x="321" 
d="M-26 -26q38 11 60 30.5t22 54.5v608h215v-614q0 -51 -18 -92t-50.5 -71t-78 -49.5t-100.5 -28.5zM39 706l-60 80l122 99h128l122 -102l-69 -77l-117 71z" />
    <glyph glyph-name="jcircumflex" unicode="&#x135;" horiz-adv-x="287" 
d="M-27 -87q13 9 24.5 17.5t20.5 19t14 25.5t5 38v480h210v-491q0 -45 -12 -79.5t-33 -60t-50.5 -43t-64.5 -28.5zM19 540l-60 80l122 99h128l122 -102l-69 -77l-117 71z" />
    <glyph glyph-name="Kcommaaccent" unicode="&#x136;" horiz-adv-x="699" 
d="M50 0v667h215v-200l169 200h251l-225 -260l249 -407h-262l-137 254l-45 -44v-210h-215zM221 -206l68 149h162l-89 -149h-141z" />
    <glyph glyph-name="kcommaaccent" unicode="&#x137;" horiz-adv-x="593" 
d="M40 0v667h211v-301l124 127h211l-146 -164l163 -329h-227l-86 195l-39 -44v-151h-211zM168 -206l68 149h162l-89 -149h-141z" />
    <glyph glyph-name="kgreenlandic" unicode="&#x138;" horiz-adv-x="593" 
d="M40 0v493h211v-169l144 169h211l-166 -201l173 -292h-227l-92 156l-43 -47v-109h-211z" />
    <glyph glyph-name="Lacute" unicode="&#x139;" horiz-adv-x="535" 
d="M50 0v667h215v-486h270v-181h-485zM87 700l-49 95l241 118l59 -124z" />
    <glyph glyph-name="lacute" unicode="&#x13a;" horiz-adv-x="291" 
d="M40 0v667h211v-667h-211zM64 700l-49 95l241 118l59 -124z" />
    <glyph glyph-name="Lcommaaccent" unicode="&#x13b;" horiz-adv-x="535" 
d="M50 0v667h215v-486h270v-181h-485zM139 -206l68 149h162l-89 -149h-141z" />
    <glyph glyph-name="lcommaaccent" unicode="&#x13c;" horiz-adv-x="291" 
d="M40 0v667h211v-667h-211zM17 -206l68 149h162l-89 -149h-141z" />
    <glyph glyph-name="Lcaron" unicode="&#x13d;" horiz-adv-x="535" 
d="M50 0v667h215v-486h270v-181h-485zM354 457v211h142l-42 -211h-100z" />
    <glyph glyph-name="lcaron" unicode="&#x13e;" horiz-adv-x="419" 
d="M40 0v667h211v-667h-211zM305 457v211h142l-42 -211h-100z" />
    <glyph glyph-name="Ldot" unicode="&#x13f;" horiz-adv-x="535" 
d="M50 0v667h215v-486h270v-181h-485zM358 345q-27 22 -27 57t27 58t73 23q45 0 71.5 -23t26.5 -58t-26.5 -57t-71.5 -22q-46 0 -73 22z" />
    <glyph glyph-name="ldot" unicode="&#x140;" horiz-adv-x="488" 
d="M40 0v667h211v-667h-211zM317 314q-27 22 -27 57t27 58t73 23q45 0 71.5 -23t26.5 -58t-26.5 -57t-71.5 -22q-46 0 -73 22z" />
    <glyph glyph-name="Lslash" unicode="&#x141;" horiz-adv-x="535" 
d="M50 0v668h215v-209l127 60l59 -127l-186 -88v-123h270v-181h-485z" />
    <glyph glyph-name="lslash" unicode="&#x142;" horiz-adv-x="390" 
d="M40 0v668h211v-217l95 45l59 -128l-154 -72v-296h-211z" />
    <glyph glyph-name="Nacute" unicode="&#x143;" horiz-adv-x="700" 
d="M50 0v667h216l174 -301v301h210v-667h-199l-191 325v-325h-210zM287 700l-49 95l241 118l59 -124z" />
    <glyph glyph-name="nacute" unicode="&#x144;" horiz-adv-x="597" 
d="M40 0v493h180l11 -44q19 19 55 37t87 18q85 0 135.5 -45.5t50.5 -133.5v-325h-211v298q0 55 -45 55q-17 0 -29.5 -5.5t-22.5 -13.5v-334h-211zM213 534l-49 95l241 118l59 -124z" />
    <glyph glyph-name="Ncommaaccent" unicode="&#x145;" horiz-adv-x="700" 
d="M50 0v667h216l174 -301v301h210v-667h-199l-191 325v-325h-210zM222 -206l68 149h162l-89 -149h-141z" />
    <glyph glyph-name="ncommaaccent" unicode="&#x146;" horiz-adv-x="597" 
d="M40 0v493h180l11 -44q19 19 55 37t87 18q85 0 135.5 -45.5t50.5 -133.5v-325h-211v298q0 55 -45 55q-17 0 -29.5 -5.5t-22.5 -13.5v-334h-211zM170 -206l68 149h162l-89 -149h-141z" />
    <glyph glyph-name="Ncaron" unicode="&#x147;" horiz-adv-x="700" 
d="M50 0v667h216l174 -301v301h210v-667h-199l-191 325v-325h-210zM159 808l69 77l117 -71l126 71l60 -80l-122 -99h-128z" />
    <glyph glyph-name="ncaron" unicode="&#x148;" horiz-adv-x="597" 
d="M40 0v493h180l11 -44q19 19 55 37t87 18q85 0 135.5 -45.5t50.5 -133.5v-325h-211v298q0 55 -45 55q-17 0 -29.5 -5.5t-22.5 -13.5v-334h-211zM107 642l69 77l117 -71l126 71l60 -80l-122 -99h-128z" />
    <glyph glyph-name="napostrophe" unicode="&#x149;" horiz-adv-x="597" 
d="M40 0v493h180l11 -44q19 19 55 37t87 18q85 0 135.5 -45.5t50.5 -133.5v-325h-211v298q0 55 -45 55q-17 0 -29.5 -5.5t-22.5 -13.5v-334h-211zM20 580q16 4 34.5 13t28.5 18q-15 6 -30 21t-15 46q0 29 20 49.5t60 20.5q37 0 58.5 -20.5t21.5 -58.5q0 -47 -38.5 -85.5
t-119.5 -59.5z" />
    <glyph glyph-name="Eng" unicode="&#x14a;" horiz-adv-x="700" 
d="M50 0v668h216l174 -302v302h210v-666q0 -45 -11.5 -79.5t-32.5 -60t-50 -43t-64 -28.5l-114 122q13 8 24.5 16.5t20.5 20t14 27t5 38.5l-182 310v-325h-210z" />
    <glyph glyph-name="eng" unicode="&#x14b;" horiz-adv-x="597" 
d="M40 0v493h180l11 -44q19 19 55 37t87 18q85 0 135.5 -45.5t50.5 -133.5v-323q0 -45 -11.5 -79.5t-32.5 -60t-50 -43t-64 -28.5l-114 122q24 16 42.5 36t18.5 59v290q0 55 -45 55q-17 0 -29.5 -5.5t-22.5 -13.5v-334h-211z" />
    <glyph glyph-name="Omacron" unicode="&#x14c;" horiz-adv-x="710" 
d="M215 11q-60 26 -101.5 72.5t-62.5 110t-21 140.5q0 76 21 140t62.5 109.5t102 71t139.5 25.5t139.5 -25.5t102 -71t62.5 -109.5t21 -140q0 -77 -21 -140.5t-62.5 -110t-102 -72t-139.5 -25.5t-140 25zM276 207q27 -45 79 -45t78.5 45t26.5 127q0 81 -26.5 125.5
t-78.5 44.5t-78.5 -44.5t-26.5 -125.5q0 -82 26 -127zM194 743v115h324v-115h-324z" />
    <glyph glyph-name="omacron" unicode="&#x14d;" horiz-adv-x="584" 
d="M97 61q-34 34 -53 81.5t-19 106.5q0 58 19 105.5t53.5 80.5t84 51t110.5 18t110.5 -18t84 -51t53.5 -80.5t19 -105.5q0 -59 -19 -106.5t-53.5 -81.5t-84 -52.5t-110.5 -18.5t-110.5 18.5t-84.5 52.5zM248 168q15 -32 44 -32t44 32t15 81q0 48 -15 77t-44 29t-44 -29
t-15 -77q0 -49 15 -81zM134 577v115h324v-115h-324z" />
    <glyph glyph-name="Obreve" unicode="&#x14e;" horiz-adv-x="710" 
d="M215 11q-60 26 -101.5 72.5t-62.5 110t-21 140.5q0 76 21 140t62.5 109.5t102 71t139.5 25.5t139.5 -25.5t102 -71t62.5 -109.5t21 -140q0 -77 -21 -140.5t-62.5 -110t-102 -72t-139.5 -25.5t-140 25zM276 207q27 -45 79 -45t78.5 45t26.5 127q0 81 -26.5 125.5
t-78.5 44.5t-78.5 -44.5t-26.5 -125.5q0 -82 26 -127zM285 907q4 -83 77 -83q26 0 49 18.5t29 64.5h97q-2 -54 -18.5 -89.5t-41.5 -56.5t-55.5 -30t-59.5 -9q-33 0 -63.5 9t-54.5 30.5t-39 57t-17 88.5h97z" />
    <glyph glyph-name="obreve" unicode="&#x14f;" horiz-adv-x="584" 
d="M97 61q-34 34 -53 81.5t-19 106.5q0 58 19 105.5t53.5 80.5t84 51t110.5 18t110.5 -18t84 -51t53.5 -80.5t19 -105.5q0 -59 -19 -106.5t-53.5 -81.5t-84 -52.5t-110.5 -18.5t-110.5 18.5t-84.5 52.5zM248 168q15 -32 44 -32t44 32t15 81q0 48 -15 77t-44 29t-44 -29
t-15 -77q0 -49 15 -81zM221 741q4 -83 77 -83q26 0 49 18.5t29 64.5h97q-2 -54 -18.5 -89.5t-41.5 -56.5t-55.5 -30t-59.5 -9q-33 0 -63.5 9t-54.5 30.5t-39 57t-17 88.5h97z" />
    <glyph glyph-name="Ohungarumlaut" unicode="&#x150;" horiz-adv-x="710" 
d="M215 11q-60 26 -101.5 72.5t-62.5 110t-21 140.5q0 76 21 140t62.5 109.5t102 71t139.5 25.5t139.5 -25.5t102 -71t62.5 -109.5t21 -140q0 -77 -21 -140.5t-62.5 -110t-102 -72t-139.5 -25.5t-140 25zM276 207q27 -45 79 -45t78.5 45t26.5 127q0 81 -26.5 125.5
t-78.5 44.5t-78.5 -44.5t-26.5 -125.5q0 -82 26 -127zM378 770l123 154l98 -79l-137 -142zM194 765l112 162l103 -72l-127 -151z" />
    <glyph glyph-name="ohungarumlaut" unicode="&#x151;" horiz-adv-x="584" 
d="M97 61q-34 34 -53 81.5t-19 106.5q0 58 19 105.5t53.5 80.5t84 51t110.5 18t110.5 -18t84 -51t53.5 -80.5t19 -105.5q0 -59 -19 -106.5t-53.5 -81.5t-84 -52.5t-110.5 -18.5t-110.5 18.5t-84.5 52.5zM248 168q15 -32 44 -32t44 32t15 81q0 48 -15 77t-44 29t-44 -29
t-15 -77q0 -49 15 -81zM309 604l123 154l98 -79l-137 -142zM125 599l112 162l103 -72l-127 -151z" />
    <glyph glyph-name="OE" unicode="&#x152;" horiz-adv-x="985" 
d="M401 0q-83 0 -151 23.5t-117 67t-76 105t-27 138.5q0 76 27 138t76 105.5t117 67t151 23.5h541v-181h-266v-74h213v-159h-213v-73h286v-181h-561zM461 176v316h-60q-33 0 -60.5 -10t-47.5 -30t-31.5 -49.5t-11.5 -68.5t11.5 -68.5t31.5 -49.5t47.5 -30t60.5 -10h60z" />
    <glyph glyph-name="oe" unicode="&#x153;" horiz-adv-x="851" 
d="M530 211q2 -32 25 -53t54 -21q28 0 48 10t34 24l122 -93q-30 -34 -81 -61t-127 -27q-33 0 -59 5t-46.5 13t-35.5 17.5t-26 17.5q-23 -20 -58 -36.5t-93 -16.5q-59 0 -107.5 18.5t-83 52.5t-53 81.5t-18.5 106.5q0 58 18.5 105.5t53 80.5t83 51t107.5 18q58 0 94 -18
t59 -38q23 21 60.5 38.5t91.5 17.5q115 0 176.5 -71t62.5 -222h-301zM644 308q-2 32 -17 53t-41 21q-27 0 -41 -21.5t-16 -52.5h115zM247 168q14 -32 40 -32t40 32t14 81q0 48 -14 74t-40 26t-40 -26t-14 -74q0 -49 14 -81z" />
    <glyph glyph-name="Racute" unicode="&#x154;" horiz-adv-x="653" 
d="M50 0v667h315q59 0 106 -16t79.5 -45t49.5 -69t17 -88q0 -69 -23.5 -113.5t-71.5 -73.5l134 -262h-240l-96 218h-58v-218h-212zM262 386h79q35 0 49 16.5t14 39.5t-14 38.5t-49 15.5h-79v-110zM210 700l-49 95l241 118l59 -124z" />
    <glyph glyph-name="racute" unicode="&#x155;" horiz-adv-x="422" 
d="M40 0v493h185l12 -45q16 20 43.5 35t60.5 15q26 0 50.5 -6.5t38.5 -14.5l-54 -159q-14 7 -29.5 11t-34.5 4t-36.5 -7.5t-24.5 -14.5v-311h-211zM141 534l-49 95l241 118l59 -124z" />
    <glyph glyph-name="Rcommaaccent" unicode="&#x156;" horiz-adv-x="653" 
d="M50 0v667h315q59 0 106 -16t79.5 -45t49.5 -69t17 -88q0 -69 -23.5 -113.5t-71.5 -73.5l134 -262h-240l-96 218h-58v-218h-212zM262 386h79q35 0 49 16.5t14 39.5t-14 38.5t-49 15.5h-79v-110zM198 -206l68 149h162l-89 -149h-141z" />
    <glyph glyph-name="rcommaaccent" unicode="&#x157;" horiz-adv-x="422" 
d="M40 0v493h185l12 -45q16 20 43.5 35t60.5 15q26 0 50.5 -6.5t38.5 -14.5l-54 -159q-14 7 -29.5 11t-34.5 4t-36.5 -7.5t-24.5 -14.5v-311h-211zM-13 -206l68 149h162l-89 -149h-141z" />
    <glyph glyph-name="Rcaron" unicode="&#x158;" horiz-adv-x="653" 
d="M50 0v667h315q59 0 106 -16t79.5 -45t49.5 -69t17 -88q0 -69 -23.5 -113.5t-71.5 -73.5l134 -262h-240l-96 218h-58v-218h-212zM262 386h79q35 0 49 16.5t14 39.5t-14 38.5t-49 15.5h-79v-110zM101 808l69 77l117 -71l126 71l60 -80l-122 -99h-128z" />
    <glyph glyph-name="rcaron" unicode="&#x159;" horiz-adv-x="422" 
d="M40 0v493h185l12 -45q16 20 43.5 35t60.5 15q26 0 50.5 -6.5t38.5 -14.5l-54 -159q-14 7 -29.5 11t-34.5 4t-36.5 -7.5t-24.5 -14.5v-311h-211zM14 642l69 77l117 -71l126 71l60 -80l-122 -99h-128z" />
    <glyph glyph-name="Sacute" unicode="&#x15a;" horiz-adv-x="597" 
d="M176 215q21 -28 51 -46t67 -18q36 0 56.5 8.5t20.5 25.5q0 10 -4.5 17.5t-17 14.5t-35.5 15t-59 18q-53 14 -95 31.5t-71.5 42.5t-45 59t-15.5 82q0 49 19 89t54.5 68t86.5 43t114 15q90 0 148.5 -23t97.5 -62q17 -17 29 -35l-160 -102q-6 10 -16 20.5t-24 19.5t-32.5 15
t-40.5 6q-36 0 -52.5 -9t-16.5 -24q0 -9 4 -16.5t18 -15t40.5 -16t70.5 -19.5q42 -10 80.5 -25t68 -40t46.5 -61.5t17 -90.5q0 -56 -23 -96.5t-62 -67t-90 -39.5t-107 -13q-91 0 -150.5 20.5t-99.5 58.5q-20 20 -40 51zM193 700l-49 95l241 118l59 -124z" />
    <glyph glyph-name="sacute" unicode="&#x15b;" horiz-adv-x="514" 
d="M108 157q20 -15 54.5 -29t74.5 -14q18 0 30 2t20 5q14 6 14 17q0 7 -4 12.5t-14.5 11t-29 11t-47.5 13.5q-39 11 -70.5 24t-53.5 31.5t-33.5 43.5t-11.5 60q0 39 18.5 68.5t50 50t74.5 30.5t93 10q45 0 80.5 -6t63 -16t47.5 -22.5t34 -25.5l-102 -91q-17 13 -44.5 26
t-65.5 13q-15 0 -24 -1.5t-17 -5.5q-13 -6 -13 -18q0 -5 1 -9.5t9.5 -9t26 -10.5t50.5 -14q40 -10 73 -22.5t57 -31t37 -45t13 -64.5q0 -44 -20 -74.5t-53.5 -49.5t-77 -28t-90.5 -9q-97 0 -158.5 21t-90.5 51zM164 534l-49 95l241 118l59 -124z" />
    <glyph glyph-name="Scircumflex" unicode="&#x15c;" horiz-adv-x="597" 
d="M176 215q21 -28 51 -46t67 -18q36 0 56.5 8.5t20.5 25.5q0 10 -4.5 17.5t-17 14.5t-35.5 15t-59 18q-53 14 -95 31.5t-71.5 42.5t-45 59t-15.5 82q0 49 19 89t54.5 68t86.5 43t114 15q90 0 148.5 -23t97.5 -62q17 -17 29 -35l-160 -102q-6 10 -16 20.5t-24 19.5t-32.5 15
t-40.5 6q-36 0 -52.5 -9t-16.5 -24q0 -9 4 -16.5t18 -15t40.5 -16t70.5 -19.5q42 -10 80.5 -25t68 -40t46.5 -61.5t17 -90.5q0 -56 -23 -96.5t-62 -67t-90 -39.5t-107 -13q-91 0 -150.5 20.5t-99.5 58.5q-20 20 -40 51zM184 706l-60 80l122 99h128l122 -102l-69 -77l-117 71
z" />
    <glyph glyph-name="scircumflex" unicode="&#x15d;" horiz-adv-x="514" 
d="M108 157q20 -15 54.5 -29t74.5 -14q18 0 30 2t20 5q14 6 14 17q0 7 -4 12.5t-14.5 11t-29 11t-47.5 13.5q-39 11 -70.5 24t-53.5 31.5t-33.5 43.5t-11.5 60q0 39 18.5 68.5t50 50t74.5 30.5t93 10q45 0 80.5 -6t63 -16t47.5 -22.5t34 -25.5l-102 -91q-17 13 -44.5 26
t-65.5 13q-15 0 -24 -1.5t-17 -5.5q-13 -6 -13 -18q0 -5 1 -9.5t9.5 -9t26 -10.5t50.5 -14q40 -10 73 -22.5t57 -31t37 -45t13 -64.5q0 -44 -20 -74.5t-53.5 -49.5t-77 -28t-90.5 -9q-97 0 -158.5 21t-90.5 51zM152 540l-60 80l122 99h128l122 -102l-69 -77l-117 71z" />
    <glyph glyph-name="Scedilla" unicode="&#x15e;" horiz-adv-x="597" 
d="M176 215q21 -28 51 -46t67 -18q36 0 56.5 8.5t20.5 25.5q0 10 -4.5 17.5t-17 14.5t-35.5 15t-59 18q-53 14 -95 31.5t-71.5 42.5t-45 59t-15.5 82q0 49 19 89t54.5 68t86.5 43t114 15q90 0 148.5 -23t97.5 -62q17 -17 29 -35l-160 -102q-6 10 -16 20.5t-24 19.5t-32.5 15
t-40.5 6q-36 0 -52.5 -9t-16.5 -24q0 -9 4 -16.5t18 -15t40.5 -16t70.5 -19.5q42 -10 80.5 -25t68 -40t46.5 -61.5t17 -90.5q0 -56 -23 -96.5t-62 -67t-90 -39.5t-107 -13q-91 0 -150.5 20.5t-99.5 58.5q-20 20 -40 51zM151 -206l68 149h162l-89 -149h-141z" />
    <glyph glyph-name="scedilla" unicode="&#x15f;" horiz-adv-x="514" 
d="M108 157q20 -15 54.5 -29t74.5 -14q18 0 30 2t20 5q14 6 14 17q0 7 -4 12.5t-14.5 11t-29 11t-47.5 13.5q-39 11 -70.5 24t-53.5 31.5t-33.5 43.5t-11.5 60q0 39 18.5 68.5t50 50t74.5 30.5t93 10q45 0 80.5 -6t63 -16t47.5 -22.5t34 -25.5l-102 -91q-17 13 -44.5 26
t-65.5 13q-15 0 -24 -1.5t-17 -5.5q-13 -6 -13 -18q0 -5 1 -9.5t9.5 -9t26 -10.5t50.5 -14q40 -10 73 -22.5t57 -31t37 -45t13 -64.5q0 -44 -20 -74.5t-53.5 -49.5t-77 -28t-90.5 -9q-97 0 -158.5 21t-90.5 51zM111 -206l68 149h162l-89 -149h-141z" />
    <glyph glyph-name="Scaron" unicode="&#x160;" horiz-adv-x="597" 
d="M176 215q21 -28 51 -46t67 -18q36 0 56.5 8.5t20.5 25.5q0 10 -4.5 17.5t-17 14.5t-35.5 15t-59 18q-53 14 -95 31.5t-71.5 42.5t-45 59t-15.5 82q0 49 19 89t54.5 68t86.5 43t114 15q90 0 148.5 -23t97.5 -62q17 -17 29 -35l-160 -102q-6 10 -16 20.5t-24 19.5t-32.5 15
t-40.5 6q-36 0 -52.5 -9t-16.5 -24q0 -9 4 -16.5t18 -15t40.5 -16t70.5 -19.5q42 -10 80.5 -25t68 -40t46.5 -61.5t17 -90.5q0 -56 -23 -96.5t-62 -67t-90 -39.5t-107 -13q-91 0 -150.5 20.5t-99.5 58.5q-20 20 -40 51zM118 805l69 77l117 -71l126 71l60 -80l-122 -99h-128z
" />
    <glyph glyph-name="scaron" unicode="&#x161;" horiz-adv-x="514" 
d="M108 157q20 -15 54.5 -29t74.5 -14q18 0 30 2t20 5q14 6 14 17q0 7 -4 12.5t-14.5 11t-29 11t-47.5 13.5q-39 11 -70.5 24t-53.5 31.5t-33.5 43.5t-11.5 60q0 39 18.5 68.5t50 50t74.5 30.5t93 10q45 0 80.5 -6t63 -16t47.5 -22.5t34 -25.5l-102 -91q-17 13 -44.5 26
t-65.5 13q-15 0 -24 -1.5t-17 -5.5q-13 -6 -13 -18q0 -5 1 -9.5t9.5 -9t26 -10.5t50.5 -14q40 -10 73 -22.5t57 -31t37 -45t13 -64.5q0 -44 -20 -74.5t-53.5 -49.5t-77 -28t-90.5 -9q-97 0 -158.5 21t-90.5 51zM75 642l69 77l117 -71l126 71l60 -80l-122 -99h-128z" />
    <glyph glyph-name="Tcommaaccent" unicode="&#x162;" horiz-adv-x="573" 
d="M179 0v487h-176v180h567v-180h-175v-487h-216zM130 -206l68 149h162l-89 -149h-141z" />
    <glyph glyph-name="tcommaaccent" unicode="&#x163;" horiz-adv-x="423" 
d="M6 353v140h69v122h211v-122h110v-140h-110v-187q0 -16 8 -24q7 -7 21 -7q17 0 31.5 6.5t26.5 15.5l54 -115q-33 -23 -78.5 -37.5t-105.5 -14.5q-47 0 -79 12.5t-51.5 34.5t-28.5 51t-9 62v203h-69zM83 -206l68 149h162l-89 -149h-141z" />
    <glyph glyph-name="Tcaron" unicode="&#x164;" horiz-adv-x="573" 
d="M179 0v487h-176v180h567v-180h-175v-487h-216zM102 808l69 77l117 -71l126 71l60 -80l-122 -99h-128z" />
    <glyph glyph-name="tcaron" unicode="&#x165;" horiz-adv-x="423" 
d="M338 541v211h142l-42 -211h-100zM6 353v140h69v122h211v-122h110v-140h-110v-187q0 -16 8 -24q7 -7 21 -7q17 0 31.5 6.5t26.5 15.5l54 -115q-33 -23 -78.5 -37.5t-105.5 -14.5q-47 0 -79 12.5t-51.5 34.5t-28.5 51t-9 62v203h-69z" />
    <glyph glyph-name="Tbar" unicode="&#x166;" horiz-adv-x="573" 
d="M179 0v199h-125v157h125v131h-176v181h567v-181h-175v-131h123v-157h-123v-199h-216z" />
    <glyph glyph-name="tbar" unicode="&#x167;" horiz-adv-x="423" 
d="M6 203v93h69v57h-69v140h69v122h211v-122h110v-140h-110v-57h110v-93h-110v-37q0 -16 8 -24q7 -7 21 -7q17 0 31.5 6.5t26.5 15.5l54 -115q-33 -23 -78.5 -37.5t-105.5 -14.5q-47 0 -79 12.5t-51.5 34.5t-28.5 51t-9 62v53h-69z" />
    <glyph glyph-name="Utilde" unicode="&#x168;" horiz-adv-x="694" 
d="M261 258q0 -49 22 -70.5t64 -21.5t64 21.5t22 70.5v409h215v-419q0 -126 -78.5 -194t-222.5 -68t-222.5 68t-78.5 194v419h215v-409zM141 755q17 64 50 99.5t78 35.5q19 0 37 -6.5t35 -14.5t33 -14.5t31 -6.5q24 0 36 12.5t19 32.5l92 -30q-5 -29 -15 -54t-25.5 -44
t-37 -30t-49.5 -11q-21 0 -40 6.5t-36.5 14.5t-34 14.5t-31.5 6.5q-21 0 -32 -11t-22 -37z" />
    <glyph glyph-name="utilde" unicode="&#x169;" horiz-adv-x="597" 
d="M377 0l-11 44q-19 -19 -55 -37t-87 -18q-85 0 -135.5 45.5t-50.5 133.5v325h211v-298q0 -55 45 -55q17 0 29.5 5.5t22.5 13.5v334h211v-493h-180zM96 589q17 64 50 99.5t78 35.5q19 0 37 -6.5t35 -14.5t33 -14.5t31 -6.5q24 0 36 12.5t19 32.5l92 -30q-5 -29 -15 -54
t-25.5 -44t-37 -30t-49.5 -11q-21 0 -40 6.5t-36.5 14.5t-34 14.5t-31.5 6.5q-21 0 -32 -11t-22 -37z" />
    <glyph glyph-name="Umacron" unicode="&#x16a;" horiz-adv-x="694" 
d="M261 258q0 -49 22 -70.5t64 -21.5t64 21.5t22 70.5v409h215v-419q0 -126 -78.5 -194t-222.5 -68t-222.5 68t-78.5 194v419h215v-409zM183 743v115h324v-115h-324z" />
    <glyph glyph-name="umacron" unicode="&#x16b;" horiz-adv-x="597" 
d="M377 0l-11 44q-19 -19 -55 -37t-87 -18q-85 0 -135.5 45.5t-50.5 133.5v325h211v-298q0 -55 45 -55q17 0 29.5 5.5t22.5 13.5v334h211v-493h-180zM138 577v115h324v-115h-324z" />
    <glyph glyph-name="Ubreve" unicode="&#x16c;" horiz-adv-x="694" 
d="M261 258q0 -49 22 -70.5t64 -21.5t64 21.5t22 70.5v409h215v-419q0 -126 -78.5 -194t-222.5 -68t-222.5 68t-78.5 194v419h215v-409zM278 907q4 -83 77 -83q26 0 49 18.5t29 64.5h97q-2 -54 -18.5 -89.5t-41.5 -56.5t-55.5 -30t-59.5 -9q-33 0 -63.5 9t-54.5 30.5t-39 57
t-17 88.5h97z" />
    <glyph glyph-name="ubreve" unicode="&#x16d;" horiz-adv-x="597" 
d="M377 0l-11 44q-19 -19 -55 -37t-87 -18q-85 0 -135.5 45.5t-50.5 133.5v325h211v-298q0 -55 45 -55q17 0 29.5 5.5t22.5 13.5v334h211v-493h-180zM229 741q4 -83 77 -83q26 0 49 18.5t29 64.5h97q-2 -54 -18.5 -89.5t-41.5 -56.5t-55.5 -30t-59.5 -9q-33 0 -63.5 9
t-54.5 30.5t-39 57t-17 88.5h97z" />
    <glyph glyph-name="Uring" unicode="&#x16e;" horiz-adv-x="694" 
d="M261 258q0 -49 22 -70.5t64 -21.5t64 21.5t22 70.5v409h215v-419q0 -126 -78.5 -194t-222.5 -68t-222.5 68t-78.5 194v419h215v-409zM285 714q-26 11 -43 28.5t-25.5 40.5t-8.5 47t8.5 47.5t25.5 41.5t43 29t62 11t62 -11t43 -29t25.5 -41.5t8.5 -47.5t-8.5 -47
t-25.5 -40.5t-43 -28.5t-62 -11t-62 11zM296 831q0 -22 14 -35.5t37 -13.5t37 13.5t14 35.5q0 23 -14 36.5t-37 13.5t-37 -13.5t-14 -36.5z" />
    <glyph glyph-name="uring" unicode="&#x16f;" horiz-adv-x="597" 
d="M377 0l-11 44q-19 -19 -55 -37t-87 -18q-85 0 -135.5 45.5t-50.5 133.5v325h211v-298q0 -55 45 -55q17 0 29.5 5.5t22.5 13.5v334h211v-493h-180zM235 548q-26 11 -43 28.5t-25.5 40.5t-8.5 47t8.5 47.5t25.5 41.5t43 29t62 11t62 -11t43 -29t25.5 -41.5t8.5 -47.5
t-8.5 -47t-25.5 -40.5t-43 -28.5t-62 -11t-62 11zM246 665q0 -22 14 -35.5t37 -13.5t37 13.5t14 35.5q0 23 -14 36.5t-37 13.5t-37 -13.5t-14 -36.5z" />
    <glyph glyph-name="Uhungarumlaut" unicode="&#x170;" horiz-adv-x="694" 
d="M261 258q0 -49 22 -70.5t64 -21.5t64 21.5t22 70.5v409h215v-419q0 -126 -78.5 -194t-222.5 -68t-222.5 68t-78.5 194v419h215v-409zM366 770l123 154l98 -79l-137 -142zM182 765l112 162l103 -72l-127 -151z" />
    <glyph glyph-name="uhungarumlaut" unicode="&#x171;" horiz-adv-x="597" 
d="M377 0l-11 44q-19 -19 -55 -37t-87 -18q-85 0 -135.5 45.5t-50.5 133.5v325h211v-298q0 -55 45 -55q17 0 29.5 5.5t22.5 13.5v334h211v-493h-180zM318 604l123 154l98 -79l-137 -142zM134 599l112 162l103 -72l-127 -151z" />
    <glyph glyph-name="Uogonek" unicode="&#x172;" horiz-adv-x="694" 
d="M527 -200q-18 -8 -41 -15t-54 -7q-70 0 -102 29.5t-32 75.5q0 26 10 47.5t24 38.5q7 9 15 17q-144 0 -222.5 68t-78.5 194v419h215v-409q0 -49 22 -70.5t64 -21.5t64 21.5t22 70.5v409h215v-419q0 -126 -79 -194q-32 -28 -75 -45q-27 -19 -48.5 -45t-21.5 -53
q0 -32 32 -32q11 0 20.5 3t17.5 7z" />
    <glyph glyph-name="uogonek" unicode="&#x173;" horiz-adv-x="597" 
d="M574 -200q-18 -8 -41 -15t-54 -7q-70 0 -102 29.5t-32 75.5q0 26 10 47.5t24 38.5t30 30q1 1 2 1h-34l-11 44q-19 -19 -55 -37t-87 -18q-85 0 -135.5 45.5t-50.5 133.5v325h211v-298q0 -55 45 -55q17 0 29.5 5.5t22.5 13.5v334h211v-493h-28q-20 -16 -37 -36
q-21 -26 -21 -53q0 -32 32 -32q11 0 20.5 3t17.5 7z" />
    <glyph glyph-name="Wcircumflex" unicode="&#x174;" horiz-adv-x="880" 
d="M172 0l-182 667h218l73 -302l80 302h158l79 -302l75 302h217l-182 -667h-174l-95 335l-92 -335h-175zM316 706l-60 80l122 99h128l122 -102l-69 -77l-117 71z" />
    <glyph glyph-name="wcircumflex" unicode="&#x175;" horiz-adv-x="791" 
d="M166 0l-174 493h214l60 -234l59 234h142l58 -234l60 234h214l-174 -493h-165l-65 238l-64 -238h-165zM271 540l-60 80l122 99h128l122 -102l-69 -77l-117 71z" />
    <glyph glyph-name="Ycircumflex" unicode="&#x176;" horiz-adv-x="686" 
d="M237 0v253l-247 414h245l111 -210l107 210h243l-244 -413v-254h-215zM222 706l-60 80l122 99h128l122 -102l-69 -77l-117 71z" />
    <glyph glyph-name="ycircumflex" unicode="&#x177;" horiz-adv-x="593" 
d="M63 -41q14 -6 33.5 -11t36.5 -5q38 0 52 32l20 47l-213 471h233l77 -249l79 249h220l-239 -564q-29 -68 -71.5 -99t-110.5 -31q-65 0 -101 10t-62 22zM178 540l-60 80l122 99h128l122 -102l-69 -77l-117 71z" />
    <glyph glyph-name="Ydieresis" unicode="&#x178;" horiz-adv-x="686" 
d="M237 0v253l-247 414h245l111 -210l107 210h243l-244 -413v-254h-215zM396 737q-24 22 -24 57t24.5 58t70.5 23q45 0 69 -23t24 -58t-24 -57t-69 -22q-46 0 -71 22zM157 737q-24 22 -24 57t24.5 58t70.5 23q45 0 69 -23t24 -58t-24 -57t-69 -22q-46 0 -71 22z" />
    <glyph glyph-name="Zacute" unicode="&#x179;" horiz-adv-x="619" 
d="M25 0v147l281 340h-268v180h544v-150l-279 -336h290v-181h-568zM242 700l-49 95l241 118l59 -124z" />
    <glyph glyph-name="zacute" unicode="&#x17a;" horiz-adv-x="547" 
d="M26 0v118l222 233h-211v142h477v-128l-213 -223h221v-142h-496zM188 534l-49 95l241 118l59 -124z" />
    <glyph glyph-name="Zdotaccent" unicode="&#x17b;" horiz-adv-x="619" 
d="M25 0v147l281 340h-268v180h544v-150l-279 -336h290v-181h-568zM248 740q-27 22 -27 57t27 58t73 23q45 0 71.5 -23t26.5 -58t-26.5 -57t-71.5 -22q-46 0 -73 22z" />
    <glyph glyph-name="zdotaccent" unicode="&#x17c;" horiz-adv-x="547" 
d="M26 0v118l222 233h-211v142h477v-128l-213 -223h221v-142h-496zM206 574q-27 22 -27 57t27 58t73 23q45 0 71.5 -23t26.5 -58t-26.5 -57t-71.5 -22q-46 0 -73 22z" />
    <glyph glyph-name="Zcaron" unicode="&#x17d;" horiz-adv-x="619" 
d="M25 0v147l281 340h-268v180h544v-150l-279 -336h290v-181h-568zM123 805l69 77l117 -71l126 71l60 -80l-122 -99h-128z" />
    <glyph glyph-name="zcaron" unicode="&#x17e;" horiz-adv-x="547" 
d="M26 0v118l222 233h-211v142h477v-128l-213 -223h221v-142h-496zM96 642l69 77l117 -71l126 71l60 -80l-122 -99h-128z" />
    <glyph glyph-name="longs" unicode="&#x17f;" horiz-adv-x="390" 
d="M73 0v508q0 78 49.5 125t146.5 47q27 0 52 -3.5t46 -8.5t37 -10.5t25 -9.5l-43 -114q-11 5 -24 8t-32 3q-23 0 -34.5 -12.5t-11.5 -27.5v-505h-211z" />
    <glyph glyph-name="florin" unicode="&#x192;" horiz-adv-x="610" 
d="M-12 21q66 2 95.5 22t38.5 60l42 191h-88v149h117l7 28q17 63 41.5 100.5t62.5 63.5q20 14 43.5 22t53 11.5t65 4.5t78.5 1v-158q-36 0 -60 -4t-39 -11t-22.5 -17t-10.5 -21l-5 -20h137v-149h-163l-54 -248q-22 -98 -103.5 -139.5t-235.5 -43.5v158z" />
    <glyph glyph-name="Scommaaccent" unicode="&#x218;" horiz-adv-x="597" 
d="M176 215q21 -28 51 -46t67 -18q36 0 56.5 8.5t20.5 25.5q0 10 -4.5 17.5t-17 14.5t-35.5 15t-59 18q-53 14 -95 31.5t-71.5 42.5t-45 59t-15.5 82q0 49 19 89t54.5 68t86.5 43t114 15q90 0 148.5 -23t97.5 -62q17 -17 29 -35l-160 -102q-6 10 -16 20.5t-24 19.5t-32.5 15
t-40.5 6q-36 0 -52.5 -9t-16.5 -24q0 -9 4 -16.5t18 -15t40.5 -16t70.5 -19.5q42 -10 80.5 -25t68 -40t46.5 -61.5t17 -90.5q0 -56 -23 -96.5t-62 -67t-90 -39.5t-107 -13q-91 0 -150.5 20.5t-99.5 58.5q-20 20 -40 51zM170 -206l68 149h162l-89 -149h-141z" />
    <glyph glyph-name="scommaaccent" unicode="&#x219;" horiz-adv-x="514" 
d="M108 157q20 -15 54.5 -29t74.5 -14q18 0 30 2t20 5q14 6 14 17q0 7 -4 12.5t-14.5 11t-29 11t-47.5 13.5q-39 11 -70.5 24t-53.5 31.5t-33.5 43.5t-11.5 60q0 39 18.5 68.5t50 50t74.5 30.5t93 10q45 0 80.5 -6t63 -16t47.5 -22.5t34 -25.5l-102 -91q-17 13 -44.5 26
t-65.5 13q-15 0 -24 -1.5t-17 -5.5q-13 -6 -13 -18q0 -5 1 -9.5t9.5 -9t26 -10.5t50.5 -14q40 -10 73 -22.5t57 -31t37 -45t13 -64.5q0 -44 -20 -74.5t-53.5 -49.5t-77 -28t-90.5 -9q-97 0 -158.5 21t-90.5 51zM129 -206l68 149h162l-89 -149h-141z" />
    <glyph glyph-name="uni021A" unicode="&#x21a;" horiz-adv-x="573" 
d="M179 0v487h-176v180h567v-180h-175v-487h-216zM127 -206l68 149h162l-89 -149h-141z" />
    <glyph glyph-name="uni021B" unicode="&#x21b;" horiz-adv-x="423" 
d="M6 353v140h69v122h211v-122h110v-140h-110v-187q0 -16 8 -24q7 -7 21 -7q17 0 31.5 6.5t26.5 15.5l54 -115q-33 -23 -78.5 -37.5t-105.5 -14.5q-47 0 -79 12.5t-51.5 34.5t-28.5 51t-9 62v203h-69zM83 -206l68 149h162l-89 -149h-141z" />
    <glyph glyph-name="dotlessj" unicode="&#x237;" horiz-adv-x="287" 
d="M-27 -87q13 9 24.5 17.5t20.5 19t14 25.5t5 38v480h210v-491q0 -45 -12 -79.5t-33 -60t-50.5 -43t-64.5 -28.5z" />
    <glyph glyph-name="apostrophe" unicode="&#x2bc;" horiz-adv-x="259" 
d="M6 580q16 4 34.5 13t28.5 18q-15 6 -30 21t-15 46q0 29 20 49.5t60 20.5q37 0 58.5 -20.5t21.5 -58.5q0 -47 -38.5 -85.5t-119.5 -59.5z" />
    <glyph glyph-name="circumflex" unicode="&#x2c6;" horiz-adv-x="372" 
d="M60 540l-60 80l122 99h128l122 -102l-69 -77l-117 71z" />
    <glyph glyph-name="caron" unicode="&#x2c7;" horiz-adv-x="372" 
d="M0 642l69 77l117 -71l126 71l60 -80l-122 -99h-128z" />
    <glyph glyph-name="uni02C9" unicode="&#x2c9;" horiz-adv-x="324" 
d="M0 597v115h324v-115h-324z" />
    <glyph glyph-name="breve" unicode="&#x2d8;" horiz-adv-x="343" 
d="M94 741q4 -83 77 -83q26 0 49 18.5t29 64.5h97q-2 -54 -18.5 -89.5t-41.5 -56.5t-55.5 -30t-59.5 -9q-33 0 -63.5 9t-54.5 30.5t-39 57t-17 88.5h97z" />
    <glyph glyph-name="dotaccent" unicode="&#x2d9;" horiz-adv-x="198" 
d="M27 574q-27 22 -27 57t27 58t73 23q45 0 71.5 -23t26.5 -58t-26.5 -57t-71.5 -22q-46 0 -73 22z" />
    <glyph glyph-name="ring" unicode="&#x2da;" horiz-adv-x="278" 
d="M77 548q-26 11 -43 28.5t-25.5 40.5t-8.5 47t8.5 47.5t25.5 41.5t43 29t62 11t62 -11t43 -29t25.5 -41.5t8.5 -47.5t-8.5 -47t-25.5 -40.5t-43 -28.5t-62 -11t-62 11zM88 665q0 -22 14 -35.5t37 -13.5t37 13.5t14 35.5q0 23 -14 36.5t-37 13.5t-37 -13.5t-14 -36.5z" />
    <glyph glyph-name="ogonek" unicode="&#x2db;" horiz-adv-x="242" 
d="M206 -200q-18 -8 -41 -15t-54 -7q-70 0 -102 29.5t-32 75.5q0 26 10 47.5t24 38.5t30.5 29.5t30.5 20.5l101 8v-18q-27 -19 -48.5 -45t-21.5 -53q0 -32 32 -32q11 0 20.5 3t17.5 7z" />
    <glyph glyph-name="tilde" unicode="&#x2dc;" horiz-adv-x="411" 
d="M0 589q17 64 50 99.5t78 35.5q19 0 37 -6.5t35 -14.5t33 -14.5t31 -6.5q24 0 36 12.5t19 32.5l92 -30q-5 -29 -15 -54t-25.5 -44t-37 -30t-49.5 -11q-21 0 -40 6.5t-36.5 14.5t-34 14.5t-31.5 6.5q-21 0 -32 -11t-22 -37z" />
    <glyph glyph-name="hungarumlaut" unicode="&#x2dd;" horiz-adv-x="406" 
d="M184 604l123 154l98 -79l-137 -142zM0 599l112 162l103 -72l-127 -151z" />
    <glyph glyph-name="tonos" unicode="&#x384;" horiz-adv-x="442" 
d="M129 569l105 239l127 -60l-145 -223z" />
    <glyph glyph-name="dieresistonos" unicode="&#x385;" horiz-adv-x="442" 
d="M370 574q-24 22 -24 57t24.5 58t70.5 23q45 0 69 -23t24 -58t-24 -57t-69 -22q-46 0 -71 22zM-53 574q-25 22 -25 57t24.5 58t70.5 23q45 0 69 -23t24 -58t-24 -57t-69 -22q-46 0 -70 22zM131 569l105 239l127 -60l-145 -223z" />
    <glyph glyph-name="Alphatonos" unicode="&#x386;" horiz-adv-x="741" 
d="M-10 411l64 269l146 -40l-100 -260zM31 0l248 667h225l247 -667h-229l-35 99h-196l-35 -99h-225zM328 255h120l-60 190z" />
    <glyph glyph-name="Epsilontonos" unicode="&#x388;" horiz-adv-x="709" 
d="M-58 411l64 269l146 -40l-100 -260zM178 0v667h488v-180h-273v-74h220v-159h-220v-73h293v-181h-508z" />
    <glyph glyph-name="Etatonos" unicode="&#x389;" horiz-adv-x="821" 
d="M-68 411l64 269l146 -40l-100 -260zM176 0v667h215v-233h165v233h215v-667h-215v251h-165v-251h-215z" />
    <glyph glyph-name="Iotatonos" unicode="&#x38a;" horiz-adv-x="450" 
d="M-58 411l64 269l146 -40l-100 -260zM185 0v667h215v-667h-215z" />
    <glyph glyph-name="Omicrontonos" unicode="&#x38c;" horiz-adv-x="803" 
d="M-58 411l64 269l146 -40l-100 -260zM308 11q-60 26 -101.5 72.5t-62.5 110t-21 140.5q0 76 21 140t62.5 109.5t102 71t139.5 25.5t139.5 -25.5t102 -71t62.5 -109.5t21 -140q0 -77 -21 -140.5t-62.5 -110t-102 -72t-139.5 -25.5t-140 25zM369 207q27 -45 79 -45t78.5 45
t26.5 127q0 81 -26.5 125.5t-78.5 44.5t-78.5 -44.5t-26.5 -125.5q0 -82 26 -127z" />
    <glyph glyph-name="Upsilontonos" unicode="&#x38e;" horiz-adv-x="842" 
d="M-58 411l64 269l146 -40l-100 -260zM382 0v110q0 11 -1.5 34t-3.5 47q-5 50 -30 101t-60 96.5t-75 82.5t-76 58l132 148q31 -20 65 -50.5t65.5 -67t56.5 -78.5t39 -85q12 41 36 82t55 77.5t65.5 67t67.5 51.5l124 -135q-33 -23 -73 -61t-76 -85t-62.5 -100t-33.5 -105
q-5 -33 -5.5 -55t-0.5 -39v-94h-209z" />
    <glyph glyph-name="Omegatonos" unicode="&#x38f;" horiz-adv-x="826" 
d="M-58 411l64 269l146 -40l-100 -260zM135 0v181h79q-15 13 -30.5 35t-28 49.5t-21 59t-8.5 63.5q0 69 25 123t69.5 91.5t106 57.5t134.5 20t134.5 -20t106 -57.5t69.5 -92t25 -122.5q0 -32 -8.5 -63.5t-21 -59t-28 -49.5t-30.5 -35h79v-181h-278v162q9 9 20.5 23t22 35.5
t17.5 53t7 76.5q0 43 -8.5 72.5t-23.5 47.5t-36.5 26t-46.5 8q-26 0 -47 -8t-36 -26t-23.5 -47.5t-8.5 -72.5q0 -45 7 -76.5t17.5 -53t22 -35.5t20.5 -23v-162h-278z" />
    <glyph glyph-name="iotadieresistonos" unicode="&#x390;" horiz-adv-x="340" 
d="M350 16q-26 -10 -61 -18t-79 -8q-47 0 -79.5 12.5t-52.5 35.5t-29 55.5t-9 72.5v327h210v-306q0 -32 11 -43.5t30 -11.5q9 0 19 2t22 6zM308 574q-24 22 -24 57t24.5 58t70.5 23q45 0 69 -23t24 -58t-24 -57t-69 -22q-46 0 -71 22zM-115 574q-25 22 -25 57t24.5 58
t70.5 23q45 0 69 -23t24 -58t-24 -57t-69 -22q-46 0 -70 22zM69 569l105 239l127 -60l-145 -223z" />
    <glyph glyph-name="Alpha" unicode="&#x391;" horiz-adv-x="700" 
d="M-10 0l248 667h225l247 -667h-229l-35 99h-196l-35 -99h-225zM287 255h120l-60 190z" />
    <glyph glyph-name="Beta" unicode="&#x392;" horiz-adv-x="623" 
d="M50 0v667h287q54 0 98.5 -11t76 -32.5t48.5 -54t17 -75.5q0 -33 -8.5 -56.5t-22 -40.5t-29.5 -28t-30 -18q21 -6 43 -18t40 -31t29.5 -46t11.5 -62q0 -44 -16 -79.5t-46.5 -61t-74.5 -39.5t-99 -14h-325zM260 410h56q30 0 43.5 15t13.5 38t-13.5 35.5t-43.5 12.5h-56
v-101zM260 165h76q28 0 44 11.5t16 38.5t-15.5 39t-44.5 12h-76v-101z" />
    <glyph glyph-name="Gamma" unicode="&#x393;" horiz-adv-x="580" 
d="M55 0v668h485v-179h-273v-489h-212z" />
    <glyph glyph-name="uni0394" unicode="&#x394;" horiz-adv-x="680" 
d="M-10 0l246 668h209l245 -668h-700zM245 158h184l-91 296z" />
    <glyph glyph-name="Epsilon" unicode="&#x395;" horiz-adv-x="581" 
d="M50 0v667h488v-180h-273v-74h220v-159h-220v-73h293v-181h-508z" />
    <glyph glyph-name="Zeta" unicode="&#x396;" horiz-adv-x="619" 
d="M25 0v147l281 340h-268v180h544v-150l-279 -336h290v-181h-568z" />
    <glyph glyph-name="Eta" unicode="&#x397;" horiz-adv-x="695" 
d="M50 0v667h215v-233h165v233h215v-667h-215v251h-165v-251h-215z" />
    <glyph glyph-name="Theta" unicode="&#x398;" horiz-adv-x="710" 
d="M291 264v139h130v-139h-130zM215 11q-60 26 -101.5 72.5t-62.5 110t-21 140.5q0 76 21 140t62.5 109.5t102 71t139.5 25.5t139.5 -25.5t102 -71t62.5 -109.5t21 -140q0 -77 -21 -140.5t-62.5 -110t-102 -72t-139.5 -25.5t-140 25zM276 207q27 -45 79 -45t78.5 45
t26.5 127q0 81 -26.5 125.5t-78.5 44.5t-78.5 -44.5t-26.5 -125.5q0 -82 26 -127z" />
    <glyph glyph-name="Iota" unicode="&#x399;" horiz-adv-x="315" 
d="M50 0v667h215v-667h-215z" />
    <glyph glyph-name="Kappa" unicode="&#x39a;" horiz-adv-x="699" 
d="M50 0v667h215v-200l169 200h251l-225 -260l249 -407h-262l-137 254l-45 -44v-210h-215z" />
    <glyph glyph-name="Lambda" unicode="&#x39b;" horiz-adv-x="690" 
d="M-10 0l243 668h225l242 -668h-225l-136 431l-135 -431h-214z" />
    <glyph glyph-name="Mu" unicode="&#x39c;" horiz-adv-x="824" 
d="M50 0v667h222l140 -359l140 359h222v-667h-205v288l-111 -292h-92l-111 292v-288h-205z" />
    <glyph glyph-name="Nu" unicode="&#x39d;" horiz-adv-x="700" 
d="M50 0v667h216l174 -301v301h210v-667h-199l-191 325v-325h-210z" />
    <glyph glyph-name="Xi" unicode="&#x39e;" horiz-adv-x="553" 
d="M40 0v181h473v-181h-473zM46 487v181h462v-181h-462zM95 255v159h363v-159h-363z" />
    <glyph glyph-name="Omicron" unicode="&#x39f;" horiz-adv-x="710" 
d="M215 11q-60 26 -101.5 72.5t-62.5 110t-21 140.5q0 76 21 140t62.5 109.5t102 71t139.5 25.5t139.5 -25.5t102 -71t62.5 -109.5t21 -140q0 -77 -21 -140.5t-62.5 -110t-102 -72t-139.5 -25.5t-140 25zM276 207q27 -45 79 -45t78.5 45t26.5 127q0 81 -26.5 125.5
t-78.5 44.5t-78.5 -44.5t-26.5 -125.5q0 -82 26 -127z" />
    <glyph glyph-name="Pi" unicode="&#x3a0;" horiz-adv-x="684" 
d="M55 0v668h574v-668h-211v494h-151v-494h-212z" />
    <glyph glyph-name="Rho" unicode="&#x3a1;" horiz-adv-x="609" 
d="M50 0v667h282q62 0 111.5 -15.5t84 -45.5t53 -73t18.5 -98t-18.5 -98t-53 -73t-84 -46t-111.5 -16h-70v-202h-212zM262 373h63q29 0 45 18t16 44t-16 43t-45 17h-63v-122z" />
    <glyph glyph-name="Sigma" unicode="&#x3a3;" horiz-adv-x="543" 
d="M26 0v171l178 164l-179 161v172h491v-181h-223l148 -151l-155 -155h234v-181h-494z" />
    <glyph glyph-name="Tau" unicode="&#x3a4;" horiz-adv-x="573" 
d="M179 0v487h-176v180h567v-180h-175v-487h-216z" />
    <glyph glyph-name="Upsilon" unicode="&#x3a5;" horiz-adv-x="706" 
d="M246 0v110q0 11 -1.5 34t-3.5 47q-5 50 -30 101t-60 96.5t-75 82.5t-76 58l132 148q31 -20 65 -50.5t65.5 -67t56.5 -78.5t39 -85q12 41 36 82t55 77.5t65.5 67t67.5 51.5l124 -135q-33 -23 -73 -61t-76 -85t-62.5 -100t-33.5 -105q-5 -33 -5.5 -55t-0.5 -39v-94h-209z
" />
    <glyph glyph-name="Phi" unicode="&#x3a6;" horiz-adv-x="876" 
d="M338 -11v85q-71 2 -128.5 18t-98 48t-63 79.5t-22.5 112.5t24 113t66 79.5t99 48t123 19.5v89h202v-88q68 -4 125 -19.5t98.5 -45.5t64.5 -76.5t23 -112.5q0 -68 -25.5 -117.5t-68 -82t-99 -48.5t-118.5 -17v-85h-202zM338 445q-41 -2 -68 -31.5t-27 -79.5q0 -24 7.5 -45
t20 -36t30 -24t37.5 -9v225zM540 219q19 0 37 8.5t31.5 23.5t21.5 36.5t8 47.5q0 55 -29 81.5t-69 26.5v-224z" />
    <glyph glyph-name="Chi" unicode="&#x3a7;" horiz-adv-x="680" 
d="M-10 0l228 341l-213 326h244l93 -156l94 156h238l-212 -321l228 -346h-249l-103 173l-105 -173h-243z" />
    <glyph glyph-name="Psi" unicode="&#x3a8;" horiz-adv-x="849" 
d="M320 0v160q-86 3 -141.5 21.5t-87.5 52.5t-44 83.5t-12 114.5v236h211v-218q0 -29 3 -50t11 -34.5t22.5 -19.5t37.5 -6v328h211v-328q25 0 39.5 6.5t22 19.5t10 33t2.5 47v222h209v-226q0 -63 -13.5 -113.5t-46 -87t-87 -57.5t-136.5 -24v-160h-211z" />
    <glyph glyph-name="Omega" unicode="&#x3a9;" horiz-adv-x="730" 
d="M39 0v181h79q-15 13 -30.5 35t-28 49.5t-21 59t-8.5 63.5q0 69 25 123t69.5 91.5t106 57.5t134.5 20t134.5 -20t106 -57.5t69.5 -92t25 -122.5q0 -32 -8.5 -63.5t-21 -59t-28 -49.5t-30.5 -35h79v-181h-278v162q9 9 20.5 23t22 35.5t17.5 53t7 76.5q0 43 -8.5 72.5
t-23.5 47.5t-36.5 26t-46.5 8q-26 0 -47 -8t-36 -26t-23.5 -47.5t-8.5 -72.5q0 -45 7 -76.5t17.5 -53t22 -35.5t20.5 -23v-162h-278z" />
    <glyph glyph-name="Iotadieresis" unicode="&#x3aa;" horiz-adv-x="315" 
d="M50 0v667h215v-667h-215zM210 740q-24 22 -24 57t24.5 58t70.5 23q45 0 69 -23t24 -58t-24 -57t-69 -22q-46 0 -71 22zM-29 740q-24 22 -24 57t24.5 58t70.5 23q45 0 69 -23t24 -58t-24 -57t-69 -22q-46 0 -71 22z" />
    <glyph glyph-name="Upsilondieresis" unicode="&#x3ab;" horiz-adv-x="706" 
d="M246 0v110q0 11 -1.5 34t-3.5 47q-5 50 -30 101t-60 96.5t-75 82.5t-76 58l132 148q31 -20 65 -50.5t65.5 -67t56.5 -78.5t39 -85q12 41 36 82t55 77.5t65.5 67t67.5 51.5l124 -135q-33 -23 -73 -61t-76 -85t-62.5 -100t-33.5 -105q-5 -33 -5.5 -55t-0.5 -39v-94h-209z
M402 740q-24 22 -24 57t24.5 58t70.5 23q45 0 69 -23t24 -58t-24 -57t-69 -22q-46 0 -71 22zM163 740q-24 22 -24 57t24.5 58t70.5 23q45 0 69 -23t24 -58t-24 -57t-69 -22q-46 0 -71 22z" />
    <glyph glyph-name="alphatonos" unicode="&#x3ac;" horiz-adv-x="650" 
d="M249 164q14 -29 42 -29q27 0 42 28t15 86q0 22 -2.5 41t-8.5 33t-17 22.5t-27 8.5q-11 0 -21.5 -4t-18.5 -16t-13 -33.5t-5 -55.5q0 -51 14 -81zM660 6q-21 -8 -49.5 -12t-51.5 -4q-58 0 -91 22.5t-47 54.5q-26 -38 -69 -57.5t-99 -19.5q-52 0 -94 16.5t-72 48t-46 78.5
t-16 109q0 58 15.5 106.5t45.5 83t74.5 53.5t103.5 19q51 0 90.5 -16.5t59.5 -42.5q1 6 4 16t7 20.5t8.5 21t9.5 16.5l173 -44q-13 -28 -24.5 -56t-20.5 -57.5t-14.5 -62t-5.5 -69.5q0 -32 4 -52t11 -31.5t17.5 -16t24.5 -4.5q10 0 20.5 1.5t22.5 6.5zM278 569l105 239
l127 -60l-145 -223z" />
    <glyph glyph-name="epsilontonos" unicode="&#x3ad;" horiz-adv-x="502" 
d="M291 181q-27 0 -40 -6t-13 -23q0 -20 21.5 -26t52.5 -6q27 0 63 6t84 26l23 -123q-45 -20 -102.5 -29.5t-113.5 -9.5q-126 0 -183.5 37t-57.5 111q0 43 26 75.5t72 42.5q-38 11 -62 38.5t-24 67.5q0 68 56.5 105t172.5 37q66 0 120.5 -11t89.5 -29l-45 -122
q-45 17 -76 22.5t-51 5.5q-19 0 -36.5 -4.5t-17.5 -21.5q0 -22 20.5 -27.5t52.5 -5.5h96v-130h-128zM223 569l105 239l127 -60l-145 -223z" />
    <glyph glyph-name="etatonos" unicode="&#x3ae;" horiz-adv-x="632" 
d="M78 0v326q0 26 -6.5 33t-19.5 7q-6 0 -12 -1t-11 -3l-29 110q17 8 54 17.5t77 9.5q54 0 81 -19.5t38 -52.5q20 30 60 53.5t108 23.5q46 0 78 -13t53 -35t32 -51.5t14 -61.5q2 -17 2 -30v-33v-469h-211v434q0 17 -0.5 34t-3.5 31q-4 17 -13.5 26t-29.5 9
q-25 0 -35.5 -13.5t-12.5 -38.5q-1 -7 -1.5 -17.5t-0.5 -21.5v-21v-16v-217h-211zM276 569l105 239l127 -60l-145 -223z" />
    <glyph glyph-name="iotatonos" unicode="&#x3af;" horiz-adv-x="340" 
d="M350 16q-26 -10 -61 -18t-79 -8q-47 0 -79.5 12.5t-52.5 35.5t-29 55.5t-9 72.5v327h210v-306q0 -32 11 -43.5t30 -11.5q9 0 19 2t22 6zM70 569l105 239l127 -60l-145 -223z" />
    <glyph glyph-name="upsilondieresistonos" unicode="&#x3b0;" horiz-adv-x="616" 
d="M63 327q0 25 -7 32t-19 7q-6 0 -12 -1t-11 -3l-29 110q17 8 55.5 17.5t86.5 9.5q63 0 94 -24t42 -56q8 -25 9.5 -46t1.5 -47v-88q0 -23 1 -42t5 -32.5t12.5 -20.5t24.5 -7q18 0 28 11.5t14.5 31t5.5 45t1 52.5q0 52 -6 105.5t-17 106.5l212 10q10 -48 15.5 -102t5.5 -108
q0 -31 -1 -56t-5 -49q-15 -91 -78.5 -142t-183.5 -51q-54 0 -99.5 12t-77.5 38t-50 67t-18 98v122zM454 574q-24 22 -24 57t24.5 58t70.5 23q45 0 69 -23t24 -58t-24 -57t-69 -22q-46 0 -71 22zM31 574q-25 22 -25 57t24.5 58t70.5 23q45 0 69 -23t24 -58t-24 -57t-69 -22
q-46 0 -70 22zM215 569l105 239l127 -60l-145 -223z" />
    <glyph glyph-name="alpha" unicode="&#x3b1;" horiz-adv-x="650" 
d="M249 164q14 -29 42 -29q27 0 42 28t15 86q0 22 -2.5 41t-8.5 33t-17 22.5t-27 8.5q-11 0 -21.5 -4t-18.5 -16t-13 -33.5t-5 -55.5q0 -51 14 -81zM660 6q-21 -8 -49.5 -12t-51.5 -4q-58 0 -91 22.5t-47 54.5q-26 -38 -69 -57.5t-99 -19.5q-52 0 -94 16.5t-72 48t-46 78.5
t-16 109q0 58 15.5 106.5t45.5 83t74.5 53.5t103.5 19q51 0 90.5 -16.5t59.5 -42.5q1 6 4 16t7 20.5t8.5 21t9.5 16.5l173 -44q-13 -28 -24.5 -56t-20.5 -57.5t-14.5 -62t-5.5 -69.5q0 -32 4 -52t11 -31.5t17.5 -16t24.5 -4.5q10 0 20.5 1.5t22.5 6.5z" />
    <glyph glyph-name="beta" unicode="&#x3b2;" horiz-adv-x="658" 
d="M55 -189v554q0 11 0.5 24.5t1 26.5t1.5 24.5t2 19.5q4 28 15 66t39.5 72t80 58t136.5 24q62 0 108.5 -13.5t77 -37.5t46 -57t15.5 -73q0 -31 -10.5 -55.5t-26 -42t-33 -28t-32.5 -13.5q30 -5 59 -16.5t52 -32.5t37 -51.5t14 -71.5q0 -50 -18 -87.5t-48.5 -62t-71 -36.5
t-85.5 -12q-54 0 -92 11.5t-63 28.5v-219h-205zM266 161q17 -13 39 -22.5t48 -9.5q15 0 29 3.5t24.5 12t17 22.5t6.5 34q0 49 -33.5 68t-90.5 19v121q46 0 62 19.5t16 51.5t-16 47.5t-41 15.5q-29 0 -43.5 -18.5t-16.5 -50.5q-1 -12 -1 -27v-26v-260z" />
    <glyph glyph-name="gamma" unicode="&#x3b3;" horiz-adv-x="622" 
d="M205 -189q0 23 -0.5 42l-1 38t-2 40.5t-3.5 48.5q-5 58 -17.5 113t-29 102t-34 83.5t-32.5 57.5q-9 13 -18.5 17.5t-19.5 4.5q-7 0 -15 -2t-14 -4l-38 112q9 5 24.5 11t34.5 11.5t40.5 9.5t42.5 4q42 0 74 -18t57 -63q22 -39 39.5 -98t29.5 -134q9 48 22.5 95.5t29.5 90
t33.5 78.5t33.5 60l171 -72q-28 -50 -59.5 -111t-59 -126.5t-48 -131t-27.5 -124.5q-2 -20 -3 -35t-1.5 -28t-1 -25t-0.5 -27v-20h-207z" />
    <glyph glyph-name="delta" unicode="&#x3b4;" horiz-adv-x="578" 
d="M90 668h413v-134h-168q16 -10 28.5 -18t24 -16t23 -16.5t25.5 -18.5q63 -46 92.5 -100t29.5 -128q0 -49 -17 -93.5t-51 -78.5t-85.5 -54.5t-120.5 -20.5q-57 0 -104.5 16.5t-82 47t-53.5 75.5t-19 102q0 88 46 147.5t131 83.5q-33 24 -72 44.5t-77 37.5zM244 168
q7 -14 18.5 -23t28.5 -9q33 0 47.5 28.5t14.5 74.5t-12 74t-35 48q-39 -14 -57 -46t-18 -74q0 -20 3 -39t10 -34z" />
    <glyph glyph-name="epsilon" unicode="&#x3b5;" horiz-adv-x="502" 
d="M291 181q-27 0 -40 -6t-13 -23q0 -20 21.5 -26t52.5 -6q27 0 63 6t84 26l23 -123q-45 -20 -102.5 -29.5t-113.5 -9.5q-126 0 -183.5 37t-57.5 111q0 43 26 75.5t72 42.5q-38 11 -62 38.5t-24 67.5q0 68 56.5 105t172.5 37q66 0 120.5 -11t89.5 -29l-45 -122
q-45 17 -76 22.5t-51 5.5q-19 0 -36.5 -4.5t-17.5 -21.5q0 -22 20.5 -27.5t52.5 -5.5h96v-130h-128z" />
    <glyph glyph-name="zeta" unicode="&#x3b6;" horiz-adv-x="492" 
d="M266 -151q11 34 20 71t14 68q-62 1 -112.5 11.5t-86.5 35t-56 64.5t-20 101q0 51 14 97t38.5 86.5t57 75t68.5 61.5q13 10 22.5 16.5t16.5 8.5q-8 -1 -17.5 -1.5t-31.5 -0.5q-11 0 -29.5 1.5t-39.5 4t-42 5.5t-36 7l26 132q48 -9 103.5 -14t98.5 -5q15 0 39 0.5t52.5 1.5
t59 3.5t57.5 5.5v-123q-20 -13 -39.5 -25.5t-36.5 -25.5q-89 -67 -132 -139.5t-43 -138.5q0 -30 10.5 -49.5t33.5 -31.5t58 -17t85 -6q38 -1 56 -14.5t18 -46.5q0 -27 -7.5 -62t-19.5 -70.5t-26.5 -68.5t-27.5 -55z" />
    <glyph glyph-name="eta" unicode="&#x3b7;" horiz-adv-x="632" 
d="M78 0v326q0 26 -6.5 33t-19.5 7q-6 0 -12 -1t-11 -3l-29 110q17 8 54 17.5t77 9.5q54 0 81 -19.5t38 -52.5q20 30 60 53.5t108 23.5q46 0 78 -13t53 -35t32 -51.5t14 -61.5q2 -17 2 -30v-33v-469h-211v434q0 17 -0.5 34t-3.5 31q-4 17 -13.5 26t-29.5 9
q-25 0 -35.5 -13.5t-12.5 -38.5q-1 -7 -1.5 -17.5t-0.5 -21.5v-21v-16v-217h-211z" />
    <glyph glyph-name="theta" unicode="&#x3b8;" horiz-adv-x="598" 
d="M169 19q-52 29 -84 76.5t-46 108.5t-14 126q0 68 16 131.5t50 112t87.5 77.5t128.5 29t127 -27t84 -73.5t46 -109t14 -132.5q0 -71 -14.5 -134.5t-47.5 -111t-86.5 -75t-131.5 -27.5q-77 0 -129 29zM232 263q0 -29 3.5 -54.5t11.5 -45t21 -31t33 -11.5q40 0 54.5 36.5
t14.5 105.5h-138zM370 402q-1 64 -17 103t-51 39q-19 0 -32 -11.5t-21 -31t-12 -45.5t-5 -54h138z" />
    <glyph glyph-name="iota" unicode="&#x3b9;" horiz-adv-x="340" 
d="M350 16q-26 -10 -61 -18t-79 -8q-47 0 -79.5 12.5t-52.5 35.5t-29 55.5t-9 72.5v327h210v-306q0 -32 11 -43.5t30 -11.5q9 0 19 2t22 6z" />
    <glyph glyph-name="kappa" unicode="&#x3ba;" horiz-adv-x="619" 
d="M45 0v493h210v-154q19 23 39.5 47t39.5 44q37 38 72 56t79 18q32 0 60.5 -9t49.5 -23l-41 -131q-8 5 -20 8.5t-24 3.5q-17 0 -34 -11.5t-39 -36.5l-23 -26l195 -279h-223l-104 152l-27 -33v-119h-210z" />
    <glyph glyph-name="lambda" unicode="&#x3bb;" horiz-adv-x="594" 
d="M10 0l190 461l-19 42q-11 23 -25 32t-31 9t-30.5 -5t-27.5 -11l-38 113q36 19 78.5 29t82.5 10q59 0 103 -27t70 -100l137 -385q11 -31 20.5 -44.5t31.5 -13.5q10 0 21 2.5t22 6.5l19 -110q-14 -7 -46 -14.5t-71 -7.5q-40 0 -69 9.5t-50 28.5t-35.5 46.5t-26.5 63.5
l-29 89l-74 -224h-203z" />
    <glyph glyph-name="uni03BC" unicode="&#x3bc;" horiz-adv-x="638" 
d="M45 -188v681h211v-257v-18.5t1 -18.5q2 -27 12.5 -41t36.5 -14q20 0 32 13t14 48q1 9 1 20v20v248h211v-296q0 -43 10.5 -57.5t29.5 -14.5q18 0 39 7l10 -126q-21 -8 -43.5 -12t-45.5 -4q-51 0 -82 18.5t-44 49.5q-16 -37 -43 -53q-16 -9 -31 -12t-28 -3q-32 0 -54.5 11
t-32.5 25v-214h-204z" />
    <glyph glyph-name="nu" unicode="&#x3bd;" horiz-adv-x="631" 
d="M208 0q-12 57 -28 109.5t-33 96t-33.5 77t-29.5 53.5q-8 13 -18 17.5t-20 4.5q-7 0 -15 -2t-14 -4l-37 111q18 11 55.5 23.5t79.5 12.5q43 0 77.5 -15t60.5 -59q9 -15 18.5 -39t19 -53t18.5 -61.5t15 -65.5q11 34 26 75.5t30.5 83.5t31 80.5t28.5 65.5l171 -72
q-22 -48 -46 -102t-48 -110.5t-47.5 -114t-43.5 -112.5h-218z" />
    <glyph glyph-name="xi" unicode="&#x3be;" horiz-adv-x="530" 
d="M299 -151q11 29 20 67.5t14 71.5q-60 1 -115 9t-96.5 29t-66.5 57.5t-25 94.5q0 54 31.5 96t92.5 61q-42 13 -67 41t-25 71q0 37 19.5 65.5t61.5 42.5q7 3 23.5 7t27.5 6q-11 -1 -30.5 -2.5t-36.5 -1.5q-23 0 -52 3t-45 6l21 118q31 -5 65 -8t66 -4.5t61 -2.5t51 -1
q16 0 41.5 0.5t53.5 1.5t55.5 2t46.5 3v-121q-25 -3 -62 -8.5t-71.5 -17t-59.5 -29.5t-25 -46q0 -25 16.5 -36t42.5 -13q17 -2 36 -2h39h51v-140h-21.5t-30.5 -0.5t-36.5 -1t-37.5 -1.5q-38 -2 -63.5 -17t-25.5 -47q0 -20 10 -33.5t33 -22t59.5 -12.5t90.5 -5
q44 -1 66.5 -13.5t22.5 -44.5q0 -22 -7.5 -56.5t-19.5 -72t-26.5 -72.5t-27.5 -58z" />
    <glyph glyph-name="omicron" unicode="&#x3bf;" horiz-adv-x="584" 
d="M97 61q-34 34 -53 81.5t-19 106.5q0 58 19 105.5t53.5 80.5t84 51t110.5 18t110.5 -18t84 -51t53.5 -80.5t19 -105.5q0 -59 -19 -106.5t-53.5 -81.5t-84 -52.5t-110.5 -18.5t-110.5 18.5t-84.5 52.5zM248 168q15 -32 44 -32t44 32t15 81q0 48 -15 77t-44 29t-44 -29
t-15 -77q0 -49 15 -81z" />
    <glyph glyph-name="pi" unicode="&#x3c0;" horiz-adv-x="805" 
d="M165 0v344h-6q-22 0 -36 -11t-25 -26l-113 90q31 43 75.5 69.5t118.5 26.5h582v-140h-92v-174q0 -26 8 -36t27 -10q16 0 38 8l23 -125q-26 -11 -63 -18.5t-79 -7.5q-48 0 -79.5 12t-50.5 34.5t-27 54.5t-8 72v190h-82v-353h-211z" />
    <glyph glyph-name="rho" unicode="&#x3c1;" horiz-adv-x="604" 
d="M45 -188v412q0 31 4.5 64.5t13.5 59.5q25 69 87 112.5t171 43.5q67 0 117 -19t82 -53.5t48 -82t16 -104.5q0 -53 -13.5 -99t-40.5 -81t-67.5 -55t-94.5 -20q-38 0 -66.5 10.5t-45.5 26.5v-215h-211zM258 156q10 -10 24 -17.5t34 -7.5q33 0 47 26.5t14 83.5q0 33 -4.5 55
t-12.5 35t-18.5 18.5t-22.5 5.5q-21 0 -33.5 -13t-18.5 -33t-7.5 -44t-1.5 -45v-64z" />
    <glyph glyph-name="sigma1" unicode="&#x3c2;" horiz-adv-x="557" 
d="M261 -150q11 31 20.5 69.5t13.5 69.5q-48 3 -96 16t-87 42t-63 76.5t-24 119.5q0 60 19 108.5t55 82t87 52t115 18.5q88 0 146 -36.5t89 -105.5l-165 -67q-4 12 -9 23t-13.5 20t-19.5 14.5t-27 5.5q-32 0 -50.5 -27.5t-18.5 -75.5q0 -70 46.5 -101t146.5 -34
q37 -1 49.5 -15.5t12.5 -40.5t-8 -60.5t-20.5 -70t-27 -68t-27.5 -54.5z" />
    <glyph glyph-name="sigma" unicode="&#x3c3;" horiz-adv-x="637" 
d="M497 353q26 -26 42 -56t16 -80q0 -40 -15 -80.5t-46.5 -73t-81.5 -53t-120 -20.5q-67 0 -117 19.5t-83.5 52.5t-50 76.5t-16.5 91.5q0 49 14.5 93t44.5 78.5t77 57t113 28.5q27 2 58.5 3.5t65 2t67.5 0.5h66h81v-140h-115zM344 305q-7 27 -26 50q-46 -3 -65.5 -31.5
t-19.5 -83.5q0 -48 15.5 -76t43.5 -28q25 0 42.5 26.5t17.5 80.5q0 35 -8 62z" />
    <glyph glyph-name="tau" unicode="&#x3c4;" horiz-adv-x="640" 
d="M-10 368q17 29 38 52.5t44 39.5q26 18 57.5 25.5t65.5 7.5h405v-140h-164v-159q0 -37 12.5 -49.5t36.5 -12.5q13 0 26.5 3t26.5 8l18 -125q-26 -11 -62.5 -19.5t-81.5 -8.5q-54 0 -90 13t-57 36.5t-30 56.5t-9 73v184h-13q-20 0 -35 -5t-26 -14t-20 -20t-18 -23z" />
    <glyph glyph-name="upsilon" unicode="&#x3c5;" horiz-adv-x="616" 
d="M63 327q0 25 -7 32t-19 7q-6 0 -12 -1t-11 -3l-29 110q17 8 55.5 17.5t86.5 9.5q63 0 94 -24t42 -56q8 -25 9.5 -46t1.5 -47v-88q0 -23 1 -42t5 -32.5t12.5 -20.5t24.5 -7q18 0 28 11.5t14.5 31t5.5 45t1 52.5q0 52 -6 105.5t-17 106.5l212 10q10 -48 15.5 -102t5.5 -108
q0 -31 -1 -56t-5 -49q-15 -91 -78.5 -142t-183.5 -51q-54 0 -99.5 12t-77.5 38t-50 67t-18 98v122z" />
    <glyph glyph-name="phi" unicode="&#x3c6;" horiz-adv-x="854" 
d="M327 -189v189q-75 3 -131.5 22.5t-94.5 53t-57 79t-19 99.5q0 55 20 101t58.5 80t95 54.5t128.5 24.5v155h198v-157q148 -6 225.5 -69t77.5 -180q0 -61 -21 -109t-60 -81t-95 -51.5t-127 -21.5v-189h-198zM327 367q-35 0 -60 -26.5t-25 -84.5q0 -54 24.5 -85t60.5 -31
v227zM525 140q39 0 64 32t25 86q0 50 -24 79.5t-65 29.5v-227z" />
    <glyph glyph-name="chi" unicode="&#x3c7;" horiz-adv-x="580" 
d="M12 -127l170 286l-67 138q-17 35 -29.5 50.5t-29.5 15.5q-15 0 -30 -7l-41 115q23 12 57.5 22.5t72.5 10.5q43 0 78 -17t60 -68l45 -95l103 188l161 -74l-168 -293l73 -139q10 -20 18 -33t14.5 -21t14 -11t18.5 -3q10 0 18 2l16 4l29 -121q-14 -7 -44.5 -15t-67.5 -8
q-54 0 -91.5 22t-64.5 72l-45 83l-111 -185z" />
    <glyph glyph-name="psi" unicode="&#x3c8;" horiz-adv-x="832" 
d="M320 -189v179q-144 6 -212 70.5t-68 190.5v97q0 26 -1 63.5t-9 70.5l202 17q11 -40 12.5 -80t1.5 -65v-86q0 -58 16.5 -89t57.5 -37v475h202v-475q27 7 42 21t23 33t10 42t2 47q0 56 -7.5 101.5t-18.5 96.5l199 16q14 -57 22 -110t8 -104q0 -62 -15 -114.5t-48.5 -91.5
t-87 -62t-129.5 -26v-180h-202z" />
    <glyph glyph-name="omega" unicode="&#x3c9;" horiz-adv-x="836" 
d="M301 433q-29 -45 -47.5 -92t-18.5 -101q0 -41 8.5 -67t37.5 -26q27 0 35.5 20t9.5 59q0 9 0.5 24.5t1 33.5t1 35t0.5 29h186v-29t0.5 -35t1 -33.5t1.5 -24.5q3 -42 11.5 -60t34.5 -18q29 0 37 26t8 74q0 47 -19 95.5t-48 89.5l172 66q20 -23 38.5 -53t32.5 -64t22.5 -71
t8.5 -74q0 -121 -55.5 -184t-163.5 -63q-64 0 -107 18t-69 63q-35 -47 -79 -64t-99 -17q-53 0 -94 17t-68.5 47.5t-41.5 73.5t-14 95q0 86 30.5 155.5t69.5 120.5z" />
    <glyph glyph-name="iotadieresis" unicode="&#x3ca;" horiz-adv-x="340" 
d="M350 16q-26 -10 -61 -18t-79 -8q-47 0 -79.5 12.5t-52.5 35.5t-29 55.5t-9 72.5v327h210v-306q0 -32 11 -43.5t30 -11.5q9 0 19 2t22 6zM199 574q-24 22 -24 57t24.5 58t70.5 23q45 0 69 -23t24 -58t-24 -57t-69 -22q-46 0 -71 22zM-40 574q-24 22 -24 57t24.5 58
t70.5 23q45 0 69 -23t24 -58t-24 -57t-69 -22q-46 0 -71 22z" />
    <glyph glyph-name="upsilondieresis" unicode="&#x3cb;" horiz-adv-x="616" 
d="M63 327q0 25 -7 32t-19 7q-6 0 -12 -1t-11 -3l-29 110q17 8 55.5 17.5t86.5 9.5q63 0 94 -24t42 -56q8 -25 9.5 -46t1.5 -47v-88q0 -23 1 -42t5 -32.5t12.5 -20.5t24.5 -7q18 0 28 11.5t14.5 31t5.5 45t1 52.5q0 52 -6 105.5t-17 106.5l212 10q10 -48 15.5 -102t5.5 -108
q0 -31 -1 -56t-5 -49q-15 -91 -78.5 -142t-183.5 -51q-54 0 -99.5 12t-77.5 38t-50 67t-18 98v122zM358 574q-24 22 -24 57t24.5 58t70.5 23q45 0 69 -23t24 -58t-24 -57t-69 -22q-46 0 -71 22zM119 574q-24 22 -24 57t24.5 58t70.5 23q45 0 69 -23t24 -58t-24 -57t-69 -22
q-46 0 -71 22z" />
    <glyph glyph-name="omicrontonos" unicode="&#x3cc;" horiz-adv-x="584" 
d="M97 61q-34 34 -53 81.5t-19 106.5q0 58 19 105.5t53.5 80.5t84 51t110.5 18t110.5 -18t84 -51t53.5 -80.5t19 -105.5q0 -59 -19 -106.5t-53.5 -81.5t-84 -52.5t-110.5 -18.5t-110.5 18.5t-84.5 52.5zM248 168q15 -32 44 -32t44 32t15 81q0 48 -15 77t-44 29t-44 -29
t-15 -77q0 -49 15 -81zM198 569l105 239l127 -60l-145 -223z" />
    <glyph glyph-name="upsilontonos" unicode="&#x3cd;" horiz-adv-x="616" 
d="M63 327q0 25 -7 32t-19 7q-6 0 -12 -1t-11 -3l-29 110q17 8 55.5 17.5t86.5 9.5q63 0 94 -24t42 -56q8 -25 9.5 -46t1.5 -47v-88q0 -23 1 -42t5 -32.5t12.5 -20.5t24.5 -7q18 0 28 11.5t14.5 31t5.5 45t1 52.5q0 52 -6 105.5t-17 106.5l212 10q10 -48 15.5 -102t5.5 -108
q0 -31 -1 -56t-5 -49q-15 -91 -78.5 -142t-183.5 -51q-54 0 -99.5 12t-77.5 38t-50 67t-18 98v122zM250 569l105 239l127 -60l-145 -223z" />
    <glyph glyph-name="omegatonos" unicode="&#x3ce;" horiz-adv-x="836" 
d="M301 433q-29 -45 -47.5 -92t-18.5 -101q0 -41 8.5 -67t37.5 -26q27 0 35.5 20t9.5 59q0 9 0.5 24.5t1 33.5t1 35t0.5 29h186v-29t0.5 -35t1 -33.5t1.5 -24.5q3 -42 11.5 -60t34.5 -18q29 0 37 26t8 74q0 47 -19 95.5t-48 89.5l172 66q20 -23 38.5 -53t32.5 -64t22.5 -71
t8.5 -74q0 -121 -55.5 -184t-163.5 -63q-64 0 -107 18t-69 63q-35 -47 -79 -64t-99 -17q-53 0 -94 17t-68.5 47.5t-41.5 73.5t-14 95q0 86 30.5 155.5t69.5 120.5zM360 569l105 239l127 -60l-145 -223z" />
    <glyph glyph-name="afii10023" unicode="&#x401;" horiz-adv-x="581" 
d="M50 0v667h488v-180h-273v-74h220v-159h-220v-73h293v-181h-508zM353 737q-24 22 -24 57t24.5 58t70.5 23q45 0 69 -23t24 -58t-24 -57t-69 -22q-46 0 -71 22zM114 737q-24 22 -24 57t24.5 58t70.5 23q45 0 69 -23t24 -58t-24 -57t-69 -22q-46 0 -71 22z" />
    <glyph glyph-name="afii10051" unicode="&#x402;" horiz-adv-x="779" 
d="M182 0v500h-157v169h534v-169h-168v-72q24 6 51 9.5t55 3.5q54 0 100.5 -12t80 -38.5t52.5 -67t19 -97.5q0 -59 -20.5 -101.5t-57.5 -70.5t-88 -41t-111 -13h-26v156h7q38 0 62.5 15t24.5 50q0 61 -69 61q-22 0 -42 -4t-37 -10v-268h-210z" />
    <glyph glyph-name="afii10052" unicode="&#x403;" horiz-adv-x="580" 
d="M55 0v668h485v-179h-273v-489h-212zM201 700l-49 95l241 118l59 -124z" />
    <glyph glyph-name="afii10053" unicode="&#x404;" horiz-adv-x="656" 
d="M248 261q2 -32 12.5 -53.5t26 -34.5t34.5 -18.5t38 -5.5q39 0 70 21.5t60 77.5l147 -97q-48 -87 -117 -125.5t-166 -38.5q-69 0 -128.5 22t-102.5 65t-67.5 107t-24.5 148q0 93 26.5 159.5t71 109.5t103 63.5t121.5 20.5q61 0 107 -12.5t80.5 -34t59 -52t42.5 -66.5
l-142 -98q-13 20 -25.5 38.5t-27.5 32.5t-35 22.5t-48 8.5q-39 0 -70 -24.5t-39 -75.5h166v-160h-172z" />
    <glyph glyph-name="afii10054" unicode="&#x405;" horiz-adv-x="619" 
d="M183 215q21 -28 51 -46t67 -18q36 0 56.5 8.5t20.5 25.5q0 10 -4.5 17.5t-17 14.5t-35.5 15t-59 18q-53 14 -95 31.5t-71.5 42.5t-45 59t-15.5 82q0 49 19 89t54.5 68t86.5 43t114 15q90 0 148.5 -23t97.5 -62q17 -17 29 -35l-160 -102q-6 10 -16 20.5t-24 19.5t-32.5 15
t-40.5 6q-36 0 -52.5 -9t-16.5 -24q0 -9 4 -16.5t18 -15t40.5 -16t70.5 -19.5q42 -10 80.5 -25t68 -40t46.5 -61.5t17 -90.5q0 -56 -23 -96.5t-62 -67t-90 -39.5t-107 -13q-91 0 -150.5 20.5t-99.5 58.5q-20 20 -40 51z" />
    <glyph glyph-name="uni0406" unicode="&#x406;" horiz-adv-x="315" 
d="M50 0v667h215v-667h-215z" />
    <glyph glyph-name="afii10056" unicode="&#x407;" horiz-adv-x="315" 
d="M50 0v667h215v-667h-215zM212 737q-24 22 -24 57t24.5 58t70.5 23q45 0 69 -23t24 -58t-24 -57t-69 -22q-46 0 -71 22zM-27 737q-24 22 -24 57t24.5 58t70.5 23q45 0 69 -23t24 -58t-24 -57t-69 -22q-46 0 -71 22z" />
    <glyph glyph-name="afii10057" unicode="&#x408;" horiz-adv-x="353" 
d="M-15 -26q38 11 60 30.5t22 54.5v608h215v-614q0 -51 -18 -92t-50.5 -71t-78 -49.5t-100.5 -28.5z" />
    <glyph glyph-name="afii10058" unicode="&#x409;" horiz-adv-x="1028" 
d="M22 0v165h64q24 0 43.5 11.5t30.5 34.5q8 17 13.5 41t8.5 63.5t4.5 98.5t1.5 147v108h477v-209h55q133 0 205.5 -61.5t72.5 -166.5q0 -52 -18.5 -94.5t-54.5 -73t-87.5 -47.5t-117.5 -17h-265v495h-64v-42q0 -71 -4.5 -127t-13 -99.5t-21 -75.5t-28.5 -56
q-35 -52 -87 -73.5t-122 -21.5h-93zM665 153h47q32 0 50 20.5t18 58.5q0 35 -17.5 55t-49.5 20h-48v-154z" />
    <glyph glyph-name="afii10059" unicode="&#x40a;" horiz-adv-x="978" 
d="M55 0v669h212v-228h137v228h212v-228h55q133 0 205 -57.5t72 -162.5q0 -106 -72 -163.5t-205 -57.5h-267v288h-137v-288h-212zM616 153h46q32 0 50.5 16t18.5 52q0 35 -18 51t-50 16h-47v-135z" />
    <glyph glyph-name="afii10060" unicode="&#x40b;" horiz-adv-x="767" 
d="M174 0v500h-149v169h516v-169h-156v-60q18 4 38.5 6.5t46.5 2.5q54 0 98.5 -12t76.5 -37.5t49.5 -66t17.5 -97.5v-236h-211v225q0 32 -18 44.5t-47 12.5q-27 0 -51 -10v-272h-211z" />
    <glyph glyph-name="afii10061" unicode="&#x40c;" horiz-adv-x="690" 
d="M55 0v668h212v-225q15 0 24.5 4.5t18.5 18.5q6 10 14 23t15.5 26.5t14.5 25.5t11 20q14 25 28 44.5t33.5 33.5t48 21.5t71.5 7.5h86v-179h-38q-27 0 -42.5 -11.5t-31.5 -35.5q-23 -36 -37.5 -58t-28.5 -39l226 -345h-228l-163 249h-22v-249h-212zM251 700l-49 95l241 118
l59 -124z" />
    <glyph glyph-name="afii10062" unicode="&#x40e;" horiz-adv-x="668" 
d="M126 -6v160h60q27 0 43.5 8t27.5 39l-257 467h234l126 -252l97 252h211q-27 -80 -52.5 -150t-52.5 -134.5t-55.5 -125t-61.5 -122.5q-18 -31 -37.5 -57t-46 -45t-62.5 -29.5t-87 -10.5h-87zM302 896q3 -33 21.5 -48t41.5 -15t40.5 14t21.5 49h134q-1 -41 -17 -73.5
t-42.5 -55t-62.5 -35t-78 -12.5q-93 0 -144 47.5t-55 128.5h140z" />
    <glyph glyph-name="afii10145" unicode="&#x40f;" horiz-adv-x="679" 
d="M55 0v669h212v-495h145v495h212v-669h-180v-126h-210v126h-179z" />
    <glyph glyph-name="afii10017" unicode="&#x410;" horiz-adv-x="700" 
d="M-10 0l248 667h225l247 -667h-229l-35 99h-196l-35 -99h-225zM287 255h120l-60 190z" />
    <glyph glyph-name="afii10018" unicode="&#x411;" horiz-adv-x="630" 
d="M55 0v668h481v-179h-269v-48h55q134 0 206 -57.5t72 -162.5q0 -106 -72 -163.5t-206 -57.5h-267zM267 153h47q32 0 50 16t18 52q0 35 -17.5 51t-49.5 16h-48v-135z" />
    <glyph glyph-name="afii10019" unicode="&#x412;" horiz-adv-x="651" 
d="M55 0v667h287q54 0 98.5 -11t76 -32.5t48.5 -54t17 -75.5q0 -33 -8.5 -56.5t-22 -40.5t-29.5 -28t-30 -18q21 -6 43 -18t40 -31t29.5 -46t11.5 -62q0 -44 -16 -79.5t-46.5 -61t-74.5 -39.5t-99 -14h-325zM265 410h56q30 0 43.5 15t13.5 38t-13.5 35.5t-43.5 12.5h-56
v-101zM265 165h76q28 0 44 11.5t16 38.5t-15.5 39t-44.5 12h-76v-101z" />
    <glyph glyph-name="afii10020" unicode="&#x413;" horiz-adv-x="580" 
d="M55 0v668h485v-179h-273v-489h-212z" />
    <glyph glyph-name="afii10021" unicode="&#x414;" horiz-adv-x="775" 
d="M30 -126v303h67q32 50 52 106t31 117.5t15 128.5t4 139h484v-491h52v-303h-211v126h-283v-126h-211zM473 171v326h-70q-1 -43 -6 -87t-14.5 -86.5t-24.5 -81.5t-36 -71h151z" />
    <glyph glyph-name="afii10022" unicode="&#x415;" horiz-adv-x="581" 
d="M50 0v667h488v-180h-273v-74h220v-159h-220v-73h293v-181h-508z" />
    <glyph glyph-name="afii10024" unicode="&#x416;" horiz-adv-x="1026" 
d="M10 0l228 331q-16 18 -34.5 43t-34.5 54q-10 18 -19 30t-19 19t-21.5 9.5t-26.5 2.5h-40v179h100q47 0 78.5 -8.5t52.5 -24.5t34 -37.5t24 -48.5q7 -17 15 -35.5t17.5 -34t20.5 -25.5t23 -10v224h210v-224q12 0 23.5 12t21 29t18 35t14.5 29q13 24 26 46t33.5 38
t50.5 25.5t78 9.5h100v-179h-45q-31 0 -51 -16t-38 -48t-33 -53t-29 -38l229 -334h-238l-160 247v-247h-210v246l-161 -246h-237z" />
    <glyph glyph-name="afii10025" unicode="&#x417;" horiz-adv-x="644" 
d="M162 226q17 -26 35.5 -41.5t37.5 -24t37.5 -11.5t35.5 -3q36 0 60.5 13.5t24.5 45.5q0 24 -16.5 42t-56.5 18h-89v146h85q35 0 52 20t17 42q0 29 -20.5 40.5t-49.5 11.5q-16 0 -34 -3.5t-36 -13t-34.5 -27t-29.5 -45.5l-147 86q29 46 61 77t69.5 49.5t82 26t98.5 7.5
q60 0 107 -14t79.5 -39.5t50 -61.5t17.5 -79q0 -91 -69 -146q38 -24 61 -59t23 -80q0 -55 -21 -95.5t-59.5 -67.5t-92.5 -40t-120 -13q-47 0 -89.5 6t-80.5 21.5t-71 42.5t-60 69z" />
    <glyph glyph-name="afii10026" unicode="&#x418;" horiz-adv-x="695" 
d="M55 0v668h212v-294l161 186v108h212v-668h-212v295l-161 -186v-109h-212z" />
    <glyph glyph-name="afii10027" unicode="&#x419;" horiz-adv-x="695" 
d="M55 0v668h212v-294l161 186v108h212v-668h-212v295l-161 -186v-109h-212zM291 896q3 -33 21.5 -48t41.5 -15t40.5 14t21.5 49h134q-1 -41 -17 -73.5t-42.5 -55t-62.5 -35t-78 -12.5q-93 0 -144 47.5t-55 128.5h140z" />
    <glyph glyph-name="afii10028" unicode="&#x41a;" horiz-adv-x="690" 
d="M55 0v668h212v-225q15 0 24.5 4.5t18.5 18.5q6 10 14 23t15.5 26.5t14.5 25.5t11 20q14 25 28 44.5t33.5 33.5t48 21.5t71.5 7.5h86v-179h-38q-27 0 -42.5 -11.5t-31.5 -35.5q-23 -36 -37.5 -58t-28.5 -39l226 -345h-228l-163 249h-22v-249h-212z" />
    <glyph glyph-name="afii10029" unicode="&#x41b;" horiz-adv-x="742" 
d="M20 0v165h63q25 0 43 13.5t27 33.5q8 17 13.5 41t9 63t5 98t1.5 147v107h505v-668h-212v494h-92v-66q0 -65 -4 -116t-12 -90.5t-19.5 -69t-26.5 -52.5q-33 -54 -85 -77t-124 -23h-92z" />
    <glyph glyph-name="afii10030" unicode="&#x41c;" horiz-adv-x="828" 
d="M55 0v668h222l137 -360l137 360h222v-668h-205v288l-108 -292h-92l-108 292v-288h-205z" />
    <glyph glyph-name="afii10031" unicode="&#x41d;" horiz-adv-x="689" 
d="M55 0v668h212v-237h155v237h212v-668h-212v255h-155v-255h-212z" />
    <glyph glyph-name="afii10032" unicode="&#x41e;" horiz-adv-x="710" 
d="M215 11q-60 26 -101.5 72.5t-62.5 110t-21 140.5q0 76 21 140t62.5 109.5t102 71t139.5 25.5t139.5 -25.5t102 -71t62.5 -109.5t21 -140q0 -77 -21 -140.5t-62.5 -110t-102 -72t-139.5 -25.5t-140 25zM276 207q27 -45 79 -45t78.5 45t26.5 127q0 81 -26.5 125.5
t-78.5 44.5t-78.5 -44.5t-26.5 -125.5q0 -82 26 -127z" />
    <glyph glyph-name="afii10033" unicode="&#x41f;" horiz-adv-x="684" 
d="M55 0v668h574v-668h-211v494h-151v-494h-212z" />
    <glyph glyph-name="afii10034" unicode="&#x420;" horiz-adv-x="634" 
d="M55 0v667h282q62 0 111.5 -15.5t84 -45.5t53 -73t18.5 -98t-18.5 -98t-53 -73t-84 -46t-111.5 -16h-70v-202h-212zM267 373h63q29 0 45 18t16 44t-16 43t-45 17h-63v-122z" />
    <glyph glyph-name="afii10035" unicode="&#x421;" horiz-adv-x="661" 
d="M639 167q-17 -38 -41 -71t-58.5 -57.5t-82 -38.5t-110.5 -14q-76 0 -135 25t-99.5 71t-61.5 109.5t-21 141.5q0 84 24.5 148.5t67 108.5t100.5 67t126 23q75 0 123.5 -17t85.5 -49q30 -26 49.5 -56.5t32.5 -64.5l-188 -90q-6 20 -14 38.5t-19.5 32.5t-28 22.5t-38.5 8.5
q-54 0 -77.5 -45.5t-23.5 -126.5q0 -79 29 -124.5t75 -45.5q45 0 69.5 27.5t36.5 66.5z" />
    <glyph glyph-name="afii10036" unicode="&#x422;" horiz-adv-x="573" 
d="M179 0v487h-176v180h567v-180h-175v-487h-216z" />
    <glyph glyph-name="afii10037" unicode="&#x423;" horiz-adv-x="668" 
d="M126 -6v160h60q27 0 43.5 8t27.5 39l-257 467h234l126 -252l97 252h211q-27 -80 -52.5 -150t-52.5 -134.5t-55.5 -125t-61.5 -122.5q-18 -31 -37.5 -57t-46 -45t-62.5 -29.5t-87 -10.5h-87z" />
    <glyph glyph-name="afii10038" unicode="&#x424;" horiz-adv-x="876" 
d="M338 -11v85q-71 2 -128.5 18t-98 48t-63 79.5t-22.5 112.5t24 113t66 79.5t99 48t123 19.5v89h202v-88q68 -4 125 -19.5t98.5 -45.5t64.5 -76.5t23 -112.5q0 -68 -25.5 -117.5t-68 -82t-99 -48.5t-118.5 -17v-85h-202zM338 445q-41 -2 -68 -31.5t-27 -79.5q0 -24 7.5 -45
t20 -36t30 -24t37.5 -9v225zM540 219q19 0 37 8.5t31.5 23.5t21.5 36.5t8 47.5q0 55 -29 81.5t-69 26.5v-224z" />
    <glyph glyph-name="afii10039" unicode="&#x425;" horiz-adv-x="690" 
d="M-5 0l228 341l-213 326h244l93 -156l94 156h238l-212 -321l228 -346h-249l-103 173l-105 -173h-243z" />
    <glyph glyph-name="afii10040" unicode="&#x426;" horiz-adv-x="705" 
d="M55 0v668h212v-494h139v494h212v-494h52v-300h-209v126h-406z" />
    <glyph glyph-name="afii10041" unicode="&#x427;" horiz-adv-x="677" 
d="M410 0v224q-25 -3 -50.5 -5.5t-51.5 -2.5q-123 0 -188 52.5t-73 154.5q-1 11 -1.5 24t-0.5 26v195h212v-182q0 -12 0.5 -22.5t1.5 -20.5q3 -32 22.5 -46t51.5 -14q19 0 38.5 1t38.5 5v279h212v-668h-212z" />
    <glyph glyph-name="afii10042" unicode="&#x428;" horiz-adv-x="923" 
d="M55 0v668h211v-494h93v494h205v-494h93v494h211v-668h-813z" />
    <glyph glyph-name="afii10043" unicode="&#x429;" horiz-adv-x="949" 
d="M55 0v669h212v-495h89v495h204v-495h90v495h212v-495h52v-300h-209v126h-650z" />
    <glyph glyph-name="afii10044" unicode="&#x42a;" horiz-adv-x="701" 
d="M114 0v500h-94v169h304v-209h70q133 0 205 -61.5t72 -166.5q0 -52 -18.5 -94.5t-54 -73t-87 -47.5t-117.5 -17h-280zM324 153h61q32 0 50 20.5t18 58.5q0 35 -17.5 55t-49.5 20h-62v-154z" />
    <glyph glyph-name="afii10045" unicode="&#x42b;" horiz-adv-x="918" 
d="M55 0v669h210v-209h55q48 0 97 -11t89.5 -37.5t66 -70.5t25.5 -110q0 -63 -24.5 -107t-64.5 -71.5t-89.5 -40t-99.5 -12.5h-265zM651 0v669h212v-669h-212zM265 153h47q32 0 50 20.5t18 58.5q0 35 -17.5 55t-49.5 20h-48v-154z" />
    <glyph glyph-name="afii10046" unicode="&#x42c;" horiz-adv-x="646" 
d="M55 0v669h210v-209h74q133 0 205 -61.5t72 -166.5q0 -52 -18.5 -94.5t-54 -73t-87 -47.5t-117.5 -17h-284zM265 153h56q32 0 54.5 20.5t22.5 58.5q0 35 -22 55t-54 20h-57v-154z" />
    <glyph glyph-name="afii10047" unicode="&#x42d;" horiz-adv-x="657" 
d="M182 229q27 -46 60 -64t65 -18q16 0 33.5 5.5t32.5 18t25 32.5t11 50h-165v160h162q-3 48 -31.5 74.5t-67.5 26.5q-27 0 -47 -7.5t-35.5 -19.5t-28 -28.5t-24.5 -34.5l-156 85q20 36 47.5 67.5t64.5 55t85 37t108 13.5q64 0 120 -19t97.5 -60t65 -106t23.5 -158
q0 -84 -22 -149.5t-63.5 -110.5t-100 -68.5t-130.5 -23.5q-102 0 -173.5 38t-122.5 119z" />
    <glyph glyph-name="afii10048" unicode="&#x42e;" horiz-adv-x="986" 
d="M55 0v669h212v-246h53q9 51 32 97.5t61.5 82.5t92.5 57.5t125 21.5q86 0 147.5 -30t101 -79t58 -111.5t18.5 -126.5t-19.5 -126.5t-60 -111.5t-101.5 -79.5t-144 -30.5q-72 0 -126 22t-92 58.5t-60.5 84.5t-32.5 100h-53v-252h-212zM543 202q15 -26 36 -42t49 -16t49 16
t35 42.5t21 61t7 71.5t-7 71t-21 60.5t-35 42.5t-49 16t-49 -16t-35.5 -42.5t-21.5 -60.5t-7 -71t7 -71.5t21 -61.5z" />
    <glyph glyph-name="afii10049" unicode="&#x42f;" horiz-adv-x="645" 
d="M40 0v160h43q19 0 32 3.5t22 14.5t14.5 31.5t10.5 54.5q-55 31 -85.5 78t-30.5 113q0 106 72 160t205 54h267v-669h-210v228h-24q-15 -80 -35 -125.5t-44.5 -68t-55 -28.5t-66.5 -6h-115zM380 383v133h-40q-32 0 -54 -14t-22 -47q0 -32 19.5 -52t51.5 -20h45z" />
    <glyph glyph-name="afii10065" unicode="&#x430;" horiz-adv-x="533" 
d="M326 0l-20 39q-20 -16 -54.5 -30.5t-85.5 -14.5q-70 0 -111 39t-41 105q0 36 12.5 64t34.5 48t51.5 32t63.5 17q38 6 63 7t51 2v15q0 26 -17.5 39t-43.5 13q-54 0 -90 -30l-98 92q17 16 37 30t47 24.5t62.5 16.5t82.5 6q106 0 165.5 -54t59.5 -154v-306h-169zM290 222
q-11 0 -19.5 -0.5t-20.5 -2.5q-22 -4 -33 -18.5t-11 -33.5q0 -20 11.5 -32.5t31.5 -12.5q13 0 22.5 3t18.5 8v89z" />
    <glyph glyph-name="afii10066" unicode="&#x431;" horiz-adv-x="590" 
d="M539 594q-25 -28 -54 -38.5t-59 -13.5t-61 -4t-61 -10q-35 -11 -59 -37t-29 -55q20 16 53 27.5t68 11.5q109 0 168 -60.5t59 -168.5q0 -46 -16.5 -91.5t-49.5 -82t-82.5 -59.5t-115.5 -23q-71 0 -123 22.5t-86 62.5t-51 95.5t-17 120.5q0 129 46.5 219.5t138.5 132.5
q37 17 67 23.5t58.5 11.5t57.5 13.5t62 29.5zM247 167q16 -30 48 -30t48 30.5t16 72.5t-16 70t-48 28t-48 -28t-16 -70t16 -73z" />
    <glyph glyph-name="afii10067" unicode="&#x432;" horiz-adv-x="593" 
d="M45 0v508h308q96 0 148 -34t52 -104q0 -33 -13.5 -62t-34.5 -44q30 -14 46.5 -40t16.5 -71q0 -39 -16.5 -67.5t-44.5 -47.5t-66.5 -28.5t-81.5 -9.5h-314zM244 126h54q22 0 38.5 8.5t16.5 35.5q0 23 -14.5 31.5t-34.5 8.5h-60v-84zM244 307h59q47 0 47 41
q0 24 -13.5 31.5t-34.5 7.5h-58v-80z" />
    <glyph glyph-name="afii10068" unicode="&#x433;" horiz-adv-x="497" 
d="M45 0v508h417v-165h-210v-343h-207z" />
    <glyph glyph-name="afii10069" unicode="&#x434;" horiz-adv-x="644" 
d="M7 -98v253h59q22 31 35.5 71.5t21.5 87t11.5 96.5t4.5 98h440v-353h48v-253h-204v98h-212v-98h-204zM373 150v203h-59q-3 -31 -6.5 -57.5t-9 -50.5t-13 -47.5t-19.5 -47.5h107z" />
    <glyph glyph-name="afii10070" unicode="&#x435;" horiz-adv-x="555" 
d="M227 214q1 -29 22 -53t63 -24q32 0 52 10.5t31 23.5l122 -93q-13 -17 -32 -32.5t-46 -28t-64 -20t-86 -7.5q-56 0 -104 18t-83.5 52t-56 83t-20.5 112q0 61 19.5 109t54 81.5t82.5 51t105 17.5q115 0 182 -74t67 -226h-308zM346 311q-2 32 -15 56.5t-42 24.5
q-16 0 -27 -7t-18 -18t-11 -26t-5 -30h118z" />
    <glyph glyph-name="afii10072" unicode="&#x436;" horiz-adv-x="824" 
d="M10 0l158 248q-11 14 -21.5 33t-27.5 48q-13 22 -30 30.5t-36 8.5h-24v140h87q30 0 51 -4t36.5 -14t28 -27.5t25.5 -43.5t21 -43t14 -27.5t10.5 -15.5t10.5 -7v182h200v-182q9 2 16.5 15.5t27.5 52.5q13 25 26 46t28.5 36t36.5 23.5t51 8.5h96v-140h-32q-19 0 -34 -9
t-26 -29q-17 -31 -27.5 -49.5t-19.5 -29.5l158 -251h-199l-102 172v-172h-200v172l-99 -172h-204z" />
    <glyph glyph-name="afii10073" unicode="&#x437;" horiz-adv-x="514" 
d="M116 197q9 -15 23 -28t30.5 -22t33.5 -14.5t32 -5.5q46 0 46 30q0 11 -8.5 22t-31.5 11h-51v127h44q18 0 27.5 11t9.5 22q0 15 -10 21t-29 6q-53 0 -101 -60l-117 89q16 22 37.5 41.5t51 34.5t67.5 23.5t87 8.5q109 0 164.5 -37.5t55.5 -106.5q0 -30 -14 -57.5t-39 -48.5
q32 -18 48.5 -47.5t16.5 -64.5q0 -79 -60.5 -120.5t-186.5 -41.5q-91 0 -150.5 29.5t-91.5 77.5z" />
    <glyph glyph-name="afii10074" unicode="&#x438;" 
d="M45 0v508h207v-183l96 90v93h207v-508h-207v191l-96 -90v-101h-207z" />
    <glyph glyph-name="afii10075" unicode="&#x439;" 
d="M45 0v508h207v-183l96 90v93h207v-508h-207v191l-96 -90v-101h-207zM266 730q3 -33 21.5 -48t41.5 -15t40.5 14t21.5 49h134q-1 -41 -17 -73.5t-42.5 -55t-62.5 -35t-78 -12.5q-93 0 -144 47.5t-55 128.5h140z" />
    <glyph glyph-name="afii10076" unicode="&#x43a;" horiz-adv-x="577" 
d="M45 0v508h206v-179q9 0 17 9t16.5 23.5t17 31.5t18.5 33q12 21 24 36t28 25.5t37.5 15.5t53.5 5h78v-155h-32q-44 0 -66 -39q-12 -20 -20 -35.5t-14 -25.5l158 -253h-204l-112 176v-176h-206z" />
    <glyph glyph-name="afii10077" unicode="&#x43b;" horiz-adv-x="636" 
d="M20 0v140h36q53 0 65 35q6 20 8 63t2 118v152h460v-508h-203v350h-66v-61q0 -54 -3.5 -92t-11.5 -65q-14 -58 -58.5 -95t-130.5 -37h-98z" />
    <glyph glyph-name="afii10078" unicode="&#x43c;" horiz-adv-x="685" 
d="M39 0v508h189l116 -222l110 222h191v-508h-193v196l-106 -205h-11l-103 203v-194h-193z" />
    <glyph glyph-name="afii10079" unicode="&#x43d;" horiz-adv-x="595" 
d="M45 0v508h207v-166h91v166h207v-508h-207v182h-91v-182h-207z" />
    <glyph glyph-name="afii10080" unicode="&#x43e;" horiz-adv-x="584" 
d="M181 9q-49 20 -83.5 54.5t-53.5 83t-19 107.5q0 58 19 106t53.5 82.5t84 53t110.5 18.5t110.5 -18.5t84 -53t53.5 -82.5t19 -106q0 -59 -19 -107.5t-53.5 -83t-84 -54t-110.5 -19.5t-111 19zM248 170q15 -34 44 -34t44 34.5t15 83.5q0 48 -15 79.5t-44 31.5t-44 -31.5
t-15 -79.5q0 -49 15 -84z" />
    <glyph glyph-name="afii10081" unicode="&#x43f;" horiz-adv-x="590" 
d="M45 0v508h500v-508h-207v348h-86v-348h-207z" />
    <glyph glyph-name="afii10082" unicode="&#x440;" horiz-adv-x="590" 
d="M40 -189v693h178l11 -39q6 6 15.5 14.5t24 16t35 13t48.5 5.5q47 0 86 -18.5t67.5 -52t44 -81t15.5 -105.5t-16 -107t-45 -85t-69 -56t-88 -20q-29 0 -54 4t-42 12v-194h-211zM251 148q6 -4 14 -7t25 -3q29 0 48.5 33.5t19.5 85.5q0 60 -19 86t-47 26q-29 0 -41 -15v-206
z" />
    <glyph glyph-name="afii10083" unicode="&#x441;" horiz-adv-x="556" 
d="M358 297q-7 30 -21 49t-40 19q-29 0 -46.5 -28.5t-17.5 -85.5q0 -55 18 -85t46 -30t44.5 19.5t22.5 53.5l172 -72q-28 -68 -87 -107.5t-164 -39.5q-57 0 -105 18t-82.5 52t-53.5 81.5t-19 107.5t18.5 109t53 83.5t83 53.5t108.5 19q103 0 161 -42t84 -112z" />
    <glyph glyph-name="afii10084" unicode="&#x442;" horiz-adv-x="535" 
d="M163 0v343h-143v165h495v-165h-143v-343h-209z" />
    <glyph glyph-name="afii10085" unicode="&#x443;" horiz-adv-x="609" 
d="M71 -41q14 -6 33.5 -11t36.5 -5q38 0 52 32l20 47l-213 486h233l77 -264l79 264h220l-239 -579q-29 -68 -71.5 -99t-110.5 -31q-65 0 -101 10t-62 22z" />
    <glyph glyph-name="afii10086" unicode="&#x444;" horiz-adv-x="854" 
d="M327 -189v189q-75 3 -131.5 22.5t-94.5 53t-57 79t-19 99.5q0 55 20 101t58.5 80t95 54.5t128.5 24.5v155h198v-157q148 -6 225.5 -69t77.5 -180q0 -61 -21 -109t-60 -81t-95 -51.5t-127 -21.5v-189h-198zM327 367q-35 0 -60 -26.5t-25 -84.5q0 -54 24.5 -85t60.5 -31
v227zM525 140q39 0 64 32t25 86q0 50 -24 79.5t-65 29.5v-227z" />
    <glyph glyph-name="afii10087" unicode="&#x445;" horiz-adv-x="572" 
d="M-5 0l178 252l-181 256h232l68 -127l67 127h215l-172 -252l178 -256h-232l-65 127l-71 -127h-217z" />
    <glyph glyph-name="afii10088" unicode="&#x446;" horiz-adv-x="608" 
d="M45 0v508h207v-353h76v353h207v-353h48v-253h-204v98h-334z" />
    <glyph glyph-name="afii10089" unicode="&#x447;" horiz-adv-x="584" 
d="M331 0v130q-19 -2 -39.5 -3t-44.5 -1q-81 0 -130 25t-72 76q-8 20 -11.5 43t-3.5 49v189h208v-167q0 -31 7 -45t30 -17q26 -3 56 2v227h208v-508h-208z" />
    <glyph glyph-name="afii10090" unicode="&#x448;" horiz-adv-x="842" 
d="M45 0v508h207v-353h67v353h204v-353h67v353h207v-508h-752z" />
    <glyph glyph-name="afii10091" unicode="&#x449;" horiz-adv-x="862" 
d="M45 0v508h207v-353h65v353h203v-353h65v353h207v-353h45v-253h-201v98h-591z" />
    <glyph glyph-name="afii10092" unicode="&#x44a;" horiz-adv-x="623" 
d="M100 0v343h-80v165h285v-110h52q66 0 111.5 -17t74.5 -44.5t42 -63.5t13 -74t-13 -74t-42 -63.5t-74.5 -44.5t-111.5 -17h-257zM305 135h39q20 0 34 18.5t14 47.5t-14 46.5t-34 17.5h-39v-130z" />
    <glyph glyph-name="afii10093" unicode="&#x44b;" horiz-adv-x="847" 
d="M594 0v497h208v-497h-208zM45 0v508h205v-110h52q64 0 108 -15.5t71.5 -41.5t39.5 -61t12 -75q0 -38 -11.5 -74.5t-38.5 -65.5t-71 -47t-110 -18h-257zM250 135h29q20 0 34 18.5t14 49.5q0 30 -14 46.5t-34 16.5h-29v-131z" />
    <glyph glyph-name="afii10094" unicode="&#x44c;" horiz-adv-x="581" 
d="M45 0v508h206v-110h63q66 0 112 -15.5t75 -42.5t42 -63t13 -76q0 -38 -13 -74t-42 -64.5t-75 -45.5t-112 -17h-269zM251 135h38q27 0 43.5 18t16.5 48q0 29 -16 45t-42 16h-40v-127z" />
    <glyph glyph-name="afii10095" unicode="&#x44d;" horiz-adv-x="527" 
d="M121 198q20 -25 46.5 -47.5t61.5 -22.5q27 0 49.5 12t25.5 43h-97v134h96q-3 26 -24 41t-46 15q-18 0 -32.5 -5.5t-27.5 -14t-23 -18t-19 -18.5l-118 90q11 14 30 32.5t47.5 35t67 28t88.5 11.5q53 0 99.5 -15t81 -46t54.5 -79.5t20 -115.5q0 -65 -20 -115t-56 -84
t-84.5 -51.5t-105.5 -17.5q-84 0 -141 30.5t-94 76.5z" />
    <glyph glyph-name="afii10096" unicode="&#x44e;" horiz-adv-x="813" 
d="M45 0v508h207v-181h33q9 33 27.5 66.5t48 60t71.5 43.5t98 17q67 0 116 -20.5t80.5 -55.5t46.5 -81t15 -98q0 -51 -14.5 -99.5t-45.5 -86t-80 -60.5t-117 -23q-58 0 -100.5 16.5t-72.5 43.5t-48 61.5t-27 70.5h-31v-182h-207zM486 172q6 -16 16.5 -26t25.5 -10t25 9.5
t16.5 26t9.5 38.5t3 46q0 48 -12.5 82.5t-41.5 34.5q-30 0 -42 -34.5t-12 -82.5q0 -24 3 -45.5t9 -38.5z" />
    <glyph glyph-name="afii10097" unicode="&#x44f;" horiz-adv-x="588" 
d="M30 0v140h42q20 0 34 14.5t16 37.5q-52 28 -70.5 66.5t-18.5 80.5q0 30 10.5 60t36 54t69.5 39.5t111 15.5h283v-508h-205v177h-29q-9 -51 -24.5 -85.5t-37.5 -54.5t-51 -28.5t-64 -8.5h-102zM338 291v94h-53q-25 0 -34.5 -15t-9.5 -32q0 -16 10 -31.5t33 -15.5h54z" />
    <glyph glyph-name="afii10071" unicode="&#x451;" horiz-adv-x="555" 
d="M227 214q1 -29 22 -53t63 -24q32 0 52 10.5t31 23.5l122 -93q-13 -17 -32 -32.5t-46 -28t-64 -20t-86 -7.5q-56 0 -104 18t-83.5 52t-56 83t-20.5 112q0 61 19.5 109t54 81.5t82.5 51t105 17.5q115 0 182 -74t67 -226h-308zM346 311q-2 32 -15 56.5t-42 24.5
q-16 0 -27 -7t-18 -18t-11 -26t-5 -30h118zM331 595q-24 22 -24 57t24.5 58t70.5 23q45 0 69 -23t24 -58t-24 -57t-69 -22q-46 0 -71 22zM92 595q-24 22 -24 57t24.5 58t70.5 23q45 0 69 -23t24 -58t-24 -57t-69 -22q-46 0 -71 22z" />
    <glyph glyph-name="afii10099" unicode="&#x452;" horiz-adv-x="612" 
d="M61 0v501h-61v113h61v55h208v-55h141v-113h-141v-69q18 5 38.5 8t47.5 3q88 0 140.5 -34t64.5 -98q7 -41 7 -90v-180q0 -78 -44.5 -140.5t-143.5 -111.5l-97 139q44 22 60.5 47.5t16.5 71.5v175q0 35 -11 48.5t-34 13.5q-12 0 -24.5 -3t-20.5 -8v-273h-208z" />
    <glyph glyph-name="afii10100" unicode="&#x453;" horiz-adv-x="497" 
d="M45 0v508h417v-165h-210v-343h-207zM158 534l-49 95l241 118l59 -124z" />
    <glyph glyph-name="afii10101" unicode="&#x454;" horiz-adv-x="537" 
d="M230 184q3 -29 25 -43t47 -14q38 0 62.5 17t45.5 46l114 -91q-21 -25 -43.5 -45t-50 -34.5t-62.5 -22t-81 -7.5q-54 0 -102 16.5t-83.5 49.5t-56 83t-20.5 116q0 67 21 116t56.5 80.5t81.5 47t97 15.5q52 0 91 -11t67 -27.5t46 -35t29 -33.5l-115 -87q-20 22 -40 38
t-56 16q-34 0 -51.5 -17t-20.5 -41h89v-132h-90z" />
    <glyph glyph-name="afii10102" unicode="&#x455;" horiz-adv-x="524" 
d="M108 157q20 -15 54.5 -29t74.5 -14q25 0 44.5 7t19.5 22q0 7 -4 12.5t-14.5 11t-29 11t-47.5 13.5q-79 22 -124 58.5t-45 105.5q0 39 18.5 68.5t50 50t74.5 30.5t93 10q45 0 80.5 -6t63 -16t47.5 -22.5t34 -25.5l-102 -91q-17 13 -44.5 26t-65.5 13q-17 0 -34.5 -4
t-19.5 -21q-1 -6 2 -11t12 -10.5t26.5 -12t46.5 -14.5q40 -11 73 -23.5t57 -31t37 -44.5t13 -64q0 -44 -20 -75t-53.5 -51.5t-77 -30t-90.5 -9.5q-97 0 -158.5 21t-90.5 51z" />
    <glyph glyph-name="afii10103" unicode="&#x456;" horiz-adv-x="290" 
d="M67 558q-28 20 -28 60q0 39 28.5 58t77.5 19t77.5 -19t28.5 -58q0 -40 -28.5 -59.5t-77.5 -19.5t-78 19zM40 0v508h210v-508h-210z" />
    <glyph glyph-name="afii10104" unicode="&#x457;" horiz-adv-x="317" 
d="M57 0v508h210v-508h-210zM214 595q-24 22 -24 57t24.5 58t70.5 23q45 0 69 -23t24 -58t-24 -57t-69 -22q-46 0 -71 22zM-24 595q-25 22 -25 57t24.5 58t70.5 23q45 0 69 -23t24 -58t-24 -57t-69 -22q-46 0 -70 22z" />
    <glyph glyph-name="afii10105" unicode="&#x458;" horiz-adv-x="305" 
d="M76 558q-28 20 -28 60q0 39 28.5 58t77.5 19t77.5 -19t28.5 -58q0 -40 -28.5 -59.5t-77.5 -19.5t-78 19zM-15 -87q13 9 24.5 17.5t20.5 19t14 25.5t5 38v495h210v-506q0 -45 -12 -79.5t-33 -60t-50.5 -43t-64.5 -28.5z" />
    <glyph glyph-name="afii10106" unicode="&#x459;" horiz-adv-x="873" 
d="M17 0v140h46q19 0 32.5 7.5t21.5 28.5q3 7 4.5 22t3 41t2 65t0.5 95v109h444v-110h35q66 0 112 -15.5t75 -42.5t42 -62.5t13 -74.5q0 -40 -13 -76.5t-42 -64.5t-75 -45t-112 -17h-234v350h-61v-49q0 -54 -2.5 -93t-11.5 -71q-7 -27 -21 -51.5t-37.5 -43.5t-57.5 -30.5
t-80 -11.5h-84zM571 135h22q23 0 36 19t13 51q0 28 -13 45t-36 17h-22v-132z" />
    <glyph glyph-name="afii10107" unicode="&#x45a;" horiz-adv-x="844" 
d="M45 0v508h205v-154h71v154h205v-148h70q67 0 110.5 -15t68.5 -39.5t34.5 -56t9.5 -63.5t-9.5 -65t-34.5 -60t-68.5 -44t-110.5 -17h-275v194h-71v-194h-205zM526 135h47q20 0 32 12t12 32t-12.5 31t-29.5 11h-49v-86z" />
    <glyph glyph-name="afii10108" unicode="&#x45b;" horiz-adv-x="597" 
d="M46 0v501h-61v113h61v54h208v-54h141v-113h-141v-69q38 11 92 11q89 0 136 -34t63 -94q5 -18 6 -39t1 -43v-233h-208v232q0 34 -12 43t-29 9q-14 0 -27 -3.5t-22 -8.5v-272h-208z" />
    <glyph glyph-name="afii10109" unicode="&#x45c;" horiz-adv-x="577" 
d="M45 0v508h206v-179q9 0 17 9t16.5 23.5t17 31.5t18.5 33q12 21 24 36t28 25.5t37.5 15.5t53.5 5h78v-155h-32q-44 0 -66 -39q-12 -20 -20 -35.5t-14 -25.5l158 -253h-204l-112 176v-176h-206zM193 534l-49 95l241 118l59 -124z" />
    <glyph glyph-name="afii10110" unicode="&#x45e;" horiz-adv-x="609" 
d="M71 -41q14 -6 33.5 -11t36.5 -5q38 0 52 32l20 47l-213 486h233l77 -264l79 264h220l-239 -579q-29 -68 -71.5 -99t-110.5 -31q-65 0 -101 10t-62 22zM255 730q3 -33 21.5 -48t41.5 -15t40.5 14t21.5 49h134q-1 -41 -17 -73.5t-42.5 -55t-62.5 -35t-78 -12.5
q-93 0 -144 47.5t-55 128.5h140z" />
    <glyph glyph-name="afii10193" unicode="&#x45f;" horiz-adv-x="585" 
d="M45 0v508h207v-359h81v359h207v-508h-146v-98h-201v98h-148z" />
    <glyph glyph-name="afii10050" unicode="&#x490;" horiz-adv-x="580" 
d="M55 0v668h279v110h206v-287h-273v-491h-212z" />
    <glyph glyph-name="afii10098" unicode="&#x491;" horiz-adv-x="497" 
d="M45 0v508h226v91h191v-259h-210v-340h-207z" />
    <glyph glyph-name="Wgrave" unicode="&#x1e80;" horiz-adv-x="880" 
d="M172 0l-182 667h218l73 -302l80 302h158l79 -302l75 302h217l-182 -667h-174l-95 335l-92 -335h-175zM280 789l59 124l241 -118l-49 -95z" />
    <glyph glyph-name="wgrave" unicode="&#x1e81;" horiz-adv-x="791" 
d="M166 0l-174 493h214l60 -234l59 234h142l58 -234l60 234h214l-174 -493h-165l-65 238l-64 -238h-165zM245 623l59 124l241 -118l-49 -95z" />
    <glyph glyph-name="Wacute" unicode="&#x1e82;" horiz-adv-x="880" 
d="M172 0l-182 667h218l73 -302l80 302h158l79 -302l75 302h217l-182 -667h-174l-95 335l-92 -335h-175zM359 700l-49 95l241 118l59 -124z" />
    <glyph glyph-name="wacute" unicode="&#x1e83;" horiz-adv-x="791" 
d="M166 0l-174 493h214l60 -234l59 234h142l58 -234l60 234h214l-174 -493h-165l-65 238l-64 -238h-165zM312 534l-49 95l241 118l59 -124z" />
    <glyph glyph-name="Wdieresis" unicode="&#x1e84;" horiz-adv-x="880" 
d="M172 0l-182 667h218l73 -302l80 302h158l79 -302l75 302h217l-182 -667h-174l-95 335l-92 -335h-175zM489 740q-24 22 -24 57t24.5 58t70.5 23q45 0 69 -23t24 -58t-24 -57t-69 -22q-46 0 -71 22zM250 740q-24 22 -24 57t24.5 58t70.5 23q45 0 69 -23t24 -58t-24 -57
t-69 -22q-46 0 -71 22z" />
    <glyph glyph-name="wdieresis" unicode="&#x1e85;" horiz-adv-x="791" 
d="M166 0l-174 493h214l60 -234l59 234h142l58 -234l60 234h214l-174 -493h-165l-65 238l-64 -238h-165zM448 574q-24 22 -24 57t24.5 58t70.5 23q45 0 69 -23t24 -58t-24 -57t-69 -22q-46 0 -71 22zM209 574q-24 22 -24 57t24.5 58t70.5 23q45 0 69 -23t24 -58t-24 -57
t-69 -22q-46 0 -71 22z" />
    <glyph glyph-name="Ygrave" unicode="&#x1ef2;" horiz-adv-x="686" 
d="M237 0v253l-247 414h245l111 -210l107 210h243l-244 -413v-254h-215zM193 789l59 124l241 -118l-49 -95z" />
    <glyph glyph-name="ygrave" unicode="&#x1ef3;" horiz-adv-x="593" 
d="M63 -41q14 -6 33.5 -11t36.5 -5q38 0 52 32l20 47l-213 471h233l77 -249l79 249h220l-239 -564q-29 -68 -71.5 -99t-110.5 -31q-65 0 -101 10t-62 22zM110 623l59 124l241 -118l-49 -95z" />
    <glyph glyph-name="endash" unicode="&#x2013;" horiz-adv-x="500" 
d="M0 189v136h500v-136h-500z" />
    <glyph glyph-name="emdash" unicode="&#x2014;" horiz-adv-x="1000" 
d="M0 189v136h1000v-136h-1000z" />
    <glyph glyph-name="afii00208" unicode="&#x2015;" horiz-adv-x="1000" 
d="M0 189v136h1000v-136h-1000z" />
    <glyph glyph-name="quoteleft" unicode="&#x2018;" horiz-adv-x="259" 
d="M225 376q-105 28 -155 78.5t-50 110.5q0 49 28 76t76 27q52 0 78 -27t26 -65q0 -40 -19.5 -59.5t-39.5 -27.5q13 -11 37.5 -23t44.5 -17z" />
    <glyph glyph-name="quoteright" unicode="&#x2019;" horiz-adv-x="259" 
d="M8 449q20 5 44.5 17t37.5 23q-20 8 -39.5 27.5t-19.5 59.5q0 38 26 65t78 27q48 0 76 -27t28 -76q0 -60 -50 -110.5t-155 -78.5z" />
    <glyph glyph-name="quotesinglbase" unicode="&#x201a;" horiz-adv-x="259" 
d="M8 -50q20 5 44.5 17t37.5 23q-10 3 -20.5 10t-19 17.5t-14 25t-5.5 34.5q0 38 26 65t78 27q48 0 76 -27t28 -76q0 -60 -50 -110.5t-155 -78.5z" />
    <glyph glyph-name="quotedblleft" unicode="&#x201c;" horiz-adv-x="508" 
d="M474 376q-105 28 -155 78.5t-50 110.5q0 49 28 76t76 27q52 0 78 -27t26 -65q0 -40 -19.5 -59.5t-39.5 -27.5q13 -11 37.5 -23t44.5 -17zM225 376q-105 28 -155 78.5t-50 110.5q0 49 28 76t76 27q52 0 78 -27t26 -65q0 -40 -19.5 -59.5t-39.5 -27.5q13 -11 37.5 -23
t44.5 -17z" />
    <glyph glyph-name="quotedblright" unicode="&#x201d;" horiz-adv-x="508" 
d="M257 449q20 5 44.5 17t37.5 23q-20 8 -39.5 27.5t-19.5 59.5q0 38 26 65t78 27q48 0 76 -27t28 -76q0 -60 -50 -110.5t-155 -78.5zM8 449q20 5 44.5 17t37.5 23q-20 8 -39.5 27.5t-19.5 59.5q0 38 26 65t78 27q48 0 76 -27t28 -76q0 -60 -50 -110.5t-155 -78.5z" />
    <glyph glyph-name="quotedblbase" unicode="&#x201e;" horiz-adv-x="508" 
d="M257 -50q20 5 44.5 17t37.5 23q-10 3 -20.5 10t-19 17.5t-14 25t-5.5 34.5q0 38 26 65t78 27q48 0 76 -27t28 -76q0 -60 -50 -110.5t-155 -78.5zM8 -50q20 5 44.5 17t37.5 23q-10 3 -20.5 10t-19 17.5t-14 25t-5.5 34.5q0 38 26 65t78 27q48 0 76 -27t28 -76
q0 -60 -50 -110.5t-155 -78.5z" />
    <glyph glyph-name="dagger" unicode="&#x2020;" horiz-adv-x="521" 
d="M164 -146v457h-144v164h144v192h195v-192h142v-164h-142v-457h-195z" />
    <glyph glyph-name="daggerdbl" unicode="&#x2021;" horiz-adv-x="521" 
d="M164 -146v162h-144v164h144v161h-144v164h144v162h195v-162h142v-164h-142v-161h142v-164h-142v-162h-195z" />
    <glyph glyph-name="bullet" unicode="&#x2022;" horiz-adv-x="514" 
d="M177 195q-38 17 -66 45t-44.5 65.5t-16.5 79.5t16.5 79.5t44.5 65.5t66 44.5t80 16.5t80 -16.5t66 -44.5t44.5 -65.5t16.5 -79.5t-16.5 -79.5t-44.5 -65.5t-66 -44.5t-80 -16.5t-80 16z" />
    <glyph glyph-name="ellipsis" unicode="&#x2026;" horiz-adv-x="834" 
d="M630 13q-29 24 -29 67t29.5 66.5t74.5 23.5t74.5 -23.5t29.5 -66.5t-29.5 -66.5t-74.5 -23.5t-75 23zM342 13q-29 24 -29 67t29.5 66.5t74.5 23.5t74.5 -23.5t29.5 -66.5t-29.5 -66.5t-74.5 -23.5t-75 23zM54 13q-29 24 -29 67t29.5 66.5t74.5 23.5t74.5 -23.5
t29.5 -66.5t-29.5 -66.5t-74.5 -23.5t-75 23z" />
    <glyph glyph-name="perthousand" unicode="&#x2030;" horiz-adv-x="1256" 
d="M916 40q-24 24 -36.5 54.5t-12.5 65.5q0 34 12.5 65.5t36.5 55t58.5 37.5t79.5 14t79.5 -14t58.5 -37.5t36.5 -55t12.5 -65.5q0 -35 -12.5 -65.5t-36.5 -54t-58.5 -37t-79.5 -13.5t-79.5 13.5t-58.5 36.5zM512 40q-24 24 -36.5 54.5t-12.5 65.5q0 34 12.5 65.5t36.5 55
t58.5 37.5t79.5 14t79.5 -14t58.5 -37.5t36.5 -55t12.5 -65.5q0 -35 -12.5 -65.5t-36.5 -54t-58.5 -37t-79.5 -13.5t-79.5 13.5t-58.5 36.5zM133 -20l-90 93l675 612l92 -89zM64 383q-24 24 -36.5 54.5t-12.5 65.5q0 34 12.5 65.5t36.5 55t58.5 37.5t79.5 14t79.5 -14
t58.5 -37.5t36.5 -55t12.5 -65.5q0 -35 -12.5 -65.5t-36.5 -54t-58.5 -37t-79.5 -13.5t-79.5 13.5t-58.5 36.5zM1010 162q0 -32 13.5 -45.5t30.5 -13.5t30.5 13.5t13.5 45.5q0 31 -13.5 45t-30.5 14t-30.5 -14t-13.5 -45zM606 162q0 -32 13.5 -45.5t30.5 -13.5t30.5 13.5
t13.5 45.5q0 31 -13.5 45t-30.5 14t-30.5 -14t-13.5 -45zM158 505q0 -32 13.5 -45.5t30.5 -13.5t30.5 13.5t13.5 45.5q0 31 -13.5 45t-30.5 14t-30.5 -14t-13.5 -45z" />
    <glyph glyph-name="guilsinglleft" unicode="&#x2039;" horiz-adv-x="319" 
d="M169 25l-164 225l150 233l150 -88l-100 -139l107 -143z" />
    <glyph glyph-name="guilsinglright" unicode="&#x203a;" horiz-adv-x="319" 
d="M14 113l100 139l-107 143l143 88l164 -225l-150 -233z" />
    <glyph glyph-name="fraction" unicode="&#x2044;" horiz-adv-x="263" 
d="M-162 -20l-90 93l675 612l92 -89z" />
    <glyph glyph-name="zerosuperior" unicode="&#x2070;" horiz-adv-x="370" 
d="M185 317q-79 0 -121 49t-42 130t41 130t122 49q79 0 121.5 -49t42.5 -130t-43 -130t-121 -49zM157 431q11 -19 28 -19t27.5 19.5t10.5 64.5q0 48 -10.5 67t-27.5 19t-27.5 -21.5t-10.5 -64.5q0 -45 10 -65z" />
    <glyph glyph-name="foursuperior" unicode="&#x2074;" horiz-adv-x="370" 
d="M20 384v93l158 192h142v-198h40v-87h-40v-59h-149v59h-151zM100 471h71v86z" />
    <glyph glyph-name="fivesuperior" unicode="&#x2075;" horiz-adv-x="370" 
d="M50 468v194h267v-91h-150v-28h7q37 0 69.5 -6t56 -19t37 -34t13.5 -50t-13 -50.5t-35.5 -35.5t-52 -21.5t-63.5 -7.5q-63 0 -107 20.5t-60 50.5l96 55q9 -13 26.5 -22.5t37.5 -9.5q39 0 39 26q0 15 -21.5 22t-72.5 7h-74z" />
    <glyph glyph-name="sixsuperior" unicode="&#x2076;" horiz-adv-x="370" 
d="M302 589q-45 -7 -75.5 -18.5t-48.5 -27.5q16 7 58 5q55 -2 85.5 -31t30.5 -77q0 -27 -12 -49.5t-33.5 -38t-52 -24.5t-67.5 -9q-81 0 -125.5 39.5t-44.5 105.5q0 54 25.5 91.5t70.5 66.5q32 17 76.5 30.5t85.5 16.5zM166 475q-8 -2 -13 -4q-1 -3 -2.5 -9t-1.5 -14
q0 -23 10 -33t27 -10q36 0 36 37q0 15 -10 25t-26 10q-11 0 -20 -2z" />
    <glyph glyph-name="sevensuperior" unicode="&#x2077;" horiz-adv-x="370" 
d="M50 325l128 246h-140v93h294v-78l-139 -261h-143z" />
    <glyph glyph-name="eightsuperior" unicode="&#x2078;" horiz-adv-x="370" 
d="M36 473q15 18 41 30q-20 11 -34.5 26t-14.5 50q0 38 38 66t119 28q82 0 119.5 -28t37.5 -66q0 -35 -14 -50t-34 -26q25 -12 39.5 -29.5t14.5 -48.5q0 -22 -9 -41t-28.5 -33.5t-50.5 -23t-75 -8.5t-75 8.5t-50.5 23t-28.5 33.5t-9 41q0 31 14 48zM155 564q0 -13 8.5 -20
t21.5 -7q31 0 31 28t-31 28q-13 0 -21.5 -7.5t-8.5 -21.5zM151 432q0 -14 9.5 -22.5t24.5 -8.5q34 0 34 31q0 14 -9 23t-25 9q-15 0 -24.5 -9t-9.5 -23z" />
    <glyph glyph-name="ninesuperior" unicode="&#x2079;" horiz-adv-x="370" 
d="M64 397q20 4 40 9.5t37.5 12t31.5 14.5t21 17q-8 -3 -20 -5t-29 -2q-27 0 -50 7.5t-40 21.5t-27 33.5t-10 43.5q0 55 43.5 89.5t122.5 34.5q78 0 123 -39.5t45 -105.5q0 -48 -18.5 -83.5t-53.5 -63.5q-16 -12 -37.5 -22t-46 -18t-51 -13.5t-52.5 -8.5zM189 517q21 0 30 4
q2 10 2 21q0 20 -9 32t-29 12q-17 0 -25 -10t-8 -24q0 -18 11 -26.5t28 -8.5z" />
    <glyph glyph-name="zeroinferior" unicode="&#x2080;" horiz-adv-x="370" 
d="M185 -5q-79 0 -121 49t-42 130t41 130t122 49q79 0 121.5 -49t42.5 -130t-43 -130t-121 -49zM157 109q11 -19 28 -19t27.5 19.5t10.5 64.5q0 48 -10.5 67t-27.5 19t-27.5 -21.5t-10.5 -64.5q0 -45 10 -65z" />
    <glyph glyph-name="oneinferior" unicode="&#x2081;" horiz-adv-x="370" 
d="M147 3v210l-62 -33l-47 89l142 73h111v-339h-144z" />
    <glyph glyph-name="twoinferior" unicode="&#x2082;" horiz-adv-x="370" 
d="M35 3v61q38 29 79.5 60.5t72.5 57.5q14 12 21 22t7 24q0 26 -32 26q-17 0 -29.5 -13t-20.5 -27l-116 47q10 17 27 33.5t39.5 29.5t51 21t61.5 8t61.5 -8.5t49.5 -23.5t33.5 -35t12.5 -44t-10 -44t-26 -37.5t-37.5 -32.5t-43.5 -30h115v-95h-316z" />
    <glyph glyph-name="threeinferior" unicode="&#x2083;" horiz-adv-x="370" 
d="M116 123q8 -13 22.5 -21t34.5 -8q44 0 44 24q0 13 -13 18.5t-51 5.5v68q37 0 47.5 6t10.5 17q0 22 -37 22q-15 0 -29.5 -7.5t-23.5 -18.5l-93 55q13 15 28 27.5t34.5 22t45 14.5t58.5 5q72 0 111.5 -25t39.5 -70q0 -36 -19.5 -53t-41.5 -26q27 -6 47 -23.5t20 -55.5
q0 -48 -42.5 -76.5t-120.5 -28.5q-66 0 -106 19.5t-63 52.5z" />
    <glyph glyph-name="fourinferior" unicode="&#x2084;" horiz-adv-x="370" 
d="M20 62v93l158 192h142v-198h40v-87h-40v-59h-149v59h-151zM100 149h71v86z" />
    <glyph glyph-name="fiveinferior" unicode="&#x2085;" horiz-adv-x="370" 
d="M50 146v194h267v-91h-150v-28h7q37 0 69.5 -6t56 -19t37 -34t13.5 -50t-13 -50.5t-35.5 -35.5t-52 -21.5t-63.5 -7.5q-63 0 -107 20.5t-60 50.5l96 55q9 -13 26.5 -22.5t37.5 -9.5q39 0 39 26q0 15 -21.5 22t-72.5 7h-74z" />
    <glyph glyph-name="sixinferior" unicode="&#x2086;" horiz-adv-x="370" 
d="M302 267q-45 -7 -75.5 -18.5t-48.5 -27.5q16 7 58 5q55 -2 85.5 -31t30.5 -77q0 -27 -12 -49.5t-33.5 -38t-52 -24.5t-67.5 -9q-81 0 -125.5 39.5t-44.5 105.5q0 54 25.5 91.5t70.5 66.5q32 17 76.5 30.5t85.5 16.5zM166 153q-8 -2 -13 -4q-1 -3 -2.5 -9t-1.5 -14
q0 -23 10 -33t27 -10q36 0 36 37q0 15 -10 25t-26 10q-11 0 -20 -2z" />
    <glyph glyph-name="seveninferior" unicode="&#x2087;" horiz-adv-x="370" 
d="M50 3l128 246h-140v93h294v-78l-139 -261h-143z" />
    <glyph glyph-name="eightinferior" unicode="&#x2088;" horiz-adv-x="370" 
d="M36 151q15 18 41 30q-20 11 -34.5 26t-14.5 50q0 38 38 66t119 28q82 0 119.5 -28t37.5 -66q0 -35 -14 -50t-34 -26q25 -12 39.5 -29.5t14.5 -48.5q0 -22 -9 -41t-28.5 -33.5t-50.5 -23t-75 -8.5t-75 8.5t-50.5 23t-28.5 33.5t-9 41q0 31 14 48zM155 242q0 -13 8.5 -20
t21.5 -7q31 0 31 28t-31 28q-13 0 -21.5 -7.5t-8.5 -21.5zM151 110q0 -14 9.5 -22.5t24.5 -8.5q34 0 34 31q0 14 -9 23t-25 9q-15 0 -24.5 -9t-9.5 -23z" />
    <glyph glyph-name="nineinferior" unicode="&#x2089;" horiz-adv-x="370" 
d="M64 75q20 4 40 9.5t37.5 12t31.5 14.5t21 17q-8 -3 -20 -5t-29 -2q-27 0 -50 7.5t-40 21.5t-27 33.5t-10 43.5q0 55 43.5 89.5t122.5 34.5q78 0 123 -39.5t45 -105.5q0 -48 -18.5 -83.5t-53.5 -63.5q-16 -12 -37.5 -22t-46 -18t-51 -13.5t-52.5 -8.5zM189 195q21 0 30 4
q2 10 2 21q0 20 -9 32t-29 12q-17 0 -25 -10t-8 -24q0 -18 11 -26.5t28 -8.5z" />
    <glyph glyph-name="Euro" unicode="&#x20ac;" 
d="M6 259v149h44q3 55 22 103.5t53.5 84.5t85 57t116.5 21q111 0 170 -45.5t84 -124.5l-184 -44q-8 29 -23 41.5t-37 12.5q-25 0 -43 -25.5t-21 -80.5h111v-149h-112q3 -59 22.5 -82t44.5 -23q26 0 41 15t23 39l182 -58q-25 -74 -86 -117.5t-168 -43.5q-66 0 -117 20
t-87 55.5t-55.5 85t-22.5 109.5h-43z" />
    <glyph glyph-name="afii61289" unicode="&#x2113;" horiz-adv-x="456" 
d="M180 289q54 60 85.5 123.5t31.5 132.5q0 48 -16 67.5t-38 19.5q-26 0 -44.5 -33t-18.5 -109v-201zM180 190q0 -41 6 -66.5t16.5 -39.5t25 -19.5t31.5 -5.5q32 0 61.5 16.5t45.5 39.5l19.5 -19.5t20.5 -18.5q-27 -40 -65.5 -63t-90.5 -23q-70 0 -108 39.5t-38 127.5
q-13 -10 -24.5 -18t-24.5 -17q-5 11 -11.5 22t-13.5 22q19 13 37 27.5t36 30.5v212q0 71 9.5 119.5t28 78t45 42.5t61.5 13q51 0 84 -37.5t33 -106.5q0 -91 -48 -172.5t-136 -163.5v-20z" />
    <glyph glyph-name="afii61352" unicode="&#x2116;" horiz-adv-x="1160" 
d="M63 0v669h201l180 -284v284h210v-669h-182l-199 308v-308h-210zM762 295q-32 25 -52.5 65t-20.5 98q0 61 22 101.5t56 65t73 34.5t74 10q58 0 100.5 -18.5t70.5 -48t41.5 -67t13.5 -76.5q0 -38 -13.5 -75.5t-41.5 -67.5t-70.5 -48.5t-100.5 -18.5q-39 0 -79 11t-73 35z
M889 403q11 -20 25 -20t24.5 20t10.5 56q0 37 -10.5 57t-24.5 20t-25 -20t-11 -57q0 -36 11 -56z" />
    <glyph glyph-name="trademark" unicode="&#x2122;" horiz-adv-x="657" 
d="M290 380v287h96l64 -142l59 142h95v-287h-79v168l-67 -170h-15l-74 167v-165h-79zM94 380v206h-78v81h237v-81h-78v-206h-81z" />
    <glyph glyph-name="uni2126" unicode="&#x2126;" horiz-adv-x="730" 
d="M39 0v181h79q-15 13 -30.5 35t-28 49.5t-21 59t-8.5 63.5q0 69 25 123t69.5 91.5t106 57.5t134.5 20t134.5 -20t106 -57.5t69.5 -92t25 -122.5q0 -32 -8.5 -63.5t-21 -59t-28 -49.5t-30.5 -35h79v-181h-278v162q9 9 20.5 23t22 35.5t17.5 53t7 76.5q0 43 -8.5 72.5
t-23.5 47.5t-36.5 26t-46.5 8q-26 0 -47 -8t-36 -26t-23.5 -47.5t-8.5 -72.5q0 -45 7 -76.5t17.5 -53t22 -35.5t20.5 -23v-162h-278z" />
    <glyph glyph-name="estimated" unicode="&#x212e;" horiz-adv-x="647" 
d="M137 118q0 -10 4 -18.5t10 -15.5q0 -2 2 -2q33 -32 76 -49t92 -17q57 0 104.5 23t82.5 63h42q-39 -47 -98.5 -74.5t-130.5 -27.5q-60 0 -113 20.5t-93 56t-63 83.5t-23 102t23 101.5t63 83t93 56t113 20.5q61 0 114.5 -21t92.5 -57.5t61.5 -85.5t22.5 -104h-469
q-6 0 -6 -8v-129zM137 275q0 -7 6 -7h354q7 0 7 7v131q0 9 -3.5 18t-8.5 16q-35 34 -79 51.5t-92 17.5q-99 0 -170 -69q-6 -7 -10 -16t-4 -18v-131z" />
    <glyph glyph-name="onethird" unicode="&#x2153;" horiz-adv-x="920" 
d="M158 -20l-90 93l675 612l92 -89zM139 325v210l-62 -33l-47 89l142 73h111v-339h-144zM654 123q8 -13 22.5 -21t34.5 -8q44 0 44 24q0 13 -13 18.5t-51 5.5v68q37 0 47.5 6t10.5 17q0 22 -37 22q-15 0 -29.5 -7.5t-23.5 -18.5l-93 55q13 15 28 27.5t34.5 22t45 14.5
t58.5 5q72 0 111.5 -25t39.5 -70q0 -36 -19.5 -53t-41.5 -26q27 -6 47 -23.5t20 -55.5q0 -48 -42.5 -76.5t-120.5 -28.5q-66 0 -106 19.5t-63 52.5z" />
    <glyph glyph-name="twothirds" unicode="&#x2154;" horiz-adv-x="920" 
d="M198 -20l-90 93l675 612l92 -89zM672 123q8 -13 22.5 -21t34.5 -8q44 0 44 24q0 13 -13 18.5t-51 5.5v68q37 0 47.5 6t10.5 17q0 22 -37 22q-15 0 -29.5 -7.5t-23.5 -18.5l-93 55q13 15 28 27.5t34.5 22t45 14.5t58.5 5q72 0 111.5 -25t39.5 -70q0 -36 -19.5 -53
t-41.5 -26q27 -6 47 -23.5t20 -55.5q0 -48 -42.5 -76.5t-120.5 -28.5q-66 0 -106 19.5t-63 52.5zM37 325v61q38 29 79.5 60.5t72.5 57.5q14 12 21 22t7 24q0 26 -32 26q-17 0 -29.5 -13t-20.5 -27l-116 47q10 17 27 33.5t39.5 29.5t51 21t61.5 8t61.5 -8.5t49.5 -23.5
t33.5 -35t12.5 -44t-10 -44t-26 -37.5t-37.5 -32.5t-43.5 -30h115v-95h-316z" />
    <glyph glyph-name="onefifth" unicode="&#x2155;" horiz-adv-x="920" 
d="M155 -20l-90 93l675 612l92 -89zM601 146v194h267v-91h-150v-28h7q37 0 69.5 -6t56 -19t37 -34t13.5 -50t-13 -50.5t-35.5 -35.5t-52 -21.5t-63.5 -7.5q-63 0 -107 20.5t-60 50.5l96 55q9 -13 26.5 -22.5t37.5 -9.5q39 0 39 26q0 15 -21.5 22t-72.5 7h-74zM140 328v210
l-62 -33l-47 89l142 73h111v-339h-144z" />
    <glyph glyph-name="twofifths" unicode="&#x2156;" horiz-adv-x="920" 
d="M185 -20l-90 93l675 612l92 -89zM34 325v61q38 29 79.5 60.5t72.5 57.5q14 12 21 22t7 24q0 26 -32 26q-17 0 -29.5 -13t-20.5 -27l-116 47q10 17 27 33.5t39.5 29.5t51 21t61.5 8t61.5 -8.5t49.5 -23.5t33.5 -35t12.5 -44t-10 -44t-26 -37.5t-37.5 -32.5t-43.5 -30h115
v-95h-316zM610 146v194h267v-91h-150v-28h7q37 0 69.5 -6t56 -19t37 -34t13.5 -50t-13 -50.5t-35.5 -35.5t-52 -21.5t-63.5 -7.5q-63 0 -107 20.5t-60 50.5l96 55q9 -13 26.5 -22.5t37.5 -9.5q39 0 39 26q0 15 -21.5 22t-72.5 7h-74z" />
    <glyph glyph-name="threefifths" unicode="&#x2157;" horiz-adv-x="920" 
d="M153 -20l-90 93l675 612l92 -89zM586 146v194h267v-91h-150v-28h7q37 0 69.5 -6t56 -19t37 -34t13.5 -50t-13 -50.5t-35.5 -35.5t-52 -21.5t-63.5 -7.5q-63 0 -107 20.5t-60 50.5l96 55q9 -13 26.5 -22.5t37.5 -9.5q39 0 39 26q0 15 -21.5 22t-72.5 7h-74zM121 445
q8 -13 22.5 -21t34.5 -8q44 0 44 24q0 13 -13 18.5t-51 5.5v68q37 0 47.5 6t10.5 17q0 22 -37 22q-15 0 -29.5 -7.5t-23.5 -18.5l-93 55q13 15 28 27.5t34.5 22t45 14.5t58.5 5q72 0 111.5 -25t39.5 -70q0 -36 -19.5 -53t-41.5 -26q27 -6 47 -23.5t20 -55.5
q0 -48 -42.5 -76.5t-120.5 -28.5q-66 0 -106 19.5t-63 52.5z" />
    <glyph glyph-name="fourfifths" unicode="&#x2158;" horiz-adv-x="920" 
d="M178 -20l-90 93l675 612l92 -89zM604 146v194h267v-91h-150v-28h7q37 0 69.5 -6t56 -19t37 -34t13.5 -50t-13 -50.5t-35.5 -35.5t-52 -21.5t-63.5 -7.5q-63 0 -107 20.5t-60 50.5l96 55q9 -13 26.5 -22.5t37.5 -9.5q39 0 39 26q0 15 -21.5 22t-72.5 7h-74zM31 384v93
l158 192h142v-198h40v-87h-40v-59h-149v59h-151zM111 471h71v86z" />
    <glyph glyph-name="onesixth" unicode="&#x2159;" horiz-adv-x="920" 
d="M189 -20l-90 93l675 612l92 -89zM841 262q-45 -7 -75.5 -18.5t-48.5 -27.5q16 7 58 5q55 -2 85.5 -31t30.5 -77q0 -27 -12 -49.5t-33.5 -38t-52 -24.5t-67.5 -9q-81 0 -125.5 39.5t-44.5 105.5q0 54 25.5 91.5t70.5 66.5q32 17 76.5 30.5t85.5 16.5zM705 148
q-8 -2 -13 -4q-1 -3 -2.5 -9t-1.5 -14q0 -23 10 -33t27 -10q36 0 36 37q0 15 -10 25t-26 10q-11 0 -20 -2zM147 325v210l-62 -33l-47 89l142 73h111v-339h-144z" />
    <glyph glyph-name="fivesixths" unicode="&#x215a;" horiz-adv-x="920" 
d="M187 -20l-90 93l675 612l92 -89zM72 468v194h267v-91h-150v-28h7q37 0 69.5 -6t56 -19t37 -34t13.5 -50t-13 -50.5t-35.5 -35.5t-52 -21.5t-63.5 -7.5q-63 0 -107 20.5t-60 50.5l96 55q9 -13 26.5 -22.5t37.5 -9.5q39 0 39 26q0 15 -21.5 22t-72.5 7h-74zM815 262
q-45 -7 -75.5 -18.5t-48.5 -27.5q16 7 58 5q55 -2 85.5 -31t30.5 -77q0 -27 -12 -49.5t-33.5 -38t-52 -24.5t-67.5 -9q-81 0 -125.5 39.5t-44.5 105.5q0 54 25.5 91.5t70.5 66.5q32 17 76.5 30.5t85.5 16.5zM679 148q-8 -2 -13 -4q-1 -3 -2.5 -9t-1.5 -14q0 -23 10 -33
t27 -10q36 0 36 37q0 15 -10 25t-26 10q-11 0 -20 -2z" />
    <glyph glyph-name="oneeighth" unicode="&#x215b;" horiz-adv-x="920" 
d="M158 -20l-90 93l675 612l92 -89zM128 325v210l-62 -33l-47 89l142 73h111v-339h-144zM584 151q15 18 41 30q-20 11 -34.5 26t-14.5 50q0 38 38 66t119 28q82 0 119.5 -28t37.5 -66q0 -35 -14 -50t-34 -26q25 -12 39.5 -29.5t14.5 -48.5q0 -22 -9 -41t-28.5 -33.5
t-50.5 -23t-75 -8.5t-75 8.5t-50.5 23t-28.5 33.5t-9 41q0 31 14 48zM703 242q0 -13 8.5 -20t21.5 -7q31 0 31 28t-31 28q-13 0 -21.5 -7.5t-8.5 -21.5zM699 110q0 -14 9.5 -22.5t24.5 -8.5q34 0 34 31q0 14 -9 23t-25 9q-15 0 -24.5 -9t-9.5 -23z" />
    <glyph glyph-name="threeeighths" unicode="&#x215c;" horiz-adv-x="920" 
d="M175 -20l-90 93l675 612l92 -89zM584 151q15 18 41 30q-20 11 -34.5 26t-14.5 50q0 38 38 66t119 28q82 0 119.5 -28t37.5 -66q0 -35 -14 -50t-34 -26q25 -12 39.5 -29.5t14.5 -48.5q0 -22 -9 -41t-28.5 -33.5t-50.5 -23t-75 -8.5t-75 8.5t-50.5 23t-28.5 33.5t-9 41
q0 31 14 48zM703 242q0 -13 8.5 -20t21.5 -7q31 0 31 28t-31 28q-13 0 -21.5 -7.5t-8.5 -21.5zM699 110q0 -14 9.5 -22.5t24.5 -8.5q34 0 34 31q0 14 -9 23t-25 9q-15 0 -24.5 -9t-9.5 -23zM140 445q8 -13 22.5 -21t34.5 -8q44 0 44 24q0 13 -13 18.5t-51 5.5v68
q37 0 47.5 6t10.5 17q0 22 -37 22q-15 0 -29.5 -7.5t-23.5 -18.5l-93 55q13 15 28 27.5t34.5 22t45 14.5t58.5 5q72 0 111.5 -25t39.5 -70q0 -36 -19.5 -53t-41.5 -26q27 -6 47 -23.5t20 -55.5q0 -48 -42.5 -76.5t-120.5 -28.5q-66 0 -106 19.5t-63 52.5z" />
    <glyph glyph-name="fiveeighths" unicode="&#x215d;" horiz-adv-x="920" 
d="M168 -20l-90 93l675 612l92 -89zM584 151q15 18 41 30q-20 11 -34.5 26t-14.5 50q0 38 38 66t119 28q82 0 119.5 -28t37.5 -66q0 -35 -14 -50t-34 -26q25 -12 39.5 -29.5t14.5 -48.5q0 -22 -9 -41t-28.5 -33.5t-50.5 -23t-75 -8.5t-75 8.5t-50.5 23t-28.5 33.5t-9 41
q0 31 14 48zM703 242q0 -13 8.5 -20t21.5 -7q31 0 31 28t-31 28q-13 0 -21.5 -7.5t-8.5 -21.5zM699 110q0 -14 9.5 -22.5t24.5 -8.5q34 0 34 31q0 14 -9 23t-25 9q-15 0 -24.5 -9t-9.5 -23zM50 468v194h267v-91h-150v-28h7q37 0 69.5 -6t56 -19t37 -34t13.5 -50t-13 -50.5
t-35.5 -35.5t-52 -21.5t-63.5 -7.5q-63 0 -107 20.5t-60 50.5l96 55q9 -13 26.5 -22.5t37.5 -9.5q39 0 39 26q0 15 -21.5 22t-72.5 7h-74z" />
    <glyph glyph-name="seveneighths" unicode="&#x215e;" horiz-adv-x="920" 
d="M147 -20l-90 93l675 612l92 -89zM584 151q15 18 41 30q-20 11 -34.5 26t-14.5 50q0 38 38 66t119 28q82 0 119.5 -28t37.5 -66q0 -35 -14 -50t-34 -26q25 -12 39.5 -29.5t14.5 -48.5q0 -22 -9 -41t-28.5 -33.5t-50.5 -23t-75 -8.5t-75 8.5t-50.5 23t-28.5 33.5t-9 41
q0 31 14 48zM703 242q0 -13 8.5 -20t21.5 -7q31 0 31 28t-31 28q-13 0 -21.5 -7.5t-8.5 -21.5zM699 110q0 -14 9.5 -22.5t24.5 -8.5q34 0 34 31q0 14 -9 23t-25 9q-15 0 -24.5 -9t-9.5 -23zM94 325l128 246h-140v93h294v-78l-139 -261h-143z" />
    <glyph glyph-name="partialdiff" unicode="&#x2202;" 
d="M109 680q96 -9 183 -35t150 -74q62 -47 95.5 -116.5t33.5 -176.5q0 -63 -19 -115.5t-54.5 -91t-85.5 -60t-112 -21.5q-56 0 -104 16t-83 46t-55.5 74t-20.5 100t20.5 100.5t57 76t87.5 49.5t113 21q-16 13 -42.5 25t-58.5 22.5t-66 18.5t-64 12zM361 302q-3 18 -7 32
q-49 -3 -78.5 -32.5t-29.5 -81.5q0 -84 56 -84q62 0 62 127q0 21 -3 39z" />
    <glyph glyph-name="Delta" unicode="&#x2206;" horiz-adv-x="680" 
d="M-10 0l246 668h209l245 -668h-700zM245 158h184l-91 296z" />
    <glyph glyph-name="product" unicode="&#x220f;" horiz-adv-x="716" 
d="M80 0v485h-63v183h682v-183h-63v-485h-215v485h-126v-485h-215z" />
    <glyph glyph-name="summation" unicode="&#x2211;" horiz-adv-x="556" 
d="M37 0v171l155 165l-155 161v171h499v-181h-250l146 -151l-146 -155h261v-181h-510z" />
    <glyph glyph-name="minus" unicode="&#x2212;" 
d="M43 252v160h514v-160h-514z" />
    <glyph glyph-name="uni2215" unicode="&#x2215;" horiz-adv-x="527" 
d="M0 33l378 734l149 -74l-378 -734z" />
    <glyph glyph-name="uni2219" unicode="&#x2219;" horiz-adv-x="326" 
d="M89 296q-29 29 -29 72t29.5 71.5t74.5 28.5t74.5 -28.5t29.5 -71.5t-29.5 -71.5t-74.5 -28.5t-75 28z" />
    <glyph glyph-name="radical" unicode="&#x221a;" 
d="M251 0l-142 252h-87v160h179l81 -141l156 487l158 -45l-233 -713h-112z" />
    <glyph glyph-name="infinity" unicode="&#x221e;" horiz-adv-x="532" 
d="M301 233q-18 22 -36 58q-17 -36 -35.5 -58t-37.5 -34.5t-38 -17t-37 -4.5q-39 0 -67.5 15t-47 40.5t-27.5 58t-9 68.5q0 90 42 136t109 46q22 0 42 -5t38 -17.5t35 -35t33 -57.5q30 66 65 90t86 24q32 0 59.5 -12t47.5 -35.5t31.5 -57t11.5 -76.5q0 -32 -8.5 -64
t-26.5 -58.5t-46.5 -43t-68.5 -16.5q-20 0 -39.5 4.5t-38 17t-37.5 34.5zM381 394q-9 -14 -18 -35q8 -19 18.5 -33.5t26.5 -14.5q9 0 15.5 5t10.5 12.5t5.5 16t1.5 15.5q0 23 -10 35.5t-24 12.5q-16 0 -26 -14zM89 359q0 -48 34 -48q9 0 16 5t12.5 12.5t9 16t6.5 14.5
q-11 23 -20.5 35.5t-23.5 12.5q-17 0 -25.5 -15.5t-8.5 -32.5z" />
    <glyph glyph-name="integral" unicode="&#x222b;" horiz-adv-x="479" 
d="M29 -30q57 6 79.5 28t22.5 67v362q0 242 319 248v-158q-57 -6 -79.5 -28t-22.5 -67v-362q0 -242 -319 -248v158z" />
    <glyph glyph-name="approxequal" unicode="&#x2248;" 
d="M30 491q11 9 27 18.5t35 17.5t40 13.5t42 5.5q30 0 64 -7.5t71 -15.5q29 -7 60 -12t63 -5q25 0 46 9.5t34 19.5l74 -134q-10 -9 -26 -18.5t-35.5 -18t-41 -13.5t-41.5 -5q-29 0 -65.5 5.5t-69.5 13.5q-35 8 -63.5 14.5t-54.5 6.5q-25 0 -48.5 -9.5t-36.5 -19.5zM30 252
q11 9 27 18.5t35 18t40 13.5t42 5q30 0 64 -7.5t71 -15.5q29 -7 60 -12t63 -5q25 0 46 9.5t34 19.5l74 -134q-10 -9 -26 -18.5t-35.5 -18t-41 -13.5t-41.5 -5q-29 0 -65.5 5.5t-69.5 13.5q-35 8 -63.5 14.5t-54.5 6.5q-25 0 -48.5 -9.5t-36.5 -19.5z" />
    <glyph glyph-name="notequal" unicode="&#x2260;" 
d="M78 68l32 59h-67v160h152l42 79h-194v160h279l68 128l128 -69l-32 -59h71v-160h-156l-42 -79h198v-160h-283l-68 -128z" />
    <glyph glyph-name="lessequal" unicode="&#x2264;" 
d="M29 347v164l501 157l49 -163l-318 -76l321 -76l-49 -163zM43 0v160h514v-160h-514z" />
    <glyph glyph-name="greaterequal" unicode="&#x2265;" 
d="M67 190l-49 163l321 76l-318 76l49 163l501 -157v-164zM43 0v160h514v-160h-514z" />
    <glyph glyph-name="lozenge" unicode="&#x25ca;" horiz-adv-x="532" 
d="M265 -16l-210 373l210 363l212 -363zM267 231l66 123l-68 117l-66 -116z" />
    <glyph glyph-name="fi" unicode="&#xf001;" horiz-adv-x="680" 
d="M73 0v353h-67v140h67v15q0 78 49.5 125t146.5 47q27 0 52 -3.5t46 -8.5t37 -10.5t25 -9.5l-43 -114q-11 4 -24 7.5t-32 3.5q-23 0 -35 -12.5t-12 -27.5v-12h99v-140h-98v-353h-211zM457 543q-28 20 -28 60q0 39 28.5 58t77.5 19t77.5 -19t28.5 -58q0 -40 -28.5 -59.5
t-77.5 -19.5t-78 19zM430 0v493h210v-493h-210z" />
    <glyph glyph-name="fl" unicode="&#xf002;" horiz-adv-x="681" 
d="M73 0v353h-67v140h67v15q0 78 49.5 125t146.5 47q27 0 52 -3.5t46 -8.5t37 -10.5t25 -9.5l-43 -114q-11 4 -24 7.5t-32 3.5q-23 0 -35 -12.5t-12 -27.5v-12h99v-140h-98v-353h-211zM430 0v667h211v-667h-211z" />
    <glyph glyph-name="oneseventh" unicode="&#xf506;" horiz-adv-x="920" 
d="M131 -20l-90 93l675 612l92 -89zM589 3l128 246h-140v93h294v-78l-139 -261h-143zM123 325v210l-62 -33l-47 89l142 73h111v-339h-144z" />
    <glyph glyph-name="twosevenths" unicode="&#xf507;" horiz-adv-x="920" 
d="M175 -20l-90 93l675 612l92 -89zM609 3l128 246h-140v93h294v-78l-139 -261h-143zM35 325v61q38 29 79.5 60.5t72.5 57.5q14 12 21 22t7 24q0 26 -32 26q-17 0 -29.5 -13t-20.5 -27l-116 47q10 17 27 33.5t39.5 29.5t51 21t61.5 8t61.5 -8.5t49.5 -23.5t33.5 -35
t12.5 -44t-10 -44t-26 -37.5t-37.5 -32.5t-43.5 -30h115v-95h-316z" />
    <glyph glyph-name="threesevenths" unicode="&#xf508;" horiz-adv-x="920" 
d="M169 -20l-90 93l675 612l92 -89zM613 3l128 246h-140v93h294v-78l-139 -261h-143zM131 445q8 -13 22.5 -21t34.5 -8q44 0 44 24q0 13 -13 18.5t-51 5.5v68q37 0 47.5 6t10.5 17q0 22 -37 22q-15 0 -29.5 -7.5t-23.5 -18.5l-93 55q13 15 28 27.5t34.5 22t45 14.5t58.5 5
q72 0 111.5 -25t39.5 -70q0 -36 -19.5 -53t-41.5 -26q27 -6 47 -23.5t20 -55.5q0 -48 -42.5 -76.5t-120.5 -28.5q-66 0 -106 19.5t-63 52.5z" />
    <glyph glyph-name="foursevenths" unicode="&#xf509;" horiz-adv-x="920" 
d="M186 -20l-90 93l675 612l92 -89zM621 3l128 246h-140v93h294v-78l-139 -261h-143zM33 384v93l158 192h142v-198h40v-87h-40v-59h-149v59h-151zM113 471h71v86z" />
    <glyph glyph-name="fivesevenths" unicode="&#xf50a;" horiz-adv-x="920" 
d="M164 -20l-90 93l675 612l92 -89zM607 3l128 246h-140v93h294v-78l-139 -261h-143zM69 468v194h267v-91h-150v-28h7q37 0 69.5 -6t56 -19t37 -34t13.5 -50t-13 -50.5t-35.5 -35.5t-52 -21.5t-63.5 -7.5q-63 0 -107 20.5t-60 50.5l96 55q9 -13 26.5 -22.5t37.5 -9.5
q39 0 39 26q0 15 -21.5 22t-72.5 7h-74z" />
    <glyph glyph-name="sixsevenths" unicode="&#xf50b;" horiz-adv-x="920" 
d="M168 -20l-90 93l675 612l92 -89zM325 589q-45 -7 -75.5 -18.5t-48.5 -27.5q16 7 58 5q55 -2 85.5 -31t30.5 -77q0 -27 -12 -49.5t-33.5 -38t-52 -24.5t-67.5 -9q-81 0 -125.5 39.5t-44.5 105.5q0 54 25.5 91.5t70.5 66.5q32 17 76.5 30.5t85.5 16.5zM189 475
q-8 -2 -13 -4q-1 -3 -2.5 -9t-1.5 -14q0 -23 10 -33t27 -10q36 0 36 37q0 15 -10 25t-26 10q-11 0 -20 -2zM609 3l128 246h-140v93h294v-78l-139 -261h-143z" />
    <glyph glyph-name="oneninth" unicode="&#xf50c;" horiz-adv-x="920" 
d="M151 -20l-90 93l675 612l92 -89zM591 75q20 4 40 9.5t37.5 12t31.5 14.5t21 17q-8 -3 -20 -5t-29 -2q-27 0 -50 7.5t-40 21.5t-27 33.5t-10 43.5q0 55 43.5 89.5t122.5 34.5q78 0 123 -39.5t45 -105.5q0 -48 -18.5 -83.5t-53.5 -63.5q-16 -12 -37.5 -22t-46 -18
t-51 -13.5t-52.5 -8.5zM716 195q21 0 30 4q2 10 2 21q0 20 -9 32t-29 12q-17 0 -25 -10t-8 -24q0 -18 11 -26.5t28 -8.5zM127 325v210l-62 -33l-47 89l142 73h111v-339h-144z" />
    <glyph glyph-name="twoninths" unicode="&#xf50d;" horiz-adv-x="920" 
d="M193 -20l-90 93l675 612l92 -89zM35 325v61q38 29 79.5 60.5t72.5 57.5q14 12 21 22t7 24q0 26 -32 26q-17 0 -29.5 -13t-20.5 -27l-116 47q10 17 27 33.5t39.5 29.5t51 21t61.5 8t61.5 -8.5t49.5 -23.5t33.5 -35t12.5 -44t-10 -44t-26 -37.5t-37.5 -32.5t-43.5 -30h115
v-95h-316zM615 75q20 4 40 9.5t37.5 12t31.5 14.5t21 17q-8 -3 -20 -5t-29 -2q-27 0 -50 7.5t-40 21.5t-27 33.5t-10 43.5q0 55 43.5 89.5t122.5 34.5q78 0 123 -39.5t45 -105.5q0 -48 -18.5 -83.5t-53.5 -63.5q-16 -12 -37.5 -22t-46 -18t-51 -13.5t-52.5 -8.5zM740 195
q21 0 30 4q2 10 2 21q0 20 -9 32t-29 12q-17 0 -25 -10t-8 -24q0 -18 11 -26.5t28 -8.5z" />
    <glyph glyph-name="fourninths" unicode="&#xf50e;" horiz-adv-x="920" 
d="M180 -20l-90 93l675 612l92 -89zM611 75q20 4 40 9.5t37.5 12t31.5 14.5t21 17q-8 -3 -20 -5t-29 -2q-27 0 -50 7.5t-40 21.5t-27 33.5t-10 43.5q0 55 43.5 89.5t122.5 34.5q78 0 123 -39.5t45 -105.5q0 -48 -18.5 -83.5t-53.5 -63.5q-16 -12 -37.5 -22t-46 -18
t-51 -13.5t-52.5 -8.5zM736 195q21 0 30 4q2 10 2 21q0 20 -9 32t-29 12q-17 0 -25 -10t-8 -24q0 -18 11 -26.5t28 -8.5zM20 384v93l158 192h142v-198h40v-87h-40v-59h-149v59h-151zM100 471h71v86z" />
    <glyph glyph-name="fiveninths" unicode="&#xf50f;" horiz-adv-x="920" 
d="M176 -20l-90 93l675 612l92 -89zM607 75q20 4 40 9.5t37.5 12t31.5 14.5t21 17q-8 -3 -20 -5t-29 -2q-27 0 -50 7.5t-40 21.5t-27 33.5t-10 43.5q0 55 43.5 89.5t122.5 34.5q78 0 123 -39.5t45 -105.5q0 -48 -18.5 -83.5t-53.5 -63.5q-16 -12 -37.5 -22t-46 -18
t-51 -13.5t-52.5 -8.5zM732 195q21 0 30 4q2 10 2 21q0 20 -9 32t-29 12q-17 0 -25 -10t-8 -24q0 -18 11 -26.5t28 -8.5zM71 468v194h267v-91h-150v-28h7q37 0 69.5 -6t56 -19t37 -34t13.5 -50t-13 -50.5t-35.5 -35.5t-52 -21.5t-63.5 -7.5q-63 0 -107 20.5t-60 50.5l96 55
q9 -13 26.5 -22.5t37.5 -9.5q39 0 39 26q0 15 -21.5 22t-72.5 7h-74z" />
    <glyph glyph-name="sevenninths" unicode="&#xf510;" horiz-adv-x="920" 
d="M142 -20l-90 93l675 612l92 -89zM596 75q20 4 40 9.5t37.5 12t31.5 14.5t21 17q-8 -3 -20 -5t-29 -2q-27 0 -50 7.5t-40 21.5t-27 33.5t-10 43.5q0 55 43.5 89.5t122.5 34.5q78 0 123 -39.5t45 -105.5q0 -48 -18.5 -83.5t-53.5 -63.5q-16 -12 -37.5 -22t-46 -18
t-51 -13.5t-52.5 -8.5zM721 195q21 0 30 4q2 10 2 21q0 20 -9 32t-29 12q-17 0 -25 -10t-8 -24q0 -18 11 -26.5t28 -8.5zM104 325l128 246h-140v93h294v-78l-139 -261h-143z" />
    <glyph glyph-name="eightninths" unicode="&#xf511;" horiz-adv-x="920" 
d="M174 -20l-90 93l675 612l92 -89zM607 75q20 4 40 9.5t37.5 12t31.5 14.5t21 17q-8 -3 -20 -5t-29 -2q-27 0 -50 7.5t-40 21.5t-27 33.5t-10 43.5q0 55 43.5 89.5t122.5 34.5q78 0 123 -39.5t45 -105.5q0 -48 -18.5 -83.5t-53.5 -63.5q-16 -12 -37.5 -22t-46 -18
t-51 -13.5t-52.5 -8.5zM732 195q21 0 30 4q2 10 2 21q0 20 -9 32t-29 12q-17 0 -25 -10t-8 -24q0 -18 11 -26.5t28 -8.5zM48 473q15 18 41 30q-20 11 -34.5 26t-14.5 50q0 38 38 66t119 28q82 0 119.5 -28t37.5 -66q0 -35 -14 -50t-34 -26q25 -12 39.5 -29.5t14.5 -48.5
q0 -22 -9 -41t-28.5 -33.5t-50.5 -23t-75 -8.5t-75 8.5t-50.5 23t-28.5 33.5t-9 41q0 31 14 48zM167 564q0 -13 8.5 -20t21.5 -7q31 0 31 28t-31 28q-13 0 -21.5 -7.5t-8.5 -21.5zM163 432q0 -14 9.5 -22.5t24.5 -8.5q34 0 34 31q0 14 -9 23t-25 9q-15 0 -24.5 -9t-9.5 -23z
" />
    <glyph glyph-name="a.smcp" unicode="&#xf605;" horiz-adv-x="619" 
d="M0 0l206 522h208l205 -522h-201l-25 73h-169l-25 -73h-199zM256 206h102l-51 151z" />
    <glyph glyph-name="b.smcp" unicode="&#xf606;" horiz-adv-x="545" 
d="M40 0v522h256q97 0 149.5 -31.5t52.5 -100.5q0 -26 -6.5 -44.5t-17 -32t-23.5 -22t-25 -14.5q19 -4 37.5 -13.5t33.5 -24.5t24 -36.5t9 -49.5q0 -69 -50.5 -111t-147.5 -42h-292zM223 326h48q26 0 37 10t11 29q0 18 -11 27t-37 9h-48v-75zM223 131h66q23 0 37 8.5
t14 30.5q0 21 -13 29.5t-38 8.5h-66v-77z" />
    <glyph glyph-name="c.smcp" unicode="&#xf607;" horiz-adv-x="571" 
d="M551 127q-13 -31 -33 -56.5t-49.5 -43.5t-71 -28t-97.5 -10q-63 0 -114 20t-87 56t-55 86.5t-19 111.5q0 66 21.5 116.5t58.5 84t87.5 51t108.5 17.5q63 0 103.5 -13t70.5 -39q26 -21 43 -45t28 -51l-158 -71q-10 29 -29 49.5t-49 20.5q-38 0 -63 -28t-25 -92
q0 -57 24 -90t64 -33q32 0 53 17t32 46z" />
    <glyph glyph-name="d.smcp" unicode="&#xf608;" horiz-adv-x="585" 
d="M40 0v522h220q70 0 125.5 -18t94.5 -51.5t59.5 -81t20.5 -106.5q0 -58 -20.5 -106.5t-59.5 -84t-94.5 -55t-125.5 -19.5h-220zM228 148h33q46 0 77.5 28t31.5 88t-31.5 85t-77.5 25h-33v-226z" />
    <glyph glyph-name="e.smcp" unicode="&#xf609;" horiz-adv-x="501" 
d="M40 0v522h419v-149h-229v-49h184v-126h-184v-49h246v-149h-436z" />
    <glyph glyph-name="f.smcp" unicode="&#xf60a;" horiz-adv-x="471" 
d="M40 0v522h411v-149h-223v-64h179v-147h-179v-162h-188z" />
    <glyph glyph-name="g.smcp" unicode="&#xf60b;" horiz-adv-x="577" 
d="M303 183v120h239v-282q-43 -14 -101.5 -23t-127.5 -9q-71 0 -124.5 19.5t-90 55.5t-55 86.5t-18.5 113.5t20 112.5t56.5 84t87.5 53t114 18.5q69 0 109.5 -13.5t69.5 -36.5q20 -14 34.5 -33t23.5 -38l-157 -70q-11 22 -31.5 34t-43.5 12q-38 0 -62.5 -28t-24.5 -98
q0 -69 28.5 -101t71.5 -32q12 0 25 1t27 3v51h-70z" />
    <glyph glyph-name="h.smcp" unicode="&#xf60c;" horiz-adv-x="594" 
d="M40 0v522h188v-176h138v176h188v-522h-188v194h-138v-194h-188z" />
    <glyph glyph-name="i.smcp" unicode="&#xf60d;" horiz-adv-x="268" 
d="M40 0v522h188v-522h-188z" />
    <glyph glyph-name="j.smcp" unicode="&#xf60e;" horiz-adv-x="268" 
d="M-29 -21q32 9 50.5 24.5t18.5 43.5v475h188v-480q0 -81 -57.5 -129t-150.5 -62z" />
    <glyph glyph-name="k.smcp" unicode="&#xf60f;" horiz-adv-x="599" 
d="M40 0v522h188v-167l142 167h213l-189 -214l210 -308h-224l-115 187l-37 -40v-147h-188z" />
    <glyph glyph-name="l.smcp" unicode="&#xf610;" horiz-adv-x="474" 
d="M40 0v522h188v-373h226v-149h-414z" />
    <glyph glyph-name="m.smcp" unicode="&#xf611;" horiz-adv-x="698" 
d="M40 0v522h193l116 -283l116 283h193v-522h-177v222l-91 -225h-82l-91 225v-222h-177z" />
    <glyph glyph-name="n.smcp" unicode="&#xf612;" horiz-adv-x="594" 
d="M40 0v521h189l144 -228v228h181v-521h-172l-161 249v-249h-181z" />
    <glyph glyph-name="o.smcp" unicode="&#xf613;" horiz-adv-x="606" 
d="M180 9q-51 20 -85.5 56t-52 86.5t-17.5 110.5t18.5 110t54.5 85.5t87.5 55t117.5 19.5q68 0 120 -19.5t87 -55t53 -85.5t18 -110t-18.5 -110.5t-54.5 -86.5t-88.5 -56t-120.5 -20t-119 20zM219 262q0 -127 84 -127t84 127q0 124 -84 124t-84 -124z" />
    <glyph glyph-name="p.smcp" unicode="&#xf614;" horiz-adv-x="531" 
d="M40 0v522h247q105 0 164.5 -45t59.5 -133t-59.5 -136t-164.5 -48h-65v-160h-182zM222 295h52q24 0 37.5 13t13.5 33t-13.5 32t-37.5 12h-52v-90z" />
    <glyph glyph-name="q.smcp" unicode="&#xf615;" horiz-adv-x="605" 
d="M468 -137q-47 1 -88 10t-72.5 26t-52.5 42.5t-28 58.5q-101 20 -151.5 90.5t-50.5 173.5q0 60 18.5 109.5t54 85t87 54.5t117.5 19t118 -19t87.5 -54.5t54 -85t18.5 -109.5q0 -102 -47.5 -169t-138.5 -93q8 -14 33.5 -22t58.5 -8zM239 168q21 -33 63 -33t63 33t21 96
q0 122 -84 122t-84 -122q0 -63 21 -96z" />
    <glyph glyph-name="r.smcp" unicode="&#xf616;" horiz-adv-x="563" 
d="M40 0v522h269q49 0 89 -12t68.5 -34t43.5 -53t15 -68q0 -55 -20 -90t-60 -58l113 -207h-207l-80 172h-49v-172h-182zM222 305h60q29 0 42.5 11.5t13.5 29.5q0 40 -56 40h-60v-81z" />
    <glyph glyph-name="s.smcp" unicode="&#xf617;" horiz-adv-x="516" 
d="M156 170q17 -22 45 -35.5t59 -13.5q25 0 42.5 5.5t17.5 19.5q0 7 -4 13t-14.5 12t-29.5 11.5t-50 12.5q-48 12 -84.5 25t-60.5 32t-36 45.5t-12 64.5q0 39 16.5 70.5t47 53.5t73.5 34t96 12q75 0 124.5 -18t81.5 -49q15 -13 25 -28l-135 -80q-4 8 -13.5 16t-22.5 15
t-28.5 11t-30.5 4q-25 0 -41.5 -6t-16.5 -18q0 -8 3.5 -13t15.5 -10.5t34 -11.5t59 -15q36 -8 68 -19.5t57 -30t39.5 -47t14.5 -70.5q0 -44 -20.5 -76.5t-53.5 -54t-76 -32t-88 -10.5q-75 0 -125.5 16t-84.5 46q-15 15 -33 41z" />
    <glyph glyph-name="t.smcp" unicode="&#xf618;" horiz-adv-x="523" 
d="M168 0v373h-148v149h483v-149h-147v-373h-188z" />
    <glyph glyph-name="u.smcp" unicode="&#xf619;" horiz-adv-x="596" 
d="M227 209q0 -39 19 -56t53 -17q35 0 52.5 17t17.5 56v313h187v-326q0 -99 -69 -153t-195 -54t-189 54t-63 153v326h187v-313z" />
    <glyph glyph-name="v.smcp" unicode="&#xf61a;" horiz-adv-x="616" 
d="M237 0l-237 522h220l102 -281l93 281h201l-208 -522h-171z" />
    <glyph glyph-name="w.smcp" unicode="&#xf61b;" horiz-adv-x="790" 
d="M162 0l-152 521h190l65 -233l60 233h139l61 -233l65 233h190l-153 -521h-157l-76 265l-74 -265h-158z" />
    <glyph glyph-name="x.smcp" unicode="&#xf61c;" horiz-adv-x="610" 
d="M5 0l191 258l-179 264h211l78 -128l79 128h206l-178 -260l192 -262h-216l-86 127l-88 -127h-210z" />
    <glyph glyph-name="y.smcp" unicode="&#xf61d;" 
d="M207 0v200l-207 321h209l94 -153l90 153h207l-205 -320v-201h-188z" />
    <glyph glyph-name="z.smcp" unicode="&#xf61e;" horiz-adv-x="565" 
d="M40 0v123l236 249h-225v150h465v-127l-234 -245h243v-150h-485z" />
    <glyph glyph-name="ae.smcp" unicode="&#xf61f;" horiz-adv-x="785" 
d="M-30 0l302 522h471v-149h-202v-49h129v-127h-129v-48h219v-149h-408v95h-128l-50 -95h-204zM279 221h73v143z" />
    <glyph glyph-name="eng.smcp" unicode="&#xf620;" horiz-adv-x="594" 
d="M40 0v521h189l144 -228v228h181v-522q0 -81 -57.5 -129t-150.5 -62l-49 128q32 9 50.5 24.5t18.5 43.5v20l-145 225v-249h-181z" />
    <glyph glyph-name="oe.smcp" unicode="&#xf621;" horiz-adv-x="788" 
d="M319 0q-150 0 -222 72t-72 197q0 124 76 188.5t218 64.5h425v-149h-200v-49h129v-127h-129v-48h219v-149h-444zM355 135v258h-37q-17 0 -36.5 -4.5t-36 -17.5t-27.5 -37t-11 -63q0 -66 30.5 -101t84.5 -35h33z" />
    <glyph glyph-name="eth.smcp" unicode="&#xf622;" horiz-adv-x="597" 
d="M52 0v209h-52v109h52v204h220q70 0 125.5 -18t94.5 -51.5t59.5 -81t20.5 -106.5q0 -58 -20.5 -106.5t-59.5 -84t-94.5 -55t-125.5 -19.5h-220zM240 148h33q46 0 77.5 28t31.5 88t-31.5 85t-77.5 25h-33v-56h71v-109h-71v-61z" />
    <glyph glyph-name="hbar.smcp" unicode="&#xf623;" horiz-adv-x="594" 
d="M40 0v367h-58v111h58v44h188v-176h138v176h188v-44h59v-111h-59v-367h-188v194h-138v-194h-188z" />
    <glyph glyph-name="ij.smcp" unicode="&#xf624;" horiz-adv-x="546" 
d="M40 0v522h188v-522h-188zM249 -21q32 9 50.5 24.5t18.5 43.5v475h188v-480q0 -81 -57.5 -129t-150.5 -62z" />
    <glyph glyph-name="idotaccent.smcp" unicode="&#xf625;" horiz-adv-x="268" 
d="M40 0v522h188v-522h-188zM62 574q-27 22 -27 57t27 58t73 23q45 0 71.5 -23t26.5 -58t-26.5 -57t-71.5 -22q-46 0 -73 22z" />
    <glyph glyph-name="dotlessi.smcp" unicode="&#xf626;" horiz-adv-x="268" 
d="M40 0v522h188v-522h-188z" />
    <glyph glyph-name="oslash.smcp" unicode="&#xf627;" horiz-adv-x="606" 
d="M22 37l50 55q-47 68 -47 170q0 60 18.5 110t54.5 85.5t87.5 55t117.5 19.5q45 0 82 -8.5t68 -24.5l55 59l83 -72l-56 -59q23 -33 34.5 -75t11.5 -90q0 -60 -18.5 -110.5t-54.5 -86.5t-88.5 -56t-120.5 -20q-42 0 -76 7.5t-63 21.5l-54 -55zM219 262q0 -127 84 -127
t84 127q0 124 -84 124t-84 -124z" />
    <glyph glyph-name="thorn.smcp" unicode="&#xf628;" horiz-adv-x="543" 
d="M40 0v522h183v-68h66q105 0 164.5 -48t59.5 -136t-59.5 -136t-164.5 -48h-66v-86h-183zM223 221h53q24 0 37.5 14.5t13.5 34.5q0 21 -13.5 34.5t-37.5 13.5h-53v-97z" />
    <glyph glyph-name="tbar.smcp" unicode="&#xf629;" horiz-adv-x="523" 
d="M168 0v193h-103v91h103v89h-148v149h483v-149h-147v-89h103v-91h-103v-193h-188z" />
    <glyph glyph-name="kgreenlandic.smcp" unicode="&#xf62a;" horiz-adv-x="599" 
d="M40 0v522h188v-167l142 167h213l-189 -214l210 -308h-224l-115 187l-37 -40v-147h-188z" />
    <glyph glyph-name="lslash.smcp" unicode="&#xf62b;" horiz-adv-x="474" 
d="M40 0v522h188v-159l106 47l43 -105l-149 -66v-90h226v-149h-414z" />
    <glyph glyph-name="ampersand.smcp" unicode="&#xf62c;" horiz-adv-x="631" 
d="M396 0l-37 38q-14 -10 -28 -18.5t-31 -14.5t-39.5 -9.5t-53.5 -3.5q-46 0 -81 12.5t-58.5 34.5t-35.5 52.5t-12 66.5q0 65 36.5 103t92.5 61q-17 20 -28 39t-11 45q0 57 47 91.5t140 34.5q78 0 125 -26t74 -77l-116 -68q-12 20 -23 34t-29 14q-11 0 -16.5 -6t-5.5 -15
q0 -10 7.5 -20t15.5 -19l71 -84q27 32 60.5 58t71.5 43l79 -115q-42 -23 -69.5 -48t-50.5 -55l117 -148h-212zM233 216q-17 -9 -28.5 -21t-11.5 -33q0 -19 11.5 -29t28.5 -10q31 0 52 26z" />
    <glyph glyph-name="f_i.smcp" unicode="&#xf62d;" horiz-adv-x="722" 
d="M40 0v522h411v-149h-223v-64h179v-147h-179v-162h-188zM494 0v522h188v-522h-188z" />
    <glyph glyph-name="f_l.smcp" unicode="&#xf62e;" horiz-adv-x="926" 
d="M40 0v522h411v-149h-223v-64h179v-147h-179v-162h-188zM492 0v522h188v-373h226v-149h-414z" />
    <glyph glyph-name="f_f.smcp" unicode="&#xf62f;" horiz-adv-x="920" 
d="M489 0v522h411v-149h-223v-64h179v-147h-179v-162h-188zM40 0v522h411v-149h-223v-64h179v-147h-179v-162h-188z" />
    <glyph glyph-name="f_f_i.smcp" unicode="&#xf630;" horiz-adv-x="1166" 
d="M489 0v522h411v-149h-223v-64h179v-147h-179v-162h-188zM40 0v522h411v-149h-223v-64h179v-147h-179v-162h-188zM938 0v522h188v-522h-188z" />
    <glyph glyph-name="f_f_l.smcp" unicode="&#xf631;" horiz-adv-x="1367" 
d="M489 0v522h411v-149h-223v-64h179v-147h-179v-162h-188zM40 0v522h411v-149h-223v-64h179v-147h-179v-162h-188zM933 0v522h188v-373h226v-149h-414z" />
    <glyph glyph-name="f_b.smcp" unicode="&#xf632;" horiz-adv-x="992" 
d="M40 0v522h411v-149h-223v-64h179v-147h-179v-162h-188zM487 0v522h256q97 0 149.5 -31.5t52.5 -100.5q0 -26 -6.5 -44.5t-17 -32t-23.5 -22t-25 -14.5q19 -4 37.5 -13.5t33.5 -24.5t24 -36.5t9 -49.5q0 -69 -50.5 -111t-147.5 -42h-292zM670 326h48q26 0 37 10t11 29
q0 18 -11 27t-37 9h-48v-75zM670 131h66q23 0 37 8.5t14 30.5q0 21 -13 29.5t-38 8.5h-66v-77z" />
    <glyph glyph-name="f_j.smcp" unicode="&#xf633;" horiz-adv-x="715" 
d="M40 0v522h411v-149h-223v-64h179v-147h-179v-162h-188zM418 -21q32 9 50.5 24.5t18.5 43.5v475h188v-480q0 -81 -57.5 -129t-150.5 -62z" />
    <glyph glyph-name="f_k.smcp" unicode="&#xf634;" horiz-adv-x="1044" 
d="M40 0v522h411v-149h-223v-64h179v-147h-179v-162h-188zM485 0v522h188v-167l142 167h213l-189 -214l210 -308h-224l-115 187l-37 -40v-147h-188z" />
    <glyph glyph-name="f_t.smcp" unicode="&#xf635;" horiz-adv-x="986" 
d="M40 0v522h411v-149h-223v-64h179v-147h-179v-162h-188zM631 0v373h-148v149h483v-149h-147v-373h-188z" />
    <glyph glyph-name="f_h.smcp" unicode="&#xf636;" horiz-adv-x="1037" 
d="M40 0v522h411v-149h-223v-64h179v-147h-179v-162h-188zM483 0v522h188v-176h138v176h188v-522h-188v194h-138v-194h-188z" />
    <glyph glyph-name="germandbls.smcp" unicode="&#xf637;" horiz-adv-x="1032" 
d="M672 170q17 -22 45 -35.5t59 -13.5q25 0 42.5 5.5t17.5 19.5q0 7 -4 13t-14.5 12t-29.5 11.5t-50 12.5q-48 12 -84.5 25t-60.5 32t-36 45.5t-12 64.5q0 39 16.5 70.5t47 53.5t73.5 34t96 12q75 0 124.5 -18t81.5 -49q15 -13 25 -28l-135 -80q-4 8 -13.5 16t-22.5 15
t-28.5 11t-30.5 4q-25 0 -41.5 -6t-16.5 -18q0 -8 3.5 -13t15.5 -10.5t34 -11.5t59 -15q36 -8 68 -19.5t57 -30t39.5 -47t14.5 -70.5q0 -44 -20.5 -76.5t-53.5 -54t-76 -32t-88 -10.5q-75 0 -125.5 16t-84.5 46q-15 15 -33 41zM156 170q17 -22 45 -35.5t59 -13.5
q25 0 42.5 5.5t17.5 19.5q0 7 -4 13t-14.5 12t-29.5 11.5t-50 12.5q-48 12 -84.5 25t-60.5 32t-36 45.5t-12 64.5q0 39 16.5 70.5t47 53.5t73.5 34t96 12q75 0 124.5 -18t81.5 -49q15 -13 25 -28l-135 -80q-4 8 -13.5 16t-22.5 15t-28.5 11t-30.5 4q-25 0 -41.5 -6
t-16.5 -18q0 -8 3.5 -13t15.5 -10.5t34 -11.5t59 -15q36 -8 68 -19.5t57 -30t39.5 -47t14.5 -70.5q0 -44 -20.5 -76.5t-53.5 -54t-76 -32t-88 -10.5q-75 0 -125.5 16t-84.5 46q-15 15 -33 41z" />
    <glyph glyph-name="euro.smcp" unicode="&#xf638;" horiz-adv-x="524" 
d="M17 199v121h37q3 43 19 81t45.5 65.5t72.5 43.5t99 16q93 0 142.5 -36t70.5 -98l-155 -35q-7 23 -19.5 32t-30.5 9q-21 0 -36.5 -18t-17.5 -60h94v-121h-95q1 -23 6 -37.5t12.5 -23t17.5 -11.5t21 -3q41 0 54 40l152 -45q-20 -59 -71.5 -93.5t-141.5 -34.5
q-112 0 -173.5 56t-66.5 152h-36z" />
    <glyph glyph-name="dollar.smcp" unicode="&#xf639;" horiz-adv-x="524" 
d="M203 -134v127q-46 3 -93.5 23.5t-85.5 58.5l123 90q20 -17 51.5 -30t57.5 -13q28 0 45 5.5t17 19.5q0 7 -3.5 12.5t-15 10.5t-32.5 11.5t-56 15.5q-45 12 -78 26t-54 32.5t-31 43.5t-10 59q0 63 44.5 107t120.5 56v145h127v-144q54 -7 90 -26t65 -51l-121 -85
q-16 17 -39.5 27t-49.5 10q-20 0 -37 -6t-17 -17q0 -8 4 -12.5t14.5 -8.5t29 -8.5t47.5 -12.5q40 -11 74 -24t58 -32.5t37.5 -47.5t13.5 -68q0 -36 -13 -64.5t-35.5 -49t-53.5 -33.5t-67 -19v-128h-127z" />
    <glyph glyph-name="cent.smcp" unicode="&#xf63a;" horiz-adv-x="524" 
d="M201 -79v107q-38 10 -72.5 28t-60 46.5t-40.5 68t-15 92.5q0 52 14 92t39 68t59.5 46t75.5 27v103h164v-101q21 -2 43 -8t41.5 -14.5t35.5 -17.5t26 -17l-83 -136q-20 14 -48 26.5t-70 12.5t-68 -23t-26 -58q0 -38 27 -61.5t63 -23.5q33 0 64.5 11.5t55.5 29.5l74 -139
q-29 -23 -67.5 -36.5t-67.5 -18.5v-104h-164z" />
    <glyph glyph-name="sterling.smcp" unicode="&#xf63b;" horiz-adv-x="524" 
d="M85 0v190h-65v124h65v23q0 91 52 140t168 49q49 0 83 -9.5t57 -25.5t36.5 -37t22.5 -44l-155 -47q-5 11 -14.5 21.5t-27.5 10.5q-23 0 -33.5 -12.5t-10.5 -29.5v-39h177v-124h-177v-56h232v-134h-410z" />
    <glyph glyph-name="yen.smcp" unicode="&#xf63c;" horiz-adv-x="524" 
d="M174 0v148h-126v122h85l-124 245h195l61 -179l57 179h193l-123 -245h80v-122h-119v-148h-179z" />
    <glyph glyph-name="florin.smcp" unicode="&#xf63d;" horiz-adv-x="524" 
d="M-21 21q66 2 98.5 22t40.5 60l9 43h-95v149h117l6 28q14 64 39 100.5t60 60.5q36 25 82 34t102 9h25.5t26.5 -1v-158q-65 0 -94 -19t-36 -54h130v-149h-148l-15 -90q-17 -100 -105 -146.5t-243 -46.5v158z" />
    <glyph glyph-name="exclam.smcp" unicode="&#xf63e;" horiz-adv-x="282" 
d="M37 199v323h208v-323h-208zM68 9q-27 22 -27 63t27.5 63t71.5 22t71.5 -22t27.5 -63t-27.5 -63t-71.5 -22t-72 22z" />
    <glyph glyph-name="question.smcp" unicode="&#xf63f;" horiz-adv-x="520" 
d="M119 192v22q0 32 21 55t49 40q48 29 69.5 40.5t21.5 26.5q0 24 -31 24q-29 0 -54.5 -17.5t-44.5 -36.5l-135 82q19 22 43.5 42t55.5 35t67.5 23.5t80.5 8.5q61 0 105.5 -10.5t74 -29t44 -44t14.5 -54.5q0 -48 -24.5 -77.5t-67.5 -52.5q-38 -20 -51.5 -35t-13.5 -36v-6
h-224zM160 12q-25 22 -25 60t25.5 59.5t67.5 21.5t68 -21.5t26 -59.5t-26 -59.5t-68 -21.5t-68 21z" />
    <glyph glyph-name="ordfeminine.smcp" unicode="&#xf640;" horiz-adv-x="455" 
d="M10 254l138 371h169l128 -371h-139l-20 60h-114l-20 -60h-142zM193 413h70l-35 117z" />
    <glyph glyph-name="ordmasculine.smcp" unicode="&#xf641;" horiz-adv-x="483" 
d="M149 264q-37 16 -61.5 43t-36 62.5t-11.5 75.5q0 39 12.5 75t38 63.5t63 44t87.5 16.5q52 0 90 -14.5t63 -40.5t37 -62.5t12 -79.5q0 -41 -12 -77t-37 -63t-63.5 -42.5t-90.5 -15.5q-53 0 -91 15zM189 381q16 -25 52 -25q37 0 53 25t16 65q0 43 -15 65.5t-53 22.5
q-37 0 -52.5 -25t-15.5 -64t15 -64z" />
    <glyph glyph-name="questiondown.smcp" unicode="&#xf642;" horiz-adv-x="520" 
d="M177 336h224v-22q0 -32 -21 -55t-49 -40q-48 -29 -69.5 -40.5t-21.5 -26.5q0 -24 31 -24q29 0 54.5 17.5t44.5 36.5l135 -82q-19 -22 -43.5 -42t-55.5 -35t-67.5 -23.5t-80.5 -8.5q-61 0 -105.5 10.5t-74 29t-44 44t-14.5 54.5q0 48 24.5 77.5t67.5 52.5q38 20 51.5 35
t13.5 36v6zM224 396q-26 22 -26 60t26 59.5t68 21.5t67.5 -21.5t25.5 -59.5t-25.5 -59.5t-67.5 -21.5t-68 21z" />
    <glyph glyph-name="exclamdown.smcp" unicode="&#xf643;" horiz-adv-x="282" 
d="M37 1v323h208v-323h-208zM70 388q-27 22 -27 63t27.5 63t71.5 22t71.5 -22t27.5 -63t-27.5 -63t-71.5 -22t-72 22z" />
    <glyph glyph-name="abreve.smcp" unicode="&#xf644;" horiz-adv-x="619" 
d="M0 0l206 522h208l205 -522h-201l-25 73h-169l-25 -73h-199zM256 206h102l-51 151zM238 766q4 -83 77 -83q26 0 49 18.5t29 64.5h97q-2 -54 -18.5 -89.5t-41.5 -56.5t-55.5 -30t-59.5 -9q-33 0 -63.5 9t-54.5 30.5t-39 57t-17 88.5h97z" />
    <glyph glyph-name="amacron.smcp" unicode="&#xf645;" horiz-adv-x="619" 
d="M0 0l206 522h208l205 -522h-201l-25 73h-169l-25 -73h-199zM256 206h102l-51 151zM140 602v115h324v-115h-324z" />
    <glyph glyph-name="aogonek.smcp" unicode="&#xf646;" horiz-adv-x="619" 
d="M0 0l206 522h208l205 -522h-201l-25 73h-169l-25 -73h-199zM256 206h102l-51 151zM618 -200q-18 -8 -41 -15t-54 -7q-70 0 -102 29.5t-32 75.5q0 26 10 47.5t24 38.5t30.5 29.5t30.5 20.5l101 8v-18q-27 -19 -48.5 -45t-21.5 -53q0 -32 32 -32q11 0 20.5 3t17.5 7z" />
    </font>
</defs>
</svg>
